<?xml version="1.0" standalone="no"?>
<!DOCTYPE svg PUBLIC "-//W3C//DTD SVG 1.1//EN" "http://www.w3.org/Graphics/SVG/1.1/DTD/svg11.dtd" >
<svg xmlns="http://www.w3.org/2000/svg" xmlns:xlink="http://www.w3.org/1999/xlink" version="1.1">
<metadata>
Created by FontForge 20170731 at Mon Jun  6 18:22:22 2022
 By Aleksey,,,
Copyright (c) The digitally encoded machine readable outline data for producing the typefaces licensed to you is copyrighted (c), 2009 by The Foundry, London. All rights reserved.
</metadata>
<defs>
<font id="FoundrySterling-Medium" horiz-adv-x="1249" >
  <font-face 
    font-family="Foundry Sterling Medium"
    font-weight="500"
    font-stretch="normal"
    units-per-em="2048"
    panose-1="2 0 6 0 4 0 0 2 0 4"
    ascent="1638"
    descent="-410"
    x-height="991"
    cap-height="1366"
    bbox="-573 -580 2589 1882"
    underline-thickness="102"
    underline-position="-307"
    unicode-range="U+0020-FFF3"
  />
<missing-glyph horiz-adv-x="1241" 
d="M893 -104v1323h-545v-1323h545zM166 -252v1618h909v-1618h-909z" />
    <glyph glyph-name="IJ" unicode="IJ" horiz-adv-x="1286" 
d="M350 0h-184v1366h184v-1366zM1137 434q0 -148 -12 -209q-20 -101 -83 -164q-88 -88 -237 -88q-71 0 -138.5 20.5t-94.5 36t-40 25.5l66 131q98 -53 178 -53q79 0 121 39q20 19 32.5 43.5t16.5 60.5t5 56t1 65v969h185v-932z" />
    <glyph glyph-name="ij" unicode="ij" horiz-adv-x="892" 
d="M330 1307q0 -44 -31.5 -75.5t-75.5 -31.5t-75 31.5t-31 75.5t31 75t75 31t75.5 -31t31.5 -75zM311 0h-174v991h174v-991zM776 1307q0 -44 -31 -75.5t-75 -31.5t-75.5 31.5t-31.5 75.5t31.5 75t75.5 31t75 -31t31 -75zM758 -92q0 -108 -18.5 -175t-71.5 -120
q-41 -41 -103 -61.5t-127 -20.5q-88 0 -162 37l43 129q63 -21 103 -21q74 0 117 43q45 45 45 172v1100h174v-1083z" />
    <glyph glyph-name="f_j" unicode="fj" horiz-adv-x="1093" 
d="M956 -92q0 -108 -18.5 -175t-71.5 -120q-41 -41 -102.5 -61.5t-126.5 -20.5q-88 0 -162 37l43 129q63 -21 103 -21q73 0 116 43q45 45 45 172v957h-381v-848h-174v848h-170v143h170v121q0 97 20 172.5t77 132.5q84 84 233 84q62 0 119.5 -17.5t82.5 -32.5t34 -24
l-68 -116q-65 43 -145 43q-85 0 -129 -47q-50 -54 -50 -193v-123h555v-1083z" />
    <glyph glyph-name="IJsmall" unicode="&#xf769;&#xf76a;" horiz-adv-x="1142" 
d="M328 0h-178v1065h178v-1065zM1008 268q-4 -145 -80 -219q-72 -69 -199 -69q-58 0 -113.5 15.5t-82 29.5t-41.5 26l63 123q78 -43 137 -43t96 33q20 19 29.5 52t10.5 53.5t1 66.5v729h179v-721v-76z" />
    <glyph glyph-name="f_f" unicode="ff" horiz-adv-x="1337" 
d="M1348 1427l-68 -116q-65 43 -145 43q-85 0 -129 -47q-50 -54 -50 -193v-123h310v-143h-310v-848h-174v848h-381v-848h-174v848h-170v143h170v129q0 200 97 297q84 84 229 84q99 0 164 -37l-47 -129q-46 19 -101 19q-71 0 -114 -43q-33 -33 -43.5 -80.5t-10.5 -116.5v-123
h381v121q0 97 20 172.5t77 132.5q84 84 233 84q62 0 119.5 -17.5t82.5 -32.5t34 -24z" />
    <glyph glyph-name="fi" unicode="fi" horiz-adv-x="1093" 
d="M956 0h-174v848h-381v-848h-174v848h-170v143h170v121q0 97 20 172.5t77 132.5q84 84 233 84q62 0 119.5 -17.5t82.5 -32.5t34 -24l-68 -116q-65 43 -145 43q-85 0 -129 -47q-50 -54 -50 -193v-123h555v-991z" />
    <glyph glyph-name="fl" unicode="fl" horiz-adv-x="1093" 
d="M956 0h-174v848h-381v-848h-174v848h-170v143h170v129q0 200 97 297q84 84 229 84q99 0 164 -37l-47 -129q-46 19 -101 19q-71 0 -114 -43q-33 -33 -43.5 -80.5t-10.5 -116.5v-123h381v486h174v-1477z" />
    <glyph glyph-name="f_f_i" unicode="ffi" horiz-adv-x="1648" 
d="M1511 0h-174v848h-381v-848h-174v848h-381v-848h-174v848h-170v143h170v129q0 200 97 297q84 84 229 84q99 0 164 -37l-47 -129q-46 19 -101 19q-71 0 -114 -43q-33 -33 -43.5 -80.5t-10.5 -116.5v-123h381v121q0 97 20 172.5t77 132.5q84 84 233 84q62 0 119.5 -17.5
t82.5 -32.5t34 -24l-68 -116q-65 43 -145 43q-85 0 -129 -47q-50 -54 -50 -193v-123h555v-991z" />
    <glyph glyph-name="f_f_l" unicode="ffl" horiz-adv-x="1648" 
d="M1511 0h-174v848h-381v-848h-174v848h-381v-848h-174v848h-170v143h170v129q0 200 97 297q84 84 229 84q99 0 164 -37l-47 -129q-46 19 -101 19q-71 0 -114 -43q-33 -33 -43.5 -80.5t-10.5 -116.5v-123h381v129q0 200 97 297q84 84 229 84q99 0 164 -37l-47 -129
q-46 19 -101 19q-71 0 -114 -43q-33 -33 -43.5 -80.5t-10.5 -116.5v-123h381v486h174v-1477z" />
    <glyph glyph-name="f_t" unicode="ft" horiz-adv-x="1329" 
d="M782 848h-381v-848h-174v848h-170v143h170v129q0 200 97 297q84 84 229 84q99 0 164 -37l-47 -129q-46 19 -101 19q-71 0 -114 -43q-33 -33 -43.5 -80.5t-10.5 -116.5v-123h381v279h174v-279h306v-143h-306v-506q0 -106 13 -142q27 -74 133 -75q32 0 63 6.5t52 14.5t24 8
l45 -125q-94 -54 -215 -54q-145 0 -221 76q-12 12 -22 25.5t-17 31t-12.5 30t-8.5 36.5t-5 35.5t-2.5 42.5t-0.5 42v49v50v455z" />
    <glyph glyph-name=".notdef" horiz-adv-x="1241" 
d="M893 -104v1323h-545v-1323h545zM166 -252v1618h909v-1618h-909z" />
    <glyph glyph-name=".notdef" horiz-adv-x="1241" 
d="M893 -104v1323h-545v-1323h545zM166 -252v1618h909v-1618h-909z" />
    <glyph glyph-name=".null" horiz-adv-x="0" 
 />
    <glyph glyph-name="nonmarkingreturn" horiz-adv-x="682" 
 />
    <glyph glyph-name="space" unicode=" " horiz-adv-x="487" 
 />
    <glyph glyph-name="exclam" unicode="!" horiz-adv-x="659" 
d="M432 1366l-26 -1006h-150l-33 1006h209zM446 102q0 -50 -33.5 -84t-82.5 -34q-50 0 -84.5 34.5t-34.5 83.5t34.5 83t84.5 34q49 0 82.5 -33.5t33.5 -83.5z" />
    <glyph glyph-name="quotedbl" unicode="&#x22;" horiz-adv-x="681" 
d="M578 1366l-21 -485h-149l-21 485h191zM297 1366l-21 -485h-149l-21 485h191z" />
    <glyph glyph-name="numbersign" unicode="#" horiz-adv-x="1185" 
d="M1042 1063l-18 -135h-182l-31 -219h182l-18 -136h-182l-50 -335h-137l49 335h-192l-49 -335h-138l50 335h-183l19 136h182l31 219h-182l18 135h182l43 303h137l-43 -303h193l43 303h137l-43 -303h182zM705 928h-193l-31 -219h193z" />
    <glyph glyph-name="dollar" unicode="$" 
d="M1073 387q0 -153 -94.5 -259.5t-263.5 -133.5v-203h-150v197q-231 12 -389 143l90 125l19 -12q19 -13 34.5 -22.5t45.5 -24.5t58.5 -25.5t66.5 -19.5t75 -11v508q-94 43 -154.5 77t-101.5 75q-94 94 -94 217q0 139 95.5 235t254.5 119v180h150v-176q202 -15 342 -135
l-92 -113q-117 88 -250 101v-445q178 -81 258 -161q100 -100 100 -236zM567 846v377q-78 -21 -124 -71t-46 -122q0 -55 49 -104q37 -37 121 -80zM883 375q0 75 -66 141q-42 42 -104 72v-436q81 24 125.5 85t44.5 138z" />
    <glyph glyph-name="percent" unicode="%" horiz-adv-x="1544" 
d="M1446 354q0 -171 -80.5 -268.5t-224.5 -97.5q-138 0 -218.5 94.5t-80.5 255.5q0 173 81.5 273t223.5 100q136 0 217.5 -97.5t81.5 -259.5zM702 1022q0 -171 -80.5 -269t-224.5 -98q-138 0 -218.5 95t-80.5 256q0 173 81.5 272.5t223.5 99.5q136 0 217.5 -97t81.5 -259z
M1315 352q0 119 -45 184.5t-121 65.5q-81 0 -127.5 -68t-46.5 -194q0 -118 44 -182t122 -64q87 0 130.5 71t43.5 187zM571 1020q0 120 -44.5 185t-120.5 65q-81 0 -128 -68.5t-47 -193.5q0 -118 44 -182t122 -64q87 0 130.5 71t43.5 187zM1303 1364l-963 -1444l-107 72
l963 1446z" />
    <glyph glyph-name="ampersand" unicode="&#x26;" horiz-adv-x="1384" 
d="M1284 0l-41 -2q-102 0 -159 26t-136 109q-83 -76 -189.5 -117t-217.5 -41q-186 0 -310.5 116.5t-124.5 291.5q0 78 31 149.5t76 120.5q58 62 172 123q-73 96 -107 161t-34 136q0 138 104.5 228t261.5 90q152 0 246 -79t94 -210q0 -60 -20.5 -112.5t-49 -88t-75.5 -70.5
t-81.5 -54t-86.5 -44l311 -360q38 45 75.5 155t37.5 224h156q-1 -161 -52.5 -299.5t-103.5 -198.5q65 -69 111.5 -90.5t111.5 -26.5v-137zM776 1096q0 72 -44 114.5t-122 42.5q-85 0 -138.5 -49t-53.5 -125q0 -47 25.5 -96.5t97.5 -136.5q129 59 182 116.5t53 133.5z
M840 246l-361 420q-198 -100 -198 -277q0 -111 79.5 -185t198.5 -73q74 2 148 31.5t133 83.5z" />
    <glyph glyph-name="quotesingle" unicode="'" horiz-adv-x="403" 
d="M297 1366l-21 -485h-149l-21 485h191z" />
    <glyph glyph-name="parenleft" unicode="(" horiz-adv-x="792" 
d="M692 1386q-70 -56 -130.5 -132.5t-111 -174.5t-79.5 -221.5t-29 -255.5q0 -135 28 -255.5t78.5 -216t109.5 -169.5t132 -135l-96 -109q-67 48 -128 107.5t-120.5 143.5t-102.5 177.5t-69.5 214t-26.5 248.5q0 157 42 305t110 260t144.5 194.5t156.5 133.5z" />
    <glyph glyph-name="parenright" unicode=")" horiz-adv-x="792" 
d="M645 608q0 -128 -26.5 -248.5t-69.5 -214t-102 -177.5t-120 -143.5t-128 -107.5l-97 109q73 61 132 135t110 169.5t79 216t28 255.5q0 256 -101 460t-250 324l93 115q63 -40 124.5 -99.5t121.5 -144.5t105 -181.5t73 -218.5t28 -249z" />
    <glyph glyph-name="asterisk" unicode="*" horiz-adv-x="903" 
d="M795 1085l-236 -73l162 -213l-119 -82l-149 213l-152 -213l-115 82l158 213l-235 73l45 136l225 -84v229h145v-229l226 84z" />
    <glyph glyph-name="plus" unicode="+" 
d="M1108 453h-410v-412h-147v412h-412v147h412v410h147v-410h410v-147z" />
    <glyph glyph-name="comma" unicode="," horiz-adv-x="540" 
d="M401 164q0 -75 -20 -145.5t-46 -116t-61.5 -87t-53.5 -58t-36 -29.5l-102 88q13 14 28 36t41 66t43 102.5t17 118.5v56h190v-31z" />
    <glyph glyph-name="hyphen" unicode="-" horiz-adv-x="1005" 
d="M842 453h-676v147h676v-147z" />
    <glyph glyph-name="period" unicode="." horiz-adv-x="489" 
d="M362 102q0 -50 -33.5 -84t-82.5 -34q-50 0 -84.5 34.5t-34.5 83.5t34.5 83t84.5 34q49 0 82.5 -33.5t33.5 -83.5z" />
    <glyph glyph-name="slash" unicode="/" horiz-adv-x="944" 
d="M848 1366l-625 -1671l-145 53l624 1671z" />
    <glyph glyph-name="zero" unicode="0" 
d="M1149 686q0 -333 -138.5 -523t-387.5 -190t-386 190t-137 525q0 324 138 515.5t380 191.5q249 0 390 -190.5t141 -518.5zM965 682q0 271 -87.5 416t-250.5 145q-167 0 -254.5 -144.5t-87.5 -422.5q0 -266 87 -408.5t249 -142.5q166 0 255 143.5t89 413.5z" />
    <glyph glyph-name="one" unicode="1" 
d="M795 0h-181v1153l-325 -219l-90 131l450 301h146v-1366z" />
    <glyph glyph-name="two" unicode="2" 
d="M1057 0h-875v141q45 38 154.5 140.5t185.5 179.5q179 179 255.5 293t76.5 227q0 121 -70.5 189.5t-193.5 68.5q-57 0 -115.5 -18.5t-101.5 -45t-66.5 -43.5t-32.5 -26l-96 108q4 7 21.5 24t57 45t87.5 52t119.5 42t146.5 18q192 0 310 -110t118 -296q0 -79 -25 -154.5
t-76 -149t-100 -129t-126 -132.5q-56 -56 -125.5 -121.5t-112.5 -104.5t-47 -42h631v-156z" />
    <glyph glyph-name="three" unicode="3" 
d="M1047 385q0 -189 -132.5 -300.5t-347.5 -111.5q-79 0 -149.5 14t-115 32.5t-81.5 42t-52 37t-22 22.5l91 117q1 0 10.5 -7.5t22.5 -16.5t33 -21t45.5 -23t54.5 -20.5t65 -15t74 -5.5q149 0 233 67t84 183q0 97 -67 164q-51 49 -125 65.5t-205 16.5h-33v151h33
q58 0 91.5 2t79 9.5t81.5 26.5t67 50q58 58 58 150q0 99 -73.5 162t-195.5 63q-162 0 -307 -121l-92 109q4 6 20.5 21t55 41.5t85 49t117 39.5t144.5 17q192 0 309 -103t117 -268q0 -73 -28.5 -140.5t-87 -117.5t-136.5 -61q128 -13 203.5 -104t75.5 -216z" />
    <glyph glyph-name="four" unicode="4" 
d="M1128 309h-180v-309h-172v309h-661v137l653 920h180v-907h180v-150zM776 459v674l-471 -674h471z" />
    <glyph glyph-name="five" unicode="5" 
d="M1059 444q0 -216 -136 -343.5t-360 -127.5q-74 0 -141.5 14t-111 32.5t-79 41t-50 35.5t-19.5 19l88 118q146 -104 299 -104q150 0 239 80.5t89 220.5q0 129 -84 214t-242 85q-124 0 -234 -63l-71 43v657h764v-152h-592v-368q88 35 188 35q209 0 331 -120.5t122 -316.5z
" />
    <glyph glyph-name="six" unicode="6" 
d="M1114 455q0 -210 -128.5 -346t-336.5 -136q-105 0 -190 37.5t-142.5 100.5t-96 150t-56 183.5t-17.5 202.5q0 119 18 225.5t60 203t104 166.5t155.5 111.5t209.5 41.5q70 0 134.5 -13t107 -30.5t76 -38t48.5 -33t19 -18.5l-84 -119q-129 100 -282 100q-87 0 -155.5 -30.5
t-112 -80.5t-72.5 -120.5t-41.5 -143.5t-14.5 -155v-51q34 113 139 178t232 65q195 0 310.5 -126.5t115.5 -323.5zM944 446q0 135 -73 221.5t-203 86.5q-134 0 -220 -92.5t-86 -227.5q0 -132 83 -220.5t212 -88.5q131 0 209 92t78 229z" />
    <glyph glyph-name="seven" unicode="7" 
d="M1100 1225l-553 -1225h-199l561 1210h-747v156h938v-141z" />
    <glyph glyph-name="eight" unicode="8" 
d="M1110 371q0 -182 -131.5 -290t-347.5 -108q-224 0 -358 106.5t-134 289.5q0 134 75 230.5t200 109.5q-112 27 -173 111t-61 196q0 169 123 274t320 105q200 0 323 -103t123 -270q0 -118 -60.5 -202.5t-168.5 -110.5q130 -23 200 -112.5t70 -225.5zM895 1014
q0 105 -73 171t-195 66t-196.5 -66t-74.5 -169q0 -106 76.5 -174t196.5 -68q117 0 191.5 67t74.5 173zM932 379q0 119 -81.5 187.5t-223.5 68.5q-143 0 -226.5 -69.5t-83.5 -184.5q0 -123 83.5 -193.5t232.5 -70.5q140 0 219.5 70.5t79.5 191.5z" />
    <glyph glyph-name="nine" unicode="9" 
d="M1100 721q0 -119 -18 -225.5t-59.5 -203t-103 -166.5t-155 -111.5t-209.5 -41.5q-70 0 -135 13t-107.5 30.5t-76.5 37.5t-49 33t-19 19l86 119q131 -102 283 -102q87 0 155 31t111.5 81t72.5 120.5t41.5 143.5t14.5 156v50q-34 -113 -139 -177.5t-232 -64.5
q-195 0 -311.5 126.5t-116.5 323.5q0 210 129.5 346t337.5 136q105 0 190 -37.5t142 -100.5t95.5 -150t55.5 -183.5t17 -202.5zM887 934q0 132 -83 220.5t-212 88.5q-131 0 -209 -93t-78 -230q0 -135 73.5 -220.5t203.5 -85.5q134 0 219.5 92.5t85.5 227.5z" />
    <glyph glyph-name="colon" unicode=":" horiz-adv-x="489" 
d="M362 893q0 -50 -33.5 -84.5t-82.5 -34.5q-50 0 -84.5 35t-34.5 84t34.5 83t84.5 34q49 0 82.5 -33.5t33.5 -83.5zM362 102q0 -50 -33.5 -84t-82.5 -34q-50 0 -84.5 34.5t-34.5 83.5t34.5 83t84.5 34q49 0 82.5 -33.5t33.5 -83.5z" />
    <glyph glyph-name="semicolon" unicode=";" horiz-adv-x="540" 
d="M416 893q0 -50 -34 -84.5t-83 -34.5t-84 35t-35 84t34.5 83t84.5 34q49 0 83 -34t34 -83zM401 164q0 -85 -24 -162t-62 -131t-69.5 -87t-61.5 -56l-102 88q61 81 95 156.5t34 166.5v56h190v-31z" />
    <glyph glyph-name="less" unicode="&#x3c;" 
d="M1126 156l-59 -133l-944 446v115l944 448l59 -137l-786 -371z" />
    <glyph glyph-name="equal" unicode="=" 
d="M1135 598h-1020v147h1020v-147zM1135 305h-1020v148h1020v-148z" />
    <glyph glyph-name="greater" unicode="&#x3e;" 
d="M1126 469l-944 -446l-59 133l786 368l-786 371l61 137l942 -448v-115z" />
    <glyph glyph-name="question" unicode="?" horiz-adv-x="1036" 
d="M905 1030q0 -95 -32.5 -156.5t-88.5 -117.5q-37 -37 -122 -100t-105 -83q-29 -29 -36 -69t-9 -144h-150q-1 9 -3 31.5t-3.5 46.5t-1.5 49q0 63 11.5 98t42.5 66q33 33 112.5 93.5t118.5 99.5q40 40 58 81t18 99q0 96 -65.5 156.5t-178.5 60.5q-63 0 -136.5 -25.5
t-102.5 -42t-50 -30.5l-76 117q4 4 23 17.5t57.5 34t84 39t108.5 31.5t125 13q176 0 288.5 -100t112.5 -265zM555 102q0 -50 -34 -84t-83 -34q-50 0 -84.5 34.5t-34.5 83.5t34.5 83t84.5 34t83.5 -33.5t33.5 -83.5z" />
    <glyph glyph-name="at" unicode="@" horiz-adv-x="1609" 
d="M1513 844q0 -222 -152.5 -359t-395.5 -137q-14 0 -50 4l15 88q-124 -94 -232 -94q-105 0 -170 72.5t-65 187.5q0 189 133.5 318t329.5 129q127 0 227 -43l-104 -545q145 15 239 113q44 46 70 117t26 147q0 185 -141 302.5t-366 117.5q-183 0 -329.5 -82t-229 -227.5
t-82.5 -327.5q0 -238 153.5 -382.5t394.5 -144.5q45 0 89.5 5.5t80.5 13.5t71.5 19.5t61 22.5t50 23.5t38 21t25.5 16.5l12 7l70 -98q-15 -12 -26 -20.5t-63 -37.5t-104.5 -48t-139.5 -35.5t-179 -16.5q-191 0 -344.5 82.5t-241.5 233.5t-88 342q0 159 60 299.5t164 240.5
t249 157.5t310 57.5q274 0 454 -153t180 -387zM1001 932q-50 8 -75 8q-133 0 -230.5 -98t-97.5 -232q0 -62 36 -101.5t91 -39.5q59 0 116.5 33.5t92.5 68.5z" />
    <glyph glyph-name="A" unicode="A" horiz-adv-x="1243" 
d="M1217 0h-193l-125 356h-563l-125 -356h-184l495 1366h195zM848 506l-232 665l-229 -665h461z" />
    <glyph glyph-name="B" unicode="B" horiz-adv-x="1169" 
d="M1059 395q0 -165 -103 -268q-31 -31 -65 -53.5t-78 -36t-78.5 -21.5t-94.5 -11.5t-97 -4t-114 -0.5h-21h-242v1366h377q130 0 215 -19t151 -85q107 -107 107 -263q0 -61 -17 -112t-42 -83t-56 -55.5t-57 -34.5t-47 -14q113 -17 187.5 -93t74.5 -212zM831 995
q0 96 -53 152q-32 35 -87 52.5t-94 19.5t-112 2h-22h-119v-459h105q72 0 118.5 3.5t105.5 21t95 51.5q63 57 63 157zM872 391q0 93 -61 154q-27 27 -62 44t-85 23.5t-82.5 7.5t-97.5 1h-27h-113v-471h152q129 0 196.5 16.5t120.5 69.5q28 28 43.5 70.5t15.5 84.5z" />
    <glyph glyph-name="C" unicode="C" horiz-adv-x="1269" 
d="M1221 117q-6 -7 -26 -21.5t-62.5 -36t-93.5 -40.5t-125 -32.5t-152 -13.5q-138 0 -257.5 48t-208 136t-139.5 221t-51 294q0 167 53.5 305t146 228.5t216.5 140t266 49.5q93 0 175 -16.5t132.5 -41.5t76 -41.5t36.5 -27.5l-80 -127q-147 92 -329 92q-105 0 -196.5 -37.5
t-160 -106t-108 -172.5t-39.5 -229q0 -251 132 -401t357 -150q29 0 57.5 3t53.5 7.5t50 11t45.5 13.5t40.5 15.5t35 15.5t29 14.5t22 12t16 9.5l8 5z" />
    <glyph glyph-name="D" unicode="D" horiz-adv-x="1394" 
d="M1288 692q0 -314 -194 -508q-50 -50 -108.5 -85t-112.5 -54t-127.5 -29.5t-132.5 -13t-148 -2.5h-299v1366h301q93 0 152.5 -2.5t133.5 -12t127 -27.5t109.5 -51t104.5 -81q92 -92 143 -222t51 -278zM1102 696q0 248 -146 394q-83 83 -186.5 106t-302.5 23h-119v-1069
h170q155 0 260.5 28t186.5 111q137 140 137 407z" />
    <glyph glyph-name="E" unicode="E" horiz-adv-x="1042" 
d="M938 0h-772v1366h756v-152h-576v-430h541v-147h-541v-481h592v-156z" />
    <glyph glyph-name="F" unicode="F" horiz-adv-x="991" 
d="M905 1214h-557v-430h524v-147h-524v-637h-182v1366h739v-152z" />
    <glyph glyph-name="G" unicode="G" horiz-adv-x="1376" 
d="M1241 100q-7 -6 -24.5 -17t-62 -31.5t-96.5 -37.5t-130.5 -30t-161.5 -13q-139 0 -259.5 48.5t-209.5 136.5t-140 221.5t-51 294.5q0 167 53.5 305t146 228.5t216.5 140t266 49.5q93 0 175 -16.5t132.5 -41.5t76 -41.5t36.5 -27.5l-80 -127q-19 13 -49 29.5t-112 39.5
t-168 23q-105 0 -196.5 -37.5t-160 -106t-108 -172.5t-39.5 -229q0 -254 132 -405.5t359 -151.5q159 0 277 59v340h-293v146h471v-576z" />
    <glyph glyph-name="H" unicode="H" horiz-adv-x="1327" 
d="M1161 0h-184v637h-627v-637h-184v1366h184v-573h627v573h184v-1366z" />
    <glyph glyph-name="I" unicode="I" horiz-adv-x="516" 
d="M350 0h-184v1366h184v-1366z" />
    <glyph glyph-name="J" unicode="J" horiz-adv-x="770" 
d="M621 434q0 -148 -12 -209q-21 -101 -83 -164q-88 -88 -237 -88q-71 0 -138.5 20.5t-94.5 36t-40 25.5l66 131q98 -53 178 -53q79 0 121 39q20 19 32.5 43.5t16.5 60.5t5 56t1 65v969h185v-932z" />
    <glyph glyph-name="K" unicode="K" horiz-adv-x="1157" 
d="M1133 0h-224l-561 647v-647h-182v1366h182v-641l551 641h205l-580 -668z" />
    <glyph glyph-name="L" unicode="L" horiz-adv-x="995" 
d="M918 0h-752v1366h184v-1210h568v-156z" />
    <glyph glyph-name="M" unicode="M" horiz-adv-x="1783" 
d="M1640 0h-180l-112 1104l-387 -1104h-152l-395 1104l-105 -1104h-166l146 1366h203l403 -1116l391 1116h203z" />
    <glyph glyph-name="N" unicode="N" horiz-adv-x="1323" 
d="M1157 0h-182l-645 1087l4 -1087h-168v1366h182l645 -1092l-4 1092h168v-1366z" />
    <glyph glyph-name="O" unicode="O" horiz-adv-x="1462" 
d="M1356 690q0 -319 -174.5 -518t-454.5 -199q-178 0 -319.5 90t-221.5 251.5t-80 365.5q0 209 79.5 371.5t223.5 252t328 89.5q273 0 446 -197t173 -506zM1167 696q0 243 -123 392t-319 149q-195 0 -312.5 -151t-117.5 -402q0 -246 125 -399.5t315 -153.5q139 0 238 75
t146.5 200.5t47.5 289.5z" />
    <glyph glyph-name="P" unicode="P" horiz-adv-x="1142" 
d="M1036 963q0 -185 -112 -297q-36 -36 -78.5 -60.5t-77.5 -36.5t-92.5 -18.5t-91.5 -7t-108 -0.5h-32h-96v-543h-182v1366h342q152 0 248 -20.5t166 -90.5q114 -114 114 -292zM852 965q0 118 -76 194q-22 22 -52.5 36t-74 19t-71.5 6t-84 1h-146v-529h92h21q66 0 99 1
t79.5 7t78 21.5t56.5 40.5q78 78 78 203z" />
    <glyph glyph-name="Q" unicode="Q" horiz-adv-x="1462" 
d="M1360 -262q-80 -23 -209 -23q-364 0 -545 275q-74 11 -145 44.5t-135.5 93.5t-113 138.5t-77.5 185.5t-29 228q0 209 79.5 371.5t223.5 252t328 89.5q273 0 446 -197t173 -506q0 -100 -19.5 -193.5t-61.5 -181t-103.5 -155t-152 -113t-200.5 -57.5q112 -135 379 -135
q32 0 65 3t53.5 6t22.5 3zM1167 696q0 243 -123 392t-319 149q-195 0 -312.5 -151t-117.5 -402q0 -246 125 -399.5t315 -153.5q139 0 238 75t146.5 200.5t47.5 289.5z" />
    <glyph glyph-name="R" unicode="R" horiz-adv-x="1159" 
d="M1106 0h-193l-157 356q-24 55 -43.5 90.5t-42 62.5t-42.5 41t-51.5 23t-62.5 11t-82 2h-86v-586h-180v1366h303q63 0 89.5 -0.5t77.5 -3t78.5 -9.5t65.5 -18.5t67 -31t56 -46.5q107 -107 107 -272q0 -145 -84 -235q-39 -42 -96.5 -72t-122.5 -37q64 -3 116 -55
q19 -19 38.5 -51.5t32 -59t36.5 -80.5zM827 985q0 105 -59 164q-27 27 -57 42.5t-72.5 21.5t-68 7t-83.5 1h-141v-490h64q151 0 210 12q88 19 140 70q67 67 67 172z" />
    <glyph glyph-name="S" unicode="S" horiz-adv-x="1073" 
d="M956 371q0 -174 -120.5 -287t-327.5 -113q-84 0 -163.5 20t-133 49t-83 48.5t-40.5 30.5l88 127q1 -1 14 -9.5t24 -15.5t31.5 -19t39.5 -21t46 -19t52 -17t56 -11.5t61 -4.5q122 0 194 64t72 161q0 40 -20 77.5t-39 60t-72 56t-72 43t-87 42.5q-7 4 -11 6l-10 5t-11 5
q-75 36 -124.5 67t-97.5 75.5t-71.5 102.5t-23.5 130q0 163 119.5 266t308.5 103q71 0 136 -13.5t106.5 -31.5t76.5 -40t49 -34.5t21 -20.5l-92 -118q-11 10 -30 22.5t-56.5 33t-90.5 33.5t-108 13q-114 0 -185 -53t-71 -144q0 -27 6 -49.5t22 -42.5t29.5 -34t42 -31
t45.5 -26t55 -28l56 -28q10 -5 44.5 -21.5t54 -27t55.5 -30.5t59 -38t53 -43.5t49.5 -53t38 -60.5t27 -73t8.5 -83z" />
    <glyph glyph-name="T" unicode="T" horiz-adv-x="1107" 
d="M1047 1214h-400v-1214h-184v1214h-402v152h986v-152z" />
    <glyph glyph-name="U" unicode="U" horiz-adv-x="1288" 
d="M1141 672v-41q0 -76 -0.5 -113t-3.5 -96.5t-11 -94t-21 -78t-35 -77t-52 -63.5q-136 -136 -373 -136q-112 0 -211 35.5t-168 104.5q-35 35 -59.5 79.5t-36 78t-17 89.5t-6 80.5t-0.5 85.5v840h185v-860q0 -121 12 -170q17 -70 66 -119q86 -86 241 -86q142 0 226 84
q25 25 41.5 55.5t25 55t12.5 76t4.5 81.5t0.5 109v51v723h180v-694z" />
    <glyph glyph-name="V" unicode="V" horiz-adv-x="1247" 
d="M1200 1366l-479 -1366h-203l-471 1366h191l387 -1178l397 1178h178z" />
    <glyph glyph-name="W" unicode="W" horiz-adv-x="1830" 
d="M1751 1366l-332 -1366h-221l-278 1178l-289 -1178h-221l-330 1366h184l260 -1176l291 1176h219l285 -1176l262 1176h170z" />
    <glyph glyph-name="X" unicode="X" horiz-adv-x="1189" 
d="M1135 0h-203l-342 565l-340 -565h-195l439 709l-410 657h207l307 -518l309 518h193l-408 -657z" />
    <glyph glyph-name="Y" unicode="Y" horiz-adv-x="1153" 
d="M1100 1366l-432 -825v-541h-183v541l-432 825h195l340 -666l336 666h176z" />
    <glyph glyph-name="Z" unicode="Z" horiz-adv-x="1130" 
d="M1036 0h-944v131l711 1083h-674v152h891v-137l-701 -1073h717v-156z" />
    <glyph glyph-name="bracketleft" unicode="[" horiz-adv-x="708" 
d="M621 -252h-455v1618h455v-147h-273v-1323h273v-148z" />
    <glyph glyph-name="backslash" unicode="\" horiz-adv-x="944" 
d="M866 -252l-145 -53l-625 1671l146 53z" />
    <glyph glyph-name="bracketright" unicode="]" horiz-adv-x="708" 
d="M543 -252h-455v148h272v1323h-272v147h455v-1618z" />
    <glyph glyph-name="asciicircum" unicode="^" 
d="M1096 510h-172l-299 655l-299 -655h-172l407 856h131z" />
    <glyph glyph-name="underscore" unicode="_" horiz-adv-x="995" 
d="M999 -252h-1003v148h1003v-148z" />
    <glyph glyph-name="grave" unicode="`" horiz-adv-x="804" 
d="M655 1221l-55 -103l-450 174l71 148z" />
    <glyph glyph-name="a" unicode="a" horiz-adv-x="980" 
d="M858 0h-156v74l-14 -9q-15 -9 -32 -18.5t-46 -22t-59.5 -22t-71 -16t-80.5 -6.5q-144 0 -231.5 85t-87.5 222q0 336 565 336h45v63q0 50 -7.5 81.5t-33.5 57.5q-52 52 -174 52q-135 0 -272 -78l-64 116q5 5 20 15t47.5 25.5t71.5 29t96.5 23.5t117.5 10q186 0 286 -100
q51 -51 65.5 -114.5t14.5 -180.5v-623zM690 195v297h-51q-262 0 -348 -86q-45 -45 -45 -115q0 -77 52 -123.5t144 -46.5q35 0 70 6.5t64.5 17t51 20t41 19.5t21.5 11z" />
    <glyph glyph-name="b" unicode="b" horiz-adv-x="1095" 
d="M1010 514q0 -239 -141.5 -389t-368.5 -150q-37 0 -74 3t-71 9.5t-61.5 12t-56.5 14.5l-43.5 13.5t-35.5 12.5l-21 7v1430h174v-541q14 11 38.5 26t90.5 35.5t135 20.5q194 0 314.5 -138t120.5 -366zM834 512q0 164 -80 261t-207 97q-118 0 -236 -84v-632l11 -4
q12 -4 20 -6.5t25.5 -7t34.5 -7t42 -4.5t52 -2q154 0 246 106t92 283z" />
    <glyph glyph-name="c" unicode="c" horiz-adv-x="972" 
d="M920 88q-7 -9 -46.5 -32.5t-127 -51t-179.5 -27.5q-215 0 -348 138t-133 364q0 236 142 387.5t362 151.5q52 0 103 -10t86 -24t64 -30t43.5 -27t18.5 -16l-74 -112q-107 71 -237 71q-148 0 -240 -108.5t-92 -265.5q0 -165 88 -266t234 -101q31 0 61.5 4t55.5 11t47 14.5
t40 16t30 15t21 12.5l9 5z" />
    <glyph glyph-name="d" unicode="d" horiz-adv-x="1095" 
d="M958 0h-155v78q-118 -101 -279 -101q-197 0 -317.5 140.5t-120.5 365.5q0 237 137.5 386t345.5 149q115 0 215 -60v519h174v-1477zM784 211v594q-87 65 -198 65q-145 0 -234.5 -104t-89.5 -283q0 -161 82.5 -259.5t210.5 -98.5q24 0 48 3.5t43.5 9.5t38.5 13.5t33 15
t26.5 15.5t20 14t13.5 10z" />
    <glyph glyph-name="e" unicode="e" horiz-adv-x="1040" 
d="M954 522q0 -10 -2 -37t-2 -36h-690q-1 -65 18 -122.5t56 -103t98 -72t139 -26.5q141 0 281 78l66 -119q-13 -10 -36 -23t-70 -34.5t-115 -35.5t-140 -14q-147 0 -255 67t-162 181.5t-54 263.5q0 237 127 383t334 146q188 0 297.5 -132t109.5 -364zM786 586q0 48 -12 95.5
t-37 93.5t-74 75t-114 29q-118 0 -197.5 -80t-89.5 -213h524z" />
    <glyph glyph-name="f" unicode="f" horiz-adv-x="782" 
d="M793 1427l-68 -116q-65 43 -145 43q-85 0 -129 -47q-50 -54 -50 -193v-123h310v-143h-310v-848h-174v848h-170v143h170v121q0 97 20 172.5t77 132.5q84 84 233 84q62 0 119.5 -17.5t82.5 -32.5t34 -24z" />
    <glyph glyph-name="g" unicode="g" horiz-adv-x="1097" 
d="M961 -4q0 -134 -19.5 -211t-79.5 -137q-117 -117 -336 -117q-67 0 -131 12.5t-108.5 29.5t-81 37t-54 33t-22.5 19l76 117q1 0 12.5 -8t25 -16t35 -19t46.5 -21t54 -18.5t63.5 -13.5t68.5 -5q140 0 211 68q42 40 53.5 94t11.5 164v72q-125 -78 -270 -78q-98 0 -179.5 38
t-136 104.5t-84.5 155.5t-30 191q0 229 142 380t364 151q34 0 68.5 -3.5t64 -9t60 -14t53 -15.5t46 -16.5t36 -15t26.5 -12.5l15 -6v-930zM786 225v604q-96 41 -198 41q-145 0 -235.5 -103.5t-90.5 -272.5q0 -158 80 -254.5t205 -96.5q116 0 239 82z" />
    <glyph glyph-name="h" unicode="h" horiz-adv-x="1062" 
d="M938 0h-174v563q0 111 -9 167t-44 91q-49 49 -140 49q-57 0 -122 -21.5t-95.5 -38.5t-42.5 -26v-784h-174v1477h174v-547q11 9 45.5 27t106.5 39.5t139 21.5q152 0 238 -86q64 -64 81 -140t17 -217v-575z" />
    <glyph glyph-name="i" unicode="i" horiz-adv-x="446" 
d="M330 1307q0 -44 -31.5 -75.5t-75.5 -31.5t-75 31.5t-31 75.5t31 75t75 31t75.5 -31t31.5 -75zM311 0h-174v991h174v-991z" />
    <glyph glyph-name="j" unicode="j" horiz-adv-x="446" 
d="M330 1307q0 -44 -31.5 -75.5t-75.5 -31.5t-75 31.5t-31 75.5t31 75t75 31t75.5 -31t31.5 -75zM311 -92q0 -108 -18.5 -175t-71.5 -120q-41 -41 -102.5 -61.5t-126.5 -20.5q-88 0 -162 37l43 129q63 -21 102 -21q74 0 117 43q45 45 45 172v1100h174v-1083z" />
    <glyph glyph-name="k" unicode="k" horiz-adv-x="1009" 
d="M975 0h-215l-449 518v-518h-174v1477h174v-908l422 422h221l-458 -444z" />
    <glyph glyph-name="l" unicode="l" horiz-adv-x="448" 
d="M311 0h-174v1477h174v-1477z" />
    <glyph glyph-name="m" unicode="m" horiz-adv-x="1642" 
d="M1520 0h-174v580q0 185 -50 239q-45 51 -135 51q-124 0 -262 -84q16 -43 16 -231v-555h-172v549q0 70 -0.5 95.5t-4.5 69t-15 68t-29 43.5q-45 45 -129 45q-111 0 -254 -82v-788h-174v991h156v-73q150 100 303 100q159 0 244 -115q53 33 94 54t110.5 41t139.5 20
q151 0 237 -86q65 -65 82 -141t17 -216v-575z" />
    <glyph glyph-name="n" unicode="n" horiz-adv-x="1060" 
d="M938 0h-174v563q0 111 -9 167t-44 91q-49 49 -140 49q-57 0 -122 -21.5t-95.5 -38.5t-42.5 -26v-784h-174v991h156v-73l8 5q8 5 14.5 9t19.5 11.5t25.5 14t30 14.5t34.5 14t39 12t43 10.5t46 7t49 2.5q152 0 238 -86q64 -64 81 -140t17 -217v-575z" />
    <glyph glyph-name="o" unicode="o" horiz-adv-x="1105" 
d="M1020 496q0 -234 -129 -376.5t-344 -142.5q-207 0 -334 142.5t-127 376.5t129.5 378t345.5 144q207 0 333 -142.5t126 -379.5zM846 494q0 169 -83 274.5t-212 105.5q-133 0 -212 -102t-79 -270t84 -273.5t213 -105.5q136 0 212.5 100t76.5 271z" />
    <glyph glyph-name="p" unicode="p" horiz-adv-x="1095" 
d="M1010 512q0 -236 -138 -385.5t-346 -149.5q-115 0 -215 60v-475h-174v1429h156v-73q117 100 278 100q197 0 318 -140.5t121 -365.5zM834 512q0 161 -82.5 259.5t-210.5 98.5q-24 0 -48 -3.5t-44 -9.5t-38.5 -13.5t-32.5 -15t-27 -15.5t-20.5 -14t-13.5 -11l-6 -4v-594
q87 -65 199 -65q145 0 234.5 104t89.5 283z" />
    <glyph glyph-name="q" unicode="q" horiz-adv-x="1097" 
d="M961 -438h-175v497q-1 0 -11 -6.5t-18 -11.5t-24 -13t-31 -14.5t-37 -13.5t-44 -12t-49.5 -8t-55.5 -3q-97 0 -179 39.5t-136.5 107t-84.5 159t-30 194.5q0 153 63.5 276.5t179.5 194t263 70.5q38 0 77 -4.5t74 -12.5t64.5 -16.5t57.5 -19.5t44.5 -18t34.5 -15l17 -8
v-1362zM786 209v616q-100 43 -198 43q-146 0 -236 -105.5t-90 -279.5q0 -161 80 -258.5t205 -97.5q116 0 239 82z" />
    <glyph glyph-name="r" unicode="r" horiz-adv-x="776" 
d="M719 999l-41 -139q-36 6 -74 6q-35 0 -68 -6.5t-58 -16t-48.5 -23.5t-39 -27t-31 -28.5t-23 -25.5t-16 -21.5t-9.5 -12.5v-705h-174v991h156v-129q130 156 319 156q21 0 38.5 -1.5t29.5 -4.5t19.5 -5.5l13.5 -4.5z" />
    <glyph glyph-name="s" unicode="s" horiz-adv-x="845" 
d="M764 276q0 -93 -50.5 -163t-132 -105t-180.5 -35q-88 0 -172 24.5t-119 43.5t-49 31l66 121q127 -76 264 -76q81 0 136 41t55 106q0 41 -27 73t-70 54.5t-95.5 44t-105 47.5t-95.5 57.5t-70 82t-27 114.5q0 125 96.5 203t249.5 78q54 0 105.5 -8.5t85.5 -20t63.5 -25.5
t41.5 -21.5t18 -12.5l-66 -117q-13 9 -39 22t-84 29.5t-112 16.5q-87 0 -135 -37.5t-48 -95.5q0 -38 27.5 -69t71 -53t96.5 -44t106 -48.5t96.5 -59t71 -83.5t27.5 -115z" />
    <glyph glyph-name="t" unicode="t" horiz-adv-x="761" 
d="M719 29l-7 -4l-14 -7t-19 -8.5t-25 -10t-29.5 -9t-35 -8t-39.5 -5.5t-44 -2q-147 0 -223 76q-24 24 -38.5 52t-20 68t-6.5 65.5t-1 79.5v26v506h-174v143h174v279h174v-279h305v-143h-305v-535q0 -37 1.5 -59t9.5 -49.5t22.5 -42.5t43 -26t69.5 -11q28 0 54.5 4t41 8.5
t27.5 9.5l14 5z" />
    <glyph glyph-name="u" unicode="u" horiz-adv-x="1060" 
d="M924 0h-156v74q-1 0 -8 -5t-14 -9.5t-20 -12t-25.5 -13.5t-30 -14t-35 -14.5t-39 -12.5t-42.5 -10.5t-46 -7t-49 -2.5q-75 0 -140.5 23t-101.5 59q-34 34 -54 70.5t-28.5 88t-10 88.5t-1.5 114v575h174v-563q0 -111 9 -167t44 -91q49 -49 139 -49q57 0 122 21.5
t96.5 38.5t42.5 26v784h174v-991z" />
    <glyph glyph-name="v" unicode="v" horiz-adv-x="1042" 
d="M989 991l-385 -991h-184l-383 991h184l299 -805l297 805h172z" />
    <glyph glyph-name="w" unicode="w" horiz-adv-x="1542" 
d="M1464 991l-284 -991h-197l-225 813l-226 -813h-192l-274 991h172l208 -809l224 809h192l221 -809l215 809h166z" />
    <glyph glyph-name="x" unicode="x" horiz-adv-x="1038" 
d="M979 0h-203l-268 387l-268 -387h-193l363 504l-340 487h204l246 -358l244 358h188l-334 -483z" />
    <glyph glyph-name="y" unicode="y" horiz-adv-x="1052" 
d="M1001 991l-393 -1040q-51 -132 -91 -204.5t-89 -121.5q-94 -94 -258 -94q-24 0 -47 2t-42 6t-35 8.5t-30 9.5t-22.5 8.5t-16 7t-8.5 3.5l49 131q1 0 17 -6t31 -10.5t42 -8.5t54 -4q95 0 153 58q27 27 52 71t38 75t41 102l-411 1007h188l316 -803l286 803h176z" />
    <glyph glyph-name="z" unicode="z" horiz-adv-x="993" 
d="M881 0h-789v127l553 719h-530v145h745v-131l-545 -713h566v-147z" />
    <glyph glyph-name="braceleft" unicode="{" horiz-adv-x="751" 
d="M664 -252h-119q-187 0 -271 84q-38 38 -53.5 94.5t-15.5 171.5v236q0 40 -1 62.5t-9 53.5t-23 44t-68 20v143q49 4 68 21q15 13 23 44t9 53.5t1 62.5v178q0 115 15.5 171.5t53.5 94.5q84 84 271 84h119v-145h-68q-77 0 -114.5 -7.5t-59.5 -27.5q-21 -19 -27 -57.5
t-6 -129.5v-155q0 -122 -11 -165q-12 -47 -38 -69q-21 -18 -51 -24q28 -6 51 -25q23 -20 34.5 -60.5t13 -70.5t1.5 -85v-17v-215q0 -91 6 -128.5t27 -56.5q22 -20 60 -28.5t114 -8.5h68v-143z" />
    <glyph glyph-name="bar" unicode="|" horiz-adv-x="532" 
d="M356 -252h-180v1618h180v-1618z" />
    <glyph glyph-name="braceright" unicode="}" horiz-adv-x="751" 
d="M647 514q-52 -6 -67 -20q-15 -13 -23 -44t-9 -53.5t-1 -62.5v-236q0 -115 -16 -171.5t-54 -94.5q-49 -49 -116 -66.5t-154 -17.5h-119v143h68q76 0 114 8.5t60 28.5q21 19 26.5 56t5.5 129v215q0 124 13 170q12 42 37 63q23 19 51 25q-30 6 -51 24q-19 16 -30 40.5
t-15 65.5t-4.5 59t-0.5 69v155q0 93 -5.5 130.5t-26.5 56.5q-22 20 -59.5 27.5t-114.5 7.5h-68v145h119q87 0 154 -17.5t116 -66.5q38 -38 54 -95t16 -171v-178q0 -40 1 -62.5t9 -53.5t23 -44q19 -17 67 -21v-143z" />
    <glyph glyph-name="asciitilde" unicode="~" 
d="M1087 532q-104 -137 -243 -137q-54 0 -108 15t-120 42t-100 37q-56 17 -96 17q-47 0 -80.5 -20t-77.5 -64l-100 80q10 19 27 39t47.5 45.5t79 42t106.5 16.5q70 0 146 -27.5t147 -55t127 -27.5q43 0 75 20t80 68z" />
    <glyph glyph-name="exclamdown" unicode="&#xa1;" horiz-adv-x="659" 
d="M449 899q0 -49 -33.5 -83t-83.5 -34t-84.5 34t-34.5 83t34.5 84t84.5 35q49 0 83 -34.5t34 -84.5zM434 -365h-209l33 1006h150z" />
    <glyph glyph-name="cent" unicode="&#xa2;" 
d="M1047 109q-8 -8 -37.5 -26.5t-97 -44.5t-138.5 -34v-213h-149v211q-187 23 -299.5 157.5t-112.5 340.5q0 210 114 355.5t298 174.5v203h149v-197q69 -8 132 -33t91 -43.5t35 -27.5l-74 -113q-91 57 -184 70v-735q116 16 201 73zM625 160v717q-107 -32 -171.5 -132.5
t-64.5 -228.5q0 -137 63.5 -232t172.5 -124z" />
    <glyph glyph-name="sterling" unicode="&#xa3;" 
d="M1139 1255l-86 -108l-13 10q-14 10 -24 16.5t-29.5 18t-39 19t-44.5 16t-54.5 12.5t-60.5 4q-134 0 -209 -84t-75 -241q0 -86 14 -195h397v-148h-383q7 -56 7 -100q0 -236 -113 -319h688v-156h-948v137q101 31 147.5 98t46.5 205q0 66 -6 135h-184v148h170
q-16 136 -16 195q0 222 121.5 348.5t332.5 126.5q79 0 148.5 -18t113.5 -45t67 -45t32 -30z" />
    <glyph glyph-name="currency" unicode="&#xa4;" horiz-adv-x="1226" 
d="M1163 240l-104 -105l-123 121q-132 -104 -330 -104q-190 0 -325 104l-121 -121l-105 105l121 122q-94 134 -94 322q0 192 96 330l-123 125l105 104l125 -125q134 103 329 103q191 0 320 -101l125 123l104 -104l-123 -123q95 -138 95 -324q0 -195 -95 -332zM954 696
q0 177 -98 281t-254 104q-154 0 -246 -105.5t-92 -289.5q0 -182 97.5 -287.5t250.5 -105.5q162 0 252 108t90 295z" />
    <glyph glyph-name="yen" unicode="&#xa5;" 
d="M1139 1366l-367 -641h238v-129h-297v-119h295v-127h-297v-350h-176v350h-299v127h299v119h-302v129h236l-360 641h194l326 -623l332 623h178z" />
    <glyph glyph-name="brokenbar" unicode="&#xa6;" horiz-adv-x="532" 
d="M356 743h-180v623h180v-623zM356 -252h-180v623h180v-623z" />
    <glyph glyph-name="section" unicode="&#xa7;" horiz-adv-x="1228" 
d="M1012 578q0 -195 -207 -285q166 -91 166 -254q0 -146 -103 -242t-278 -96q-72 0 -138.5 15t-114 38.5t-68 36.5t-36.5 25l74 123l8 -5q8 -5 16.5 -9.5t22 -12t28 -14t32.5 -14t37.5 -13.5t40 -11t43.5 -7.5t45 -2.5q111 0 167 48.5t56 121.5q0 64 -43 107
q-30 30 -86 57.5t-109.5 47t-116.5 54t-104 76.5q-84 84 -84 193q0 190 217 274q-91 52 -132.5 115t-41.5 146q0 138 97.5 221.5t263.5 83.5q176 0 305 -103l-68 -112q-10 8 -37 23t-84 32.5t-110 17.5q-96 0 -147.5 -40.5t-51.5 -104.5q0 -55 39 -94q34 -35 116.5 -72
t170 -78.5t131.5 -85.5q84 -87 84 -200zM850 551q0 59 -41 100q-51 51 -205 117q-81 -27 -132.5 -75.5t-51.5 -112.5q0 -54 41 -95q46 -48 223 -120q73 29 119.5 78t46.5 108z" />
    <glyph glyph-name="dieresis" unicode="&#xa8;" horiz-adv-x="804" 
d="M682 1276q0 -46 -32.5 -77.5t-78.5 -31.5t-77 31.5t-31 77.5t31 77t77 31t78.5 -31.5t32.5 -76.5zM342 1276q0 -46 -32.5 -77.5t-78.5 -31.5t-77 31.5t-31 77.5t31 77t77 31t78.5 -31.5t32.5 -76.5z" />
    <glyph glyph-name="copyright" unicode="&#xa9;" horiz-adv-x="1607" 
d="M1511 682q0 -143 -56 -274t-150.5 -226t-225.5 -151t-274 -56q-191 0 -354.5 95t-259 258t-95.5 354t95.5 354.5t259 259t354.5 95.5q193 0 356.5 -98t256.5 -261t93 -350zM1374 682q0 156 -77 287.5t-207.5 206.5t-284.5 75q-116 0 -222 -46t-182.5 -123t-122 -182
t-45.5 -218q0 -154 77 -284.5t209 -206.5t286 -76t285 76t207.5 206.5t76.5 284.5zM1077 387q-9 -10 -40 -28t-94 -37t-128 -19q-160 0 -260 103.5t-100 273.5q0 177 105 290t271 113q88 0 152 -29.5t84 -52.5l-57 -90q-42 28 -80.5 42t-93.5 14q-109 0 -175.5 -79.5
t-66.5 -195.5q0 -122 64 -196t171 -74q24 0 48.5 3.5t42.5 8.5t37.5 13t29.5 12.5t23 12t14 7.5z" />
    <glyph glyph-name="ordfeminine" unicode="&#xaa;" horiz-adv-x="870" 
d="M709 635h-125v51q-100 -65 -217 -65q-107 0 -173.5 63t-66.5 166q0 51 18 91.5t45 66.5t68 45t76.5 28.5t81 15t72.5 6.5t59 1h26v41v11.5v12.5t-0.5 11t-1 11.5l-1.5 10.5t-3 11l-5 10t-6.5 10.5t-8.5 9.5q-37 37 -125 37q-98 0 -201 -59l-51 94q13 11 38 25.5t90 33.5
t136 19q139 0 213 -74q38 -38 50 -87.5t12 -133.5v-463zM573 786v211h-30q-191 0 -252 -61q-31 -31 -31 -82q0 -54 35.5 -87.5t101.5 -33.5q75 0 176 53z" />
    <glyph glyph-name="guillemotleft" unicode="&#xab;" horiz-adv-x="1003" 
d="M877 178l-115 -72l-291 398l291 391l115 -76l-189 -315zM532 178l-114 -72l-291 398l291 391l114 -76l-188 -315z" />
    <glyph glyph-name="logicalnot" unicode="&#xac;" 
d="M1128 315h-161v287h-846v148h1007v-435z" />
    <glyph glyph-name="registered" unicode="&#xae;" horiz-adv-x="1099" 
d="M1004 940q0 -189 -132 -320t-321 -131t-322 131t-133 320t133 321t322 132t321 -132t132 -321zM905 940q0 149 -102.5 250.5t-251.5 101.5t-251.5 -101.5t-102.5 -250.5t102 -249.5t252 -100.5t252 100.5t102 249.5zM760 700h-90l-52 113q-26 56 -45 70t-69 14h-21v-197
h-90v490h137q42 0 63 -1.5t48 -10.5t45 -27q39 -39 39 -98q0 -48 -31 -84q-34 -34 -78 -39q22 0 41 -19q14 -14 39 -69zM631 1047q0 25 -15 40q-21 21 -73 21h-60v-129h39q25 0 35.5 0.5t27 5.5t27.5 16q19 19 19 46z" />
    <glyph glyph-name="macron" unicode="&#xaf;" horiz-adv-x="804" 
d="M729 1210h-651v131h651v-131z" />
    <glyph glyph-name="degree" unicode="&#xb0;" horiz-adv-x="1245" 
d="M928 1094q0 -126 -88.5 -214.5t-214.5 -88.5t-216 88.5t-90 214.5t90 214.5t216 88.5t214.5 -88.5t88.5 -214.5zM807 1094q0 78 -52.5 131t-129.5 53t-131 -53t-54 -131t54 -131.5t131 -53.5t129.5 53.5t52.5 131.5z" />
    <glyph glyph-name="plusminus" unicode="&#xb1;" horiz-adv-x="1247" 
d="M1108 657h-410v-419h-147v419h-412v148h412v424h147v-424h410v-148zM1108 0h-969v147h969v-147z" />
    <glyph glyph-name="twosuperior" unicode="&#xb2;" horiz-adv-x="800" 
d="M621 666h-447v94q46 40 76.5 67t81 77.5t81.5 89t55 84.5t24 81q0 52 -29 82.5t-82 30.5q-63 0 -150 -74l-65 74q33 41 93.5 73.5t133.5 32.5q99 0 161 -59t62 -156q0 -91 -67 -178.5t-205 -210.5h277v-108z" />
    <glyph glyph-name="threesuperior" unicode="&#xb3;" horiz-adv-x="800" 
d="M629 872q0 -101 -69 -160t-177 -59q-62 0 -114 18.5t-74.5 36.5t-34.5 35l63 76l8 -6q8 -6 14 -10t17 -11t22.5 -12t25 -10t29.5 -7.5t32 -2.5q65 0 100 29t35 77q0 57 -43 82t-129 25h-33v102h33q31 0 54 3t50.5 12t42.5 31t15 55q0 41 -29.5 68.5t-81.5 27.5
q-71 0 -145 -62l-66 72q30 35 89 65.5t132 30.5q98 0 159.5 -54t61.5 -142q0 -48 -31 -94.5t-83 -59.5q58 -10 92.5 -55t34.5 -101z" />
    <glyph glyph-name="acute" unicode="&#xb4;" horiz-adv-x="804" 
d="M655 1292l-450 -174l-55 103l434 219z" />
    <glyph glyph-name="uni00B5" unicode="&#xb5;" horiz-adv-x="1075" 
d="M938 0h-156v74q-1 0 -8 -5t-14 -9.5t-20 -12t-25.5 -13.5t-30 -14t-35 -14.5t-39 -12.5t-42.5 -10.5t-46 -7t-49 -2.5q-118 0 -176 58v-283h-160v1243h174v-563q0 -110 9.5 -166.5t44.5 -91.5q49 -49 139 -49q57 0 122 21.5t95.5 38.5t42.5 26v784h174v-991z" />
    <glyph glyph-name="paragraph" unicode="&#xb6;" 
d="M1184 1214h-135v-1466h-156v1466h-133v-1466h-156v803q-43 1 -66 2t-75 7.5t-88 18t-80 34.5t-76 55q-115 115 -115 303q0 165 111 276q76 76 188 97.5t332 21.5h449v-152z" />
    <glyph glyph-name="periodcentered" unicode="&#xb7;" horiz-adv-x="489" 
d="M362 522q0 -50 -33.5 -84.5t-82.5 -34.5q-50 0 -84.5 34.5t-34.5 84.5q0 49 34.5 83t84.5 34q49 0 82.5 -33.5t33.5 -83.5z" />
    <glyph glyph-name="cedilla" unicode="&#xb8;" horiz-adv-x="804" 
d="M578 -266q0 -84 -61 -134.5t-140 -50.5q-53 0 -93.5 14.5t-58.5 30.5l37 78q43 -26 103 -26q55 0 77.5 26t22.5 58q0 35 -24 57.5t-62 22.5q-46 0 -84 -27l-57 35l32 182h101l-17 -102q16 8 47 8q78 0 127.5 -48t49.5 -124z" />
    <glyph glyph-name="onesuperior" unicode="&#xb9;" horiz-adv-x="800" 
d="M514 666h-127v548l-156 -100l-63 92l248 160h98v-700z" />
    <glyph glyph-name="ordmasculine" unicode="&#xba;" horiz-adv-x="864" 
d="M780 1004q0 -174 -96.5 -280t-255.5 -106q-155 0 -249.5 106.5t-94.5 279.5q0 174 97 281.5t257 107.5q155 0 248.5 -106t93.5 -283zM643 1004q0 123 -60.5 198.5t-152.5 75.5q-95 0 -152 -73.5t-57 -196.5t60.5 -198t152.5 -75q98 0 153.5 72.5t55.5 196.5z" />
    <glyph glyph-name="guillemotright" unicode="&#xbb;" horiz-adv-x="1003" 
d="M877 504l-291 -398l-115 72l188 326l-188 315l115 76zM532 504l-290 -398l-115 72l188 326l-188 315l115 76z" />
    <glyph glyph-name="onequarter" unicode="&#xbc;" horiz-adv-x="1544" 
d="M514 666h-127v548l-156 -100l-63 92l248 160h98v-700zM1415 150h-92v-150h-123v150h-338v90l342 460h119v-444h92v-106zM1200 256v268l-196 -268h196zM1303 1364l-963 -1444l-107 72l963 1446z" />
    <glyph glyph-name="onehalf" unicode="&#xbd;" horiz-adv-x="1544" 
d="M1364 0h-446v94q315 266 315 400q0 52 -28 80t-81 28q-67 0 -151 -72l-62 76q29 40 91 72.5t135 32.5q96 0 156.5 -58.5t60.5 -154.5q0 -91 -68 -183t-201 -209h279v-106zM514 666h-127v548l-156 -100l-63 92l248 160h98v-700zM1303 1364l-963 -1444l-107 72l963 1446z
" />
    <glyph glyph-name="threequarters" unicode="&#xbe;" horiz-adv-x="1544" 
d="M629 872q0 -101 -69 -160t-177 -59q-62 0 -114 18.5t-74.5 36.5t-34.5 35l63 76l8 -6q8 -6 14 -10t17 -11t22.5 -12t25 -10t29.5 -7.5t32 -2.5q65 0 100 29t35 77q0 57 -43 82t-129 25h-33v102h33q31 0 54 3t50.5 12t42.5 31t15 55q0 41 -29.5 68.5t-81.5 27.5
q-71 0 -145 -62l-66 72q30 35 89 65.5t132 30.5q98 0 159.5 -54t61.5 -142q0 -48 -31 -94.5t-83 -59.5q58 -10 92.5 -55t34.5 -101zM1415 150h-92v-150h-123v150h-338v90l342 460h119v-444h92v-106zM1200 256v268l-196 -268h196zM1303 1364l-963 -1444l-107 72l963 1446z
" />
    <glyph glyph-name="questiondown" unicode="&#xbf;" horiz-adv-x="1036" 
d="M717 899q0 -49 -34.5 -83t-84.5 -34t-83.5 34t-33.5 83q0 50 34 84.5t83 34.5q50 0 84.5 -35t34.5 -84zM930 -258q-4 -4 -23 -17.5t-57.5 -34t-84 -39t-108.5 -31.5t-125 -13q-176 0 -288.5 99.5t-112.5 264.5q0 95 32.5 157t88.5 118q37 37 122 99.5t105 82.5
q29 29 36 69t9 144h150q1 -9 3 -31.5t3.5 -46.5t1.5 -49q0 -63 -11 -98t-42 -66q-33 -33 -113 -93t-119 -99t-57 -80.5t-18 -100.5q0 -96 65 -156.5t178 -60.5q49 0 101 13.5t94.5 34.5t61 31.5t32.5 19.5z" />
    <glyph glyph-name="Agrave" unicode="&#xc0;" horiz-adv-x="1243" 
d="M1217 0h-193l-125 356h-563l-125 -356h-184l495 1366h195zM848 506l-232 665l-229 -665h461zM874 1569l-55 -103l-450 174l71 148z" />
    <glyph glyph-name="Aacute" unicode="&#xc1;" horiz-adv-x="1243" 
d="M1217 0h-193l-125 356h-563l-125 -356h-184l495 1366h195zM848 506l-232 665l-229 -665h461zM858 1640l-450 -174l-56 103l434 219z" />
    <glyph glyph-name="Acircumflex" unicode="&#xc2;" horiz-adv-x="1243" 
d="M1217 0h-193l-125 356h-563l-125 -356h-184l495 1366h195zM848 506l-232 665l-229 -665h461zM940 1563l-68 -97l-256 144l-258 -144l-67 101l325 221z" />
    <glyph glyph-name="Atilde" unicode="&#xc3;" horiz-adv-x="1243" 
d="M1217 0h-193l-125 356h-563l-125 -356h-184l495 1366h195zM848 506l-232 665l-229 -665h461zM946 1583q-110 -110 -221 -110q-43 0 -114.5 25.5t-108.5 25.5q-49 0 -137 -58l-80 101q36 31 63 50.5t70.5 37.5t85.5 18q43 0 115 -25.5t108 -25.5q67 0 141 61z" />
    <glyph glyph-name="Adieresis" unicode="&#xc4;" horiz-adv-x="1243" 
d="M1217 0h-193l-125 356h-563l-125 -356h-184l495 1366h195zM848 506l-232 665l-229 -665h461zM897 1587q0 -45 -32.5 -76.5t-78.5 -31.5t-77 31t-31 77t31 77.5t77 31.5t78.5 -31.5t32.5 -77.5zM557 1587q0 -45 -32.5 -76.5t-78.5 -31.5t-77 31t-31 77t31 77.5t77 31.5
t78.5 -31.5t32.5 -77.5z" />
    <glyph glyph-name="Aring" unicode="&#xc5;" horiz-adv-x="1243" 
d="M1217 0h-193l-125 356h-563l-125 -356h-184l495 1366h195zM848 506l-232 665l-229 -665h461zM825 1675q0 -86 -61.5 -147.5t-147.5 -61.5t-147 61.5t-61 147.5q0 87 61 147t147 60q87 0 148 -61t61 -146zM725 1675q0 45 -32 77t-77 32q-44 0 -76 -32.5t-32 -76.5t32 -76
t76 -32q46 0 77.5 31.5t31.5 76.5z" />
    <glyph glyph-name="AE" unicode="&#xc6;" horiz-adv-x="1779" 
d="M1675 0h-772v358h-479l-195 -358h-194l780 1366h844v-152h-576v-430h541v-147h-541v-481h592v-156zM903 512v719l-397 -719h397z" />
    <glyph glyph-name="Ccedilla" unicode="&#xc7;" horiz-adv-x="1269" 
d="M1221 117q-6 -7 -26 -21.5t-62.5 -36t-93.5 -40.5t-125 -32.5t-152 -13.5l-17 -96q16 8 48 8q78 0 127 -48t49 -124q0 -84 -61 -134t-140 -50q-53 0 -93.5 14.5t-58.5 30.5l37 78q45 -27 103 -27q55 0 77.5 26t22.5 58q0 35 -24 57.5t-62 22.5q-46 0 -84 -27l-57 35
l33 183q-160 22 -284.5 108.5t-198 238t-73.5 345.5q0 167 53.5 305t146 228.5t216.5 140t266 49.5q93 0 175 -16.5t132.5 -41.5t76 -41.5t36.5 -27.5l-80 -127q-147 92 -329 92q-105 0 -196.5 -37.5t-160 -106t-108 -172.5t-39.5 -229q0 -251 132 -401t357 -150q28 0 57 3
t53.5 7.5t50 11t45.5 13.5t40.5 15.5t35 15.5t29 14.5t22.5 12t16 9.5l8 5z" />
    <glyph glyph-name="Egrave" unicode="&#xc8;" horiz-adv-x="1042" 
d="M938 0h-772v1366h756v-152h-576v-430h541v-147h-541v-481h592v-156zM784 1569l-55 -103l-450 174l71 148z" />
    <glyph glyph-name="Eacute" unicode="&#xc9;" horiz-adv-x="1042" 
d="M938 0h-772v1366h756v-152h-576v-430h541v-147h-541v-481h592v-156zM805 1640l-451 -174l-55 103l434 219z" />
    <glyph glyph-name="Ecircumflex" unicode="&#xca;" horiz-adv-x="1042" 
d="M938 0h-772v1366h756v-152h-576v-430h541v-147h-541v-481h592v-156zM856 1563l-68 -97l-256 144l-258 -144l-67 101l325 221z" />
    <glyph glyph-name="Edieresis" unicode="&#xcb;" horiz-adv-x="1042" 
d="M938 0h-772v1366h756v-152h-576v-430h541v-147h-541v-481h592v-156zM809 1587q0 -45 -32.5 -76.5t-78.5 -31.5t-77 31t-31 77t31 77.5t77 31.5t78.5 -31.5t32.5 -77.5zM469 1587q0 -45 -32.5 -76.5t-78.5 -31.5t-77 31t-31 77t31 77.5t77 31.5t78.5 -31.5t32.5 -77.5z
" />
    <glyph glyph-name="Igrave" unicode="&#xcc;" horiz-adv-x="516" 
d="M350 0h-184v1366h184v-1366zM512 1569l-55 -103l-451 174l72 148z" />
    <glyph glyph-name="Iacute" unicode="&#xcd;" horiz-adv-x="516" 
d="M350 0h-184v1366h184v-1366zM510 1640l-451 -174l-55 103l434 219z" />
    <glyph glyph-name="Icircumflex" unicode="&#xce;" horiz-adv-x="516" 
d="M350 0h-184v1366h184v-1366zM582 1563l-68 -97l-256 144l-258 -144l-68 101l326 221z" />
    <glyph glyph-name="Idieresis" unicode="&#xcf;" horiz-adv-x="516" 
d="M350 0h-184v1366h184v-1366zM537 1587q0 -45 -32.5 -76.5t-78.5 -31.5t-77.5 31t-31.5 77t31.5 77.5t77.5 31.5t78.5 -31.5t32.5 -77.5zM197 1587q0 -45 -32.5 -76.5t-78.5 -31.5t-77.5 31t-31.5 77t31.5 77.5t77.5 31.5t78.5 -31.5t32.5 -77.5z" />
    <glyph glyph-name="Eth" unicode="&#xd0;" horiz-adv-x="1431" 
d="M1327 692q0 -314 -194 -508q-50 -50 -108.5 -85t-112.5 -54t-127.5 -29.5t-132.5 -13t-148 -2.5h-299v637h-205v147h205v582h301q93 0 152.5 -2.5t133.5 -12t127 -27.5t109.5 -51t104.5 -81q92 -92 143 -222t51 -278zM1141 696q0 248 -146 394q-83 83 -186.5 106
t-302.5 23h-119v-435h395v-147h-395v-487h170q155 0 260.5 28t186.5 111q137 140 137 407z" />
    <glyph glyph-name="Ntilde" unicode="&#xd1;" horiz-adv-x="1323" 
d="M1157 0h-182l-645 1087l4 -1087h-168v1366h182l645 -1092l-4 1092h168v-1366zM973 1583q-110 -110 -221 -110q-43 0 -115 25.5t-109 25.5q-49 0 -137 -58l-80 101q36 31 63 50.5t70.5 37.5t85.5 18q43 0 115.5 -25.5t108.5 -25.5q67 0 141 61z" />
    <glyph glyph-name="Ograve" unicode="&#xd2;" horiz-adv-x="1462" 
d="M1356 690q0 -319 -174.5 -518t-454.5 -199q-178 0 -319.5 90t-221.5 251.5t-80 365.5q0 209 79.5 371.5t223.5 252t328 89.5q273 0 446 -197t173 -506zM1167 696q0 243 -123 392t-319 149q-195 0 -312.5 -151t-117.5 -402q0 -246 125 -399.5t315 -153.5q139 0 238 75
t146.5 200.5t47.5 289.5zM985 1569l-55 -103l-451 174l72 148z" />
    <glyph glyph-name="Oacute" unicode="&#xd3;" horiz-adv-x="1462" 
d="M1356 690q0 -319 -174.5 -518t-454.5 -199q-178 0 -319.5 90t-221.5 251.5t-80 365.5q0 209 79.5 371.5t223.5 252t328 89.5q273 0 446 -197t173 -506zM1167 696q0 243 -123 392t-319 149q-195 0 -312.5 -151t-117.5 -402q0 -246 125 -399.5t315 -153.5q139 0 238 75
t146.5 200.5t47.5 289.5zM963 1640l-451 -174l-55 103l434 219z" />
    <glyph glyph-name="Ocircumflex" unicode="&#xd4;" horiz-adv-x="1462" 
d="M1356 690q0 -319 -174.5 -518t-454.5 -199q-178 0 -319.5 90t-221.5 251.5t-80 365.5q0 209 79.5 371.5t223.5 252t328 89.5q273 0 446 -197t173 -506zM1167 696q0 243 -123 392t-319 149q-195 0 -312.5 -151t-117.5 -402q0 -246 125 -399.5t315 -153.5q139 0 238 75
t146.5 200.5t47.5 289.5zM1049 1563l-68 -97l-256 144l-258 -144l-68 101l326 221z" />
    <glyph glyph-name="Otilde" unicode="&#xd5;" horiz-adv-x="1462" 
d="M1356 690q0 -319 -174.5 -518t-454.5 -199q-178 0 -319.5 90t-221.5 251.5t-80 365.5q0 209 79.5 371.5t223.5 252t328 89.5q273 0 446 -197t173 -506zM1167 696q0 243 -123 392t-319 149q-195 0 -312.5 -151t-117.5 -402q0 -246 125 -399.5t315 -153.5q139 0 238 75
t146.5 200.5t47.5 289.5zM1057 1583q-110 -110 -221 -110q-43 0 -115 25.5t-109 25.5q-49 0 -137 -58l-80 101q36 31 63 50.5t70.5 37.5t85.5 18q43 0 115.5 -25.5t108.5 -25.5q67 0 141 61z" />
    <glyph glyph-name="Odieresis" unicode="&#xd6;" horiz-adv-x="1462" 
d="M1356 690q0 -319 -174.5 -518t-454.5 -199q-178 0 -319.5 90t-221.5 251.5t-80 365.5q0 209 79.5 371.5t223.5 252t328 89.5q273 0 446 -197t173 -506zM1167 696q0 243 -123 392t-319 149q-195 0 -312.5 -151t-117.5 -402q0 -246 125 -399.5t315 -153.5q139 0 238 75
t146.5 200.5t47.5 289.5zM1016 1587q0 -45 -32.5 -76.5t-78.5 -31.5t-77 31t-31 77t31 77.5t77 31.5t78.5 -31.5t32.5 -77.5zM676 1587q0 -45 -32.5 -76.5t-78.5 -31.5t-77 31t-31 77t31 77.5t77 31.5t78.5 -31.5t32.5 -77.5z" />
    <glyph glyph-name="multiply" unicode="&#xd7;" 
d="M1110 145l-104 -106l-381 381l-381 -381l-105 106l381 379l-381 383l105 105l381 -381l381 381l104 -105l-381 -383z" />
    <glyph glyph-name="Oslash" unicode="&#xd8;" horiz-adv-x="1462" 
d="M1356 690q0 -319 -174.5 -518t-454.5 -199q-141 0 -268 62l-105 -182l-129 71l111 193q-109 95 -169.5 240.5t-60.5 322.5q0 209 79.5 371.5t223.5 252t328 89.5q166 0 285 -68l108 182l132 -73l-119 -197q101 -95 157 -236.5t56 -310.5zM1167 696q0 73 -11.5 140
t-28.5 109.5t-34 75t-29 46.5l-11 14l-512 -901q8 -5 22.5 -13.5t65 -22t106.5 -13.5q139 0 238 75t146.5 200.5t47.5 289.5zM942 1180q-9 6 -26 15.5t-73.5 25.5t-117.5 16q-195 0 -312.5 -151t-117.5 -402q0 -77 14 -147.5t33.5 -116t39.5 -80.5t34 -50l14 -16z" />
    <glyph glyph-name="Ugrave" unicode="&#xd9;" horiz-adv-x="1288" 
d="M1141 672v-41q0 -76 -0.5 -113t-3.5 -96.5t-11 -94t-21 -78t-35 -77t-52 -63.5q-136 -136 -373 -136q-112 0 -211 35.5t-168 104.5q-35 35 -59.5 79.5t-36 78t-17 89.5t-6 80.5t-0.5 85.5v840h185v-860q0 -121 12 -170q17 -70 66 -119q86 -86 241 -86q142 0 226 84
q25 25 41.5 55.5t25 55t12.5 76t4.5 81.5t0.5 109v51v723h180v-694zM883 1569l-56 -103l-450 174l72 148z" />
    <glyph glyph-name="Uacute" unicode="&#xda;" horiz-adv-x="1288" 
d="M1141 672v-41q0 -76 -0.5 -113t-3.5 -96.5t-11 -94t-21 -78t-35 -77t-52 -63.5q-136 -136 -373 -136q-112 0 -211 35.5t-168 104.5q-35 35 -59.5 79.5t-36 78t-17 89.5t-6 80.5t-0.5 85.5v840h185v-860q0 -121 12 -170q17 -70 66 -119q86 -86 241 -86q142 0 226 84
q25 25 41.5 55.5t25 55t12.5 76t4.5 81.5t0.5 109v51v723h180v-694zM899 1640l-450 -174l-56 103l434 219z" />
    <glyph glyph-name="Ucircumflex" unicode="&#xdb;" horiz-adv-x="1288" 
d="M1141 672v-41q0 -76 -0.5 -113t-3.5 -96.5t-11 -94t-21 -78t-35 -77t-52 -63.5q-136 -136 -373 -136q-112 0 -211 35.5t-168 104.5q-35 35 -59.5 79.5t-36 78t-17 89.5t-6 80.5t-0.5 85.5v840h185v-860q0 -121 12 -170q17 -70 66 -119q86 -86 241 -86q142 0 226 84
q25 25 41.5 55.5t25 55t12.5 76t4.5 81.5t0.5 109v51v723h180v-694zM961 1563l-68 -97l-256 144l-258 -144l-68 101l326 221z" />
    <glyph glyph-name="Udieresis" unicode="&#xdc;" horiz-adv-x="1288" 
d="M1141 672v-41q0 -76 -0.5 -113t-3.5 -96.5t-11 -94t-21 -78t-35 -77t-52 -63.5q-136 -136 -373 -136q-112 0 -211 35.5t-168 104.5q-35 35 -59.5 79.5t-36 78t-17 89.5t-6 80.5t-0.5 85.5v840h185v-860q0 -121 12 -170q17 -70 66 -119q86 -86 241 -86q142 0 226 84
q25 25 41.5 55.5t25 55t12.5 76t4.5 81.5t0.5 109v51v723h180v-694zM926 1587q0 -45 -32.5 -76.5t-78.5 -31.5t-77 31t-31 77t31 77.5t77 31.5t78.5 -31.5t32.5 -77.5zM586 1587q0 -45 -32.5 -76.5t-78.5 -31.5t-77 31t-31 77t31 77.5t77 31.5t78.5 -31.5t32.5 -77.5z" />
    <glyph glyph-name="Yacute" unicode="&#xdd;" horiz-adv-x="1153" 
d="M1100 1366l-432 -825v-541h-183v541l-432 825h195l340 -666l336 666h176zM817 1640l-450 -174l-56 103l434 219z" />
    <glyph glyph-name="Thorn" unicode="&#xde;" horiz-adv-x="1142" 
d="M1036 707q0 -185 -112 -297q-36 -36 -78.5 -60.5t-77.5 -36.5t-92.5 -18.5t-91.5 -7t-108 -0.5h-32h-96v-287h-182v1366h182v-256h160q152 0 248 -20.5t166 -90.5q114 -114 114 -292zM852 709q0 118 -76 194q-22 22 -52.5 36t-74 19t-71.5 6t-84 1h-146v-529h92h21
q66 0 99 1t79.5 7t78 21.5t56.5 40.5q78 78 78 203z" />
    <glyph glyph-name="germandbls" unicode="&#xdf;" horiz-adv-x="1116" 
d="M1030 326q0 -160 -107.5 -254.5t-269.5 -94.5q-29 0 -57 3t-51 8t-42.5 10t-36.5 12t-27.5 11.5t-21 9.5t-11.5 6l55 137q1 -1 15 -7t28 -11t35 -11.5t46.5 -10t51.5 -3.5q98 0 156.5 50.5t58.5 133.5q0 70 -57 134q-27 29 -110 87.5t-118 94.5q-51 51 -51 117
q0 41 23 80t56 72t66.5 68t56.5 82.5t23 100.5q0 90 -55.5 145.5t-148.5 55.5q-92 0 -152 -60q-41 -42 -57.5 -118t-16.5 -207v-967h-174v948q0 165 21.5 270t91.5 175q110 110 289 110q168 0 275.5 -97t107.5 -253q0 -69 -22 -126.5t-54 -94.5t-63.5 -66t-53.5 -53.5
t-22 -44.5q0 -23 26 -49q18 -19 60 -48.5t79 -58.5t75 -69t60.5 -95.5t22.5 -121.5z" />
    <glyph glyph-name="agrave" unicode="&#xe0;" horiz-adv-x="980" 
d="M858 0h-156v74l-14 -9q-15 -9 -32 -18.5t-46 -22t-59.5 -22t-71 -16t-80.5 -6.5q-144 0 -231.5 85t-87.5 222q0 336 565 336h45v63q0 50 -7.5 81.5t-33.5 57.5q-52 52 -174 52q-135 0 -272 -78l-64 116q5 5 20 15t47.5 25.5t71.5 29t96.5 23.5t117.5 10q186 0 286 -100
q51 -51 65.5 -114.5t14.5 -180.5v-623zM690 195v297h-51q-262 0 -348 -86q-45 -45 -45 -115q0 -77 52 -123.5t144 -46.5q35 0 70 6.5t64.5 17t51 20t41 19.5t21.5 11zM752 1221l-56 -103l-450 174l71 148z" />
    <glyph glyph-name="aacute" unicode="&#xe1;" horiz-adv-x="980" 
d="M858 0h-156v74l-14 -9q-15 -9 -32 -18.5t-46 -22t-59.5 -22t-71 -16t-80.5 -6.5q-144 0 -231.5 85t-87.5 222q0 336 565 336h45v63q0 50 -7.5 81.5t-33.5 57.5q-52 52 -174 52q-135 0 -272 -78l-64 116q5 5 20 15t47.5 25.5t71.5 29t96.5 23.5t117.5 10q186 0 286 -100
q51 -51 65.5 -114.5t14.5 -180.5v-623zM690 195v297h-51q-262 0 -348 -86q-45 -45 -45 -115q0 -77 52 -123.5t144 -46.5q35 0 70 6.5t64.5 17t51 20t41 19.5t21.5 11zM748 1292l-451 -174l-55 103l434 219z" />
    <glyph glyph-name="acircumflex" unicode="&#xe2;" horiz-adv-x="980" 
d="M858 0h-156v74l-14 -9q-15 -9 -32 -18.5t-46 -22t-59.5 -22t-71 -16t-80.5 -6.5q-144 0 -231.5 85t-87.5 222q0 336 565 336h45v63q0 50 -7.5 81.5t-33.5 57.5q-52 52 -174 52q-135 0 -272 -78l-64 116q5 5 20 15t47.5 25.5t71.5 29t96.5 23.5t117.5 10q186 0 286 -100
q51 -51 65.5 -114.5t14.5 -180.5v-623zM690 195v297h-51q-262 0 -348 -86q-45 -45 -45 -115q0 -77 52 -123.5t144 -46.5q35 0 70 6.5t64.5 17t51 20t41 19.5t21.5 11zM809 1217l-68 -97l-256 144l-258 -144l-67 101l325 221z" />
    <glyph glyph-name="atilde" unicode="&#xe3;" horiz-adv-x="980" 
d="M858 0h-156v74l-14 -9q-15 -9 -32 -18.5t-46 -22t-59.5 -22t-71 -16t-80.5 -6.5q-144 0 -231.5 85t-87.5 222q0 336 565 336h45v63q0 50 -7.5 81.5t-33.5 57.5q-52 52 -174 52q-135 0 -272 -78l-64 116q5 5 20 15t47.5 25.5t71.5 29t96.5 23.5t117.5 10q186 0 286 -100
q51 -51 65.5 -114.5t14.5 -180.5v-623zM690 195v297h-51q-262 0 -348 -86q-45 -45 -45 -115q0 -77 52 -123.5t144 -46.5q35 0 70 6.5t64.5 17t51 20t41 19.5t21.5 11zM829 1264q-111 -111 -221 -111q-43 0 -114.5 25.5t-108.5 25.5q-50 0 -137 -57l-80 100q37 32 63.5 51
t70 37.5t85.5 18.5q43 0 115 -25.5t108 -25.5q68 0 142 61z" />
    <glyph glyph-name="adieresis" unicode="&#xe4;" horiz-adv-x="980" 
d="M858 0h-156v74l-14 -9q-15 -9 -32 -18.5t-46 -22t-59.5 -22t-71 -16t-80.5 -6.5q-144 0 -231.5 85t-87.5 222q0 336 565 336h45v63q0 50 -7.5 81.5t-33.5 57.5q-52 52 -174 52q-135 0 -272 -78l-64 116q5 5 20 15t47.5 25.5t71.5 29t96.5 23.5t117.5 10q186 0 286 -100
q51 -51 65.5 -114.5t14.5 -180.5v-623zM690 195v297h-51q-262 0 -348 -86q-45 -45 -45 -115q0 -77 52 -123.5t144 -46.5q35 0 70 6.5t64.5 17t51 20t41 19.5t21.5 11zM776 1276q0 -46 -32 -77.5t-78 -31.5t-77.5 31.5t-31.5 77.5t31.5 77t77.5 31t78 -31t32 -77zM436 1276
q0 -46 -32 -77.5t-78 -31.5t-77.5 31.5t-31.5 77.5t31.5 77t77.5 31t78 -31t32 -77z" />
    <glyph glyph-name="aring" unicode="&#xe5;" horiz-adv-x="980" 
d="M858 0h-156v74l-14 -9q-15 -9 -32 -18.5t-46 -22t-59.5 -22t-71 -16t-80.5 -6.5q-144 0 -231.5 85t-87.5 222q0 336 565 336h45v63q0 50 -7.5 81.5t-33.5 57.5q-52 52 -174 52q-135 0 -272 -78l-64 116q5 5 20 15t47.5 25.5t71.5 29t96.5 23.5t117.5 10q186 0 286 -100
q51 -51 65.5 -114.5t14.5 -180.5v-623zM690 195v297h-51q-262 0 -348 -86q-45 -45 -45 -115q0 -77 52 -123.5t144 -46.5q35 0 70 6.5t64.5 17t51 20t41 19.5t21.5 11zM698 1309q0 -86 -61.5 -147.5t-147.5 -61.5t-147 61.5t-61 147.5q0 87 61 147t147 60q87 0 148 -61
t61 -146zM598 1309q0 45 -32 76.5t-77 31.5q-44 0 -76 -32t-32 -76t32 -76.5t76 -32.5q45 0 77 32t32 77z" />
    <glyph glyph-name="ae" unicode="&#xe6;" horiz-adv-x="1646" 
d="M1561 522q0 -10 -2.5 -37t-2.5 -36h-690q-1 -88 31 -159.5t105 -118t176 -46.5q140 0 280 78l66 -119q-13 -10 -36 -23t-70 -34.5t-115 -35.5t-140 -14q-210 0 -338 136q-161 -136 -395 -136q-153 0 -248.5 80t-95.5 222q0 66 25 118.5t61.5 85.5t92 57.5t103 36
t108 18.5t93 8t72.5 1h51v43q0 72 -7 110t-34 66q-50 54 -172 54q-133 0 -270 -78l-66 116q7 5 20.5 14t47.5 25.5t73 30t96.5 23.5t117.5 10q168 0 264 -82q37 -32 55 -68q10 12 20.5 24t42.5 37t66.5 42.5t90 32t116.5 14.5q189 0 298.5 -132t109.5 -364zM1393 586
q0 47 -12 95t-37.5 94t-74.5 75t-114 29q-118 0 -197.5 -80t-89.5 -213h525zM752 219q-10 15 -21 40t-24 86t-11 126h-61q-61 0 -110 -3.5t-102.5 -15t-89.5 -31.5t-59.5 -56t-23.5 -84q0 -74 59 -116t144 -42q93 0 171.5 29.5t127.5 66.5z" />
    <glyph glyph-name="ccedilla" unicode="&#xe7;" horiz-adv-x="972" 
d="M920 88q-7 -9 -47 -32.5t-127.5 -51t-178.5 -27.5l-12 -79q16 8 47 8q78 0 127 -48t49 -124q0 -85 -60.5 -135t-139.5 -50q-53 0 -93.5 14.5t-58.5 30.5l37 78q43 -26 102 -26q55 0 78 26t23 58q0 35 -24 57.5t-62 22.5q-46 0 -84 -27l-58 35l31 168q-175 31 -279 163
t-104 330q0 236 142 387.5t362 151.5q52 0 103 -10t86 -24t64 -30t43.5 -27t18.5 -16l-74 -112q-107 71 -237 71q-148 0 -240 -108.5t-92 -265.5q0 -165 88 -266t234 -101q31 0 61.5 4t55.5 11t47 14.5t40 16t30 15t21 12.5l9 5z" />
    <glyph glyph-name="egrave" unicode="&#xe8;" horiz-adv-x="1040" 
d="M954 522q0 -10 -2 -37t-2 -36h-690q-1 -65 18 -122.5t56 -103t98 -72t139 -26.5q141 0 281 78l66 -119q-13 -10 -36 -23t-70 -34.5t-115 -35.5t-140 -14q-147 0 -255 67t-162 181.5t-54 263.5q0 237 127 383t334 146q188 0 297.5 -132t109.5 -364zM786 586q0 48 -12 95.5
t-37 93.5t-74 75t-114 29q-118 0 -197.5 -80t-89.5 -213h524zM782 1221l-55 -103l-451 174l72 148z" />
    <glyph glyph-name="eacute" unicode="&#xe9;" horiz-adv-x="1040" 
d="M954 522q0 -10 -2 -37t-2 -36h-690q-1 -65 18 -122.5t56 -103t98 -72t139 -26.5q141 0 281 78l66 -119q-13 -10 -36 -23t-70 -34.5t-115 -35.5t-140 -14q-147 0 -255 67t-162 181.5t-54 263.5q0 237 127 383t334 146q188 0 297.5 -132t109.5 -364zM786 586q0 48 -12 95.5
t-37 93.5t-74 75t-114 29q-118 0 -197.5 -80t-89.5 -213h524zM786 1292l-450 -174l-55 103l434 219z" />
    <glyph glyph-name="ecircumflex" unicode="&#xea;" horiz-adv-x="1040" 
d="M954 522q0 -10 -2 -37t-2 -36h-690q-1 -65 18 -122.5t56 -103t98 -72t139 -26.5q141 0 281 78l66 -119q-13 -10 -36 -23t-70 -34.5t-115 -35.5t-140 -14q-147 0 -255 67t-162 181.5t-54 263.5q0 237 127 383t334 146q188 0 297.5 -132t109.5 -364zM786 586q0 48 -12 95.5
t-37 93.5t-74 75t-114 29q-118 0 -197.5 -80t-89.5 -213h524zM864 1217l-67 -97l-256 144l-258 -144l-68 101l326 221z" />
    <glyph glyph-name="edieresis" unicode="&#xeb;" horiz-adv-x="1040" 
d="M954 522q0 -10 -2 -37t-2 -36h-690q-1 -65 18 -122.5t56 -103t98 -72t139 -26.5q141 0 281 78l66 -119q-13 -10 -36 -23t-70 -34.5t-115 -35.5t-140 -14q-147 0 -255 67t-162 181.5t-54 263.5q0 237 127 383t334 146q188 0 297.5 -132t109.5 -364zM786 586q0 48 -12 95.5
t-37 93.5t-74 75t-114 29q-118 0 -197.5 -80t-89.5 -213h524zM821 1276q0 -46 -32 -77.5t-78 -31.5t-77.5 31.5t-31.5 77.5t31.5 77t77.5 31t78 -31t32 -77zM481 1276q0 -46 -32 -77.5t-78 -31.5t-77.5 31.5t-31.5 77.5t31.5 77t77.5 31t78 -31t32 -77z" />
    <glyph glyph-name="igrave" unicode="&#xec;" horiz-adv-x="446" 
d="M311 0h-174v991h174v-991zM477 1221l-55 -103l-451 174l72 148z" />
    <glyph glyph-name="iacute" unicode="&#xed;" horiz-adv-x="446" 
d="M311 0h-174v991h174v-991zM475 1292l-450 -174l-56 103l434 219z" />
    <glyph glyph-name="icircumflex" unicode="&#xee;" horiz-adv-x="446" 
d="M311 0h-174v991h174v-991zM551 1217l-68 -97l-256 144l-258 -144l-67 101l325 221z" />
    <glyph glyph-name="idieresis" unicode="&#xef;" horiz-adv-x="446" 
d="M311 0h-174v991h174v-991zM504 1276q0 -46 -32.5 -77.5t-78.5 -31.5t-77 31.5t-31 77.5t31 77t77 31t78.5 -31.5t32.5 -76.5zM164 1276q0 -46 -32.5 -77.5t-78.5 -31.5t-77 31.5t-31 77.5t31 77t77 31t78.5 -31.5t32.5 -76.5z" />
    <glyph glyph-name="eth" unicode="&#xf0;" horiz-adv-x="1064" 
d="M979 649q0 -312 -121.5 -494t-335.5 -182q-195 0 -315.5 147t-120.5 384q0 225 114.5 369.5t319.5 144.5q109 0 252 -78q-28 180 -154 283l-258 -115l-59 119l188 84q-44 26 -132 48.5t-185 33.5l12 131q301 -18 475 -135l201 92l60 -119l-144 -66q203 -195 203 -647z
M799 637q0 70 -6 131q-52 45 -123 73.5t-131 28.5q-128 0 -201.5 -99.5t-73.5 -270.5q0 -169 71.5 -273t188.5 -104q94 0 157.5 71t90.5 183.5t27 259.5z" />
    <glyph glyph-name="ntilde" unicode="&#xf1;" horiz-adv-x="1060" 
d="M938 0h-174v563q0 111 -9 167t-44 91q-49 49 -140 49q-57 0 -122 -21.5t-95.5 -38.5t-42.5 -26v-784h-174v991h156v-73l8 5q8 5 14.5 9t19.5 11.5t25.5 14t30 14.5t34.5 14t39 12t43 10.5t46 7t49 2.5q152 0 238 -86q64 -64 81 -140t17 -217v-575zM870 1264
q-111 -111 -221 -111q-43 0 -114.5 25.5t-108.5 25.5q-50 0 -137 -57l-80 100q37 32 63.5 51t70 37.5t85.5 18.5q43 0 115 -25.5t108 -25.5q68 0 142 61z" />
    <glyph glyph-name="ograve" unicode="&#xf2;" horiz-adv-x="1105" 
d="M1020 496q0 -234 -129 -376.5t-344 -142.5q-207 0 -334 142.5t-127 376.5t129.5 378t345.5 144q207 0 333 -142.5t126 -379.5zM846 494q0 169 -83 274.5t-212 105.5q-133 0 -212 -102t-79 -270t84 -273.5t213 -105.5q136 0 212.5 100t76.5 271zM803 1221l-55 -103
l-451 174l72 148z" />
    <glyph glyph-name="oacute" unicode="&#xf3;" horiz-adv-x="1105" 
d="M1020 496q0 -234 -129 -376.5t-344 -142.5q-207 0 -334 142.5t-127 376.5t129.5 378t345.5 144q207 0 333 -142.5t126 -379.5zM846 494q0 169 -83 274.5t-212 105.5q-133 0 -212 -102t-79 -270t84 -273.5t213 -105.5q136 0 212.5 100t76.5 271zM811 1292l-451 -174
l-55 103l434 219z" />
    <glyph glyph-name="ocircumflex" unicode="&#xf4;" horiz-adv-x="1105" 
d="M1020 496q0 -234 -129 -376.5t-344 -142.5q-207 0 -334 142.5t-127 376.5t129.5 378t345.5 144q207 0 333 -142.5t126 -379.5zM846 494q0 169 -83 274.5t-212 105.5q-133 0 -212 -102t-79 -270t84 -273.5t213 -105.5q136 0 212.5 100t76.5 271zM887 1217l-68 -97
l-256 144l-258 -144l-67 101l325 221z" />
    <glyph glyph-name="otilde" unicode="&#xf5;" horiz-adv-x="1105" 
d="M1020 496q0 -234 -129 -376.5t-344 -142.5q-207 0 -334 142.5t-127 376.5t129.5 378t345.5 144q207 0 333 -142.5t126 -379.5zM846 494q0 169 -83 274.5t-212 105.5q-133 0 -212 -102t-79 -270t84 -273.5t213 -105.5q136 0 212.5 100t76.5 271zM883 1264
q-111 -111 -221 -111q-43 0 -115 25.5t-109 25.5q-50 0 -137 -57l-80 100q37 32 63.5 51t70 37.5t85.5 18.5q43 0 115.5 -25.5t108.5 -25.5q67 0 141 61z" />
    <glyph glyph-name="odieresis" unicode="&#xf6;" horiz-adv-x="1105" 
d="M1020 496q0 -234 -129 -376.5t-344 -142.5q-207 0 -334 142.5t-127 376.5t129.5 378t345.5 144q207 0 333 -142.5t126 -379.5zM846 494q0 169 -83 274.5t-212 105.5q-133 0 -212 -102t-79 -270t84 -273.5t213 -105.5q136 0 212.5 100t76.5 271zM836 1276
q0 -46 -32.5 -77.5t-78.5 -31.5t-77.5 31.5t-31.5 77.5t31.5 77t77.5 31t78.5 -31.5t32.5 -76.5zM496 1276q0 -46 -32.5 -77.5t-78.5 -31.5t-77.5 31.5t-31.5 77.5t31.5 77t77.5 31t78.5 -31.5t32.5 -76.5z" />
    <glyph glyph-name="divide" unicode="&#xf7;" 
d="M743 940q0 -50 -33.5 -84.5t-82.5 -34.5t-84 34.5t-35 84.5q0 49 34.5 83t84.5 34q49 0 82.5 -33.5t33.5 -83.5zM1135 453h-1020v147h1020v-147zM743 111q0 -50 -33.5 -84.5t-82.5 -34.5t-84 35t-35 84t34.5 82.5t84.5 33.5q49 0 82.5 -33.5t33.5 -82.5z" />
    <glyph glyph-name="oslash" unicode="&#xf8;" horiz-adv-x="1105" 
d="M1020 496q0 -234 -129 -376.5t-344 -142.5q-52 0 -97.5 8.5t-65.5 17.5l-19 9l-82 -133l-115 66l82 137q-79 68 -121.5 175t-42.5 239q0 234 129.5 378t345.5 144q131 0 209 -47l82 133l115 -70l-90 -141q73 -67 108 -173t35 -224zM846 494q0 161 -60 241l-344 -588
q39 -24 115 -24q136 0 212.5 100t76.5 271zM692 834q-60 40 -141 40q-133 0 -212 -102t-79 -270q0 -50 8 -96.5t20 -77t24 -54t20 -34.5l8 -11z" />
    <glyph glyph-name="ugrave" unicode="&#xf9;" horiz-adv-x="1060" 
d="M924 0h-156v74q-1 0 -8 -5t-14 -9.5t-20 -12t-25.5 -13.5t-30 -14t-35 -14.5t-39 -12.5t-42.5 -10.5t-46 -7t-49 -2.5q-75 0 -140.5 23t-101.5 59q-34 34 -54 70.5t-28.5 88t-10 88.5t-1.5 114v575h174v-563q0 -111 9 -167t44 -91q49 -49 139 -49q57 0 122 21.5
t96.5 38.5t42.5 26v784h174v-991zM760 1221l-55 -103l-451 174l72 148z" />
    <glyph glyph-name="uacute" unicode="&#xfa;" horiz-adv-x="1060" 
d="M924 0h-156v74q-1 0 -8 -5t-14 -9.5t-20 -12t-25.5 -13.5t-30 -14t-35 -14.5t-39 -12.5t-42.5 -10.5t-46 -7t-49 -2.5q-75 0 -140.5 23t-101.5 59q-34 34 -54 70.5t-28.5 88t-10 88.5t-1.5 114v575h174v-563q0 -111 9 -167t44 -91q49 -49 139 -49q57 0 122 21.5
t96.5 38.5t42.5 26v784h174v-991zM784 1292l-450 -174l-55 103l434 219z" />
    <glyph glyph-name="ucircumflex" unicode="&#xfb;" horiz-adv-x="1060" 
d="M924 0h-156v74q-1 0 -8 -5t-14 -9.5t-20 -12t-25.5 -13.5t-30 -14t-35 -14.5t-39 -12.5t-42.5 -10.5t-46 -7t-49 -2.5q-75 0 -140.5 23t-101.5 59q-34 34 -54 70.5t-28.5 88t-10 88.5t-1.5 114v575h174v-563q0 -111 9 -167t44 -91q49 -49 139 -49q57 0 122 21.5
t96.5 38.5t42.5 26v784h174v-991zM846 1217l-68 -97l-256 144l-258 -144l-67 101l325 221z" />
    <glyph glyph-name="udieresis" unicode="&#xfc;" horiz-adv-x="1060" 
d="M924 0h-156v74q-1 0 -8 -5t-14 -9.5t-20 -12t-25.5 -13.5t-30 -14t-35 -14.5t-39 -12.5t-42.5 -10.5t-46 -7t-49 -2.5q-75 0 -140.5 23t-101.5 59q-34 34 -54 70.5t-28.5 88t-10 88.5t-1.5 114v575h174v-563q0 -111 9 -167t44 -91q49 -49 139 -49q57 0 122 21.5
t96.5 38.5t42.5 26v784h174v-991zM799 1276q0 -46 -32.5 -77.5t-78.5 -31.5t-77 31.5t-31 77.5t31 77t77 31t78.5 -31.5t32.5 -76.5zM459 1276q0 -46 -32.5 -77.5t-78.5 -31.5t-77 31.5t-31 77.5t31 77t77 31t78.5 -31.5t32.5 -76.5z" />
    <glyph glyph-name="yacute" unicode="&#xfd;" horiz-adv-x="1052" 
d="M1001 991l-393 -1040q-51 -132 -91 -204.5t-89 -121.5q-94 -94 -258 -94q-24 0 -47 2t-42 6t-35 8.5t-30 9.5t-22.5 8.5t-16 7t-8.5 3.5l49 131q1 0 17 -6t31 -10.5t42 -8.5t54 -4q95 0 153 58q27 27 52 71t38 75t41 102l-411 1007h188l316 -803l286 803h176zM768 1292
l-451 -174l-55 103l434 219z" />
    <glyph glyph-name="thorn" unicode="&#xfe;" horiz-adv-x="1095" 
d="M1010 512q0 -236 -138 -385.5t-346 -149.5q-115 0 -215 60v-475h-174v1915h162v-555q112 96 272 96q197 0 318 -140.5t121 -365.5zM834 512q0 161 -82.5 259.5t-210.5 98.5q-24 0 -48 -3.5t-44 -9.5t-38.5 -13.5t-32.5 -15t-27 -15.5t-20.5 -14t-13.5 -11l-6 -4v-594
q87 -65 199 -65q145 0 234.5 104t89.5 283z" />
    <glyph glyph-name="ydieresis" unicode="&#xff;" horiz-adv-x="1052" 
d="M1001 991l-393 -1040q-51 -132 -91 -204.5t-89 -121.5q-94 -94 -258 -94q-24 0 -47 2t-42 6t-35 8.5t-30 9.5t-22.5 8.5t-16 7t-8.5 3.5l49 131q1 0 17 -6t31 -10.5t42 -8.5t54 -4q95 0 153 58q27 27 52 71t38 75t41 102l-411 1007h188l316 -803l286 803h176zM815 1276
q0 -46 -32 -77.5t-78 -31.5t-77.5 31.5t-31.5 77.5t31.5 77t77.5 31t78 -31t32 -77zM475 1276q0 -46 -32 -77.5t-78 -31.5t-77.5 31.5t-31.5 77.5t31.5 77t77.5 31t78 -31t32 -77z" />
    <glyph glyph-name="Idotaccent" unicode="&#x130;" horiz-adv-x="516" 
d="M350 0h-184v1366h184v-1366zM369 1587q0 -45 -32.5 -76.5t-78.5 -31.5t-77 31t-31 77t31 77.5t77 31.5t78.5 -31.5t32.5 -77.5z" />
    <glyph glyph-name="dotlessi" unicode="&#x131;" horiz-adv-x="446" 
d="M311 0h-174v991h174v-991z" />
    <glyph glyph-name="Lslash" unicode="&#x141;" horiz-adv-x="1058" 
d="M1001 0h-751v553l-154 -117l-90 117l244 180v633h184v-514l232 174l90 -115l-322 -239v-516h567v-156z" />
    <glyph glyph-name="lslash" unicode="&#x142;" horiz-adv-x="679" 
d="M678 926l-256 -193v-733h-174v621l-150 -119l-90 110l240 187v678h174v-564l166 127z" />
    <glyph glyph-name="OE" unicode="&#x152;" horiz-adv-x="1816" 
d="M1712 0h-784q-93 0 -152.5 2.5t-133.5 12t-127 27.5t-109.5 51t-104.5 81q-92 92 -143.5 222.5t-51.5 277.5q0 313 195 508q50 50 108.5 85t112.5 54t127.5 29.5t132.5 13t148 2.5h766v-152h-576v-430h541v-147h-541v-481h592v-156zM940 147v1070h-63q-154 0 -260 -28.5
t-187 -111.5q-137 -140 -137 -407q0 -249 145 -394q83 -83 186.5 -106t303.5 -23h12z" />
    <glyph glyph-name="oe" unicode="&#x153;" horiz-adv-x="1808" 
d="M1722 522q0 -10 -2 -37t-2 -36h-690q-1 -65 18 -122.5t56 -103t98 -72t139 -26.5q141 0 281 78l66 -119q-13 -10 -36 -23t-70 -34.5t-115 -35.5t-140 -14q-38 0 -74.5 5t-65 12.5t-56.5 20t-48 23.5t-41 27.5t-33.5 27.5t-27 27.5t-20.5 24t-15 20.5l-10 13
q-134 -201 -387 -201q-207 0 -334 142.5t-127 376.5t129.5 378t345.5 144q72 0 135 -18.5t103 -43.5t72.5 -57t46 -51.5t20.5 -34.5q46 67 86 102q118 103 291 103q188 0 297.5 -132t109.5 -364zM1554 586q0 48 -12 95.5t-37 93.5t-74 75t-114 29q-118 0 -197.5 -80
t-89.5 -213h524zM846 494q0 169 -83 274.5t-212 105.5q-133 0 -212 -102t-79 -270t84 -273.5t213 -105.5q136 0 212.5 100t76.5 271z" />
    <glyph glyph-name="Scaron" unicode="&#x160;" horiz-adv-x="1073" 
d="M956 371q0 -174 -120.5 -287t-327.5 -113q-84 0 -163.5 20t-133 49t-83 48.5t-40.5 30.5l88 127q1 -1 14 -9.5t24 -15.5t31.5 -19t39.5 -21t46 -19t52 -17t56 -11.5t61 -4.5q122 0 194 64t72 161q0 40 -20 77.5t-39 60t-72 56t-72 43t-87 42.5q-7 4 -11 6l-10 5t-11 5
q-75 36 -124.5 67t-97.5 75.5t-71.5 102.5t-23.5 130q0 163 119.5 266t308.5 103q71 0 136 -13.5t106.5 -31.5t76.5 -40t49 -34.5t21 -20.5l-92 -118q-11 10 -30 22.5t-56.5 33t-90.5 33.5t-108 13q-114 0 -185 -53t-71 -144q0 -27 6 -49.5t22 -42.5t29.5 -34t42 -31
t45.5 -26t55 -28l56 -28q10 -5 44.5 -21.5t54 -27t55.5 -30.5t59 -38t53 -43.5t49.5 -53t38 -60.5t27 -73t8.5 -83zM883 1688l-326 -222l-324 226l68 96l256 -143l258 143z" />
    <glyph glyph-name="scaron" unicode="&#x161;" horiz-adv-x="845" 
d="M764 276q0 -93 -50.5 -163t-132 -105t-180.5 -35q-88 0 -172 24.5t-119 43.5t-49 31l66 121q127 -76 264 -76q81 0 136 41t55 106q0 41 -27 73t-70 54.5t-95.5 44t-105 47.5t-95.5 57.5t-70 82t-27 114.5q0 125 96.5 203t249.5 78q54 0 105.5 -8.5t85.5 -20t63.5 -25.5
t41.5 -21.5t18 -12.5l-66 -117q-13 9 -39 22t-84 29.5t-112 16.5q-87 0 -135 -37.5t-48 -95.5q0 -38 27.5 -69t71 -53t96.5 -44t106 -48.5t96.5 -59t71 -83.5t27.5 -115zM764 1341l-326 -221l-323 226l67 96l256 -144l258 144z" />
    <glyph glyph-name="Ydieresis" unicode="&#x178;" horiz-adv-x="1153" 
d="M1100 1366l-432 -825v-541h-183v541l-432 825h195l340 -666l336 666h176zM866 1587q0 -46 -32 -77t-78 -31t-77.5 31t-31.5 77t31.5 77.5t77.5 31.5t78 -31.5t32 -77.5zM526 1587q0 -46 -32 -77t-78 -31t-77.5 31t-31.5 77t31.5 77.5t77.5 31.5t78 -31.5t32 -77.5z" />
    <glyph glyph-name="Zcaron" unicode="&#x17d;" horiz-adv-x="1130" 
d="M1036 0h-944v131l711 1083h-674v152h891v-137l-701 -1073h717v-156zM889 1688l-326 -222l-323 226l67 96l256 -143l258 143z" />
    <glyph glyph-name="zcaron" unicode="&#x17e;" horiz-adv-x="993" 
d="M881 0h-789v127l553 719h-530v145h745v-131l-545 -713h566v-147zM819 1341l-325 -221l-324 226l68 96l256 -144l258 144z" />
    <glyph glyph-name="florin" unicode="&#x192;" horiz-adv-x="1247" 
d="M1198 1337l-49 -131q-88 33 -150 33q-90 0 -132 -55.5t-72 -202.5l-54 -258h306l-31 -148h-307l-121 -600q-36 -176 -63 -245q-29 -74 -66 -111q-88 -88 -228 -88q-127 0 -223 55l53 133q1 0 14.5 -5t25 -9t29 -8.5t37.5 -7t40 -2.5q73 0 112 39q23 23 41 68.5t26 80.5
t26 125l118 575h-260l31 148h262l53 262q32 151 55 207q28 66 68 106q95 95 240 95q107 0 219 -56z" />
    <glyph glyph-name="circumflex" unicode="&#x2c6;" horiz-adv-x="804" 
d="M727 1217l-68 -97l-256 144l-258 -144l-67 101l325 221z" />
    <glyph glyph-name="caron" unicode="&#x2c7;" horiz-adv-x="804" 
d="M727 1341l-326 -221l-323 226l67 96l256 -144l258 144z" />
    <glyph glyph-name="breve" unicode="&#x2d8;" horiz-adv-x="804" 
d="M686 1417q-9 -128 -84.5 -202t-198.5 -74t-199 74t-85 202h131q18 -129 153 -129q134 0 152 129h131z" />
    <glyph glyph-name="dotaccent" unicode="&#x2d9;" horiz-adv-x="804" 
d="M512 1276q0 -46 -32.5 -77.5t-78.5 -31.5t-77 31.5t-31 77.5t31 77t77 31t78.5 -31.5t32.5 -76.5z" />
    <glyph glyph-name="ring" unicode="&#x2da;" horiz-adv-x="804" 
d="M612 1309q0 -86 -61.5 -147.5t-147.5 -61.5t-147 61.5t-61 147.5q0 87 61 147t147 60q87 0 148 -61t61 -146zM512 1309q0 45 -32 76.5t-77 31.5q-44 0 -76 -32t-32 -76t32 -76.5t76 -32.5q45 0 77 32t32 77z" />
    <glyph glyph-name="ogonek" unicode="&#x2db;" horiz-adv-x="804" 
d="M610 -389q-10 -8 -31.5 -19.5t-73 -27t-102.5 -15.5q-97 0 -153.5 60.5t-56.5 161.5q0 77 34.5 125.5t94.5 89.5l114 -35l-30 -22.5t-32.5 -25.5t-25.5 -24.5t-25 -31.5t-13 -33.5t-7 -42.5q0 -56 32 -88.5t87 -32.5q24 0 51 6t43.5 13t34.5 15t20 9z" />
    <glyph glyph-name="tilde" unicode="&#x2dc;" horiz-adv-x="804" 
d="M733 1284q-110 -110 -221 -110q-43 0 -114.5 25.5t-108.5 25.5q-49 0 -137 -58l-80 101q36 31 63 50.5t70.5 37.5t85.5 18q43 0 115 -25.5t108 -25.5q67 0 141 61z" />
    <glyph glyph-name="hungarumlaut" unicode="&#x2dd;" horiz-adv-x="804" 
d="M684 1401l-147 -348l-131 45l114 364zM399 1401l-145 -348l-133 45l115 364z" />
    <glyph glyph-name="Delta" unicode="&#x394;" horiz-adv-x="1447" 
d="M1274 0h-1098l475 1366h150zM1049 147l-326 957l-330 -957h656z" />
    <glyph glyph-name="Omega" unicode="&#x3a9;" horiz-adv-x="1685" 
d="M1511 0h-532v139q137 55 224 196.5t87 354.5q0 249 -123 401t-323 152t-324.5 -152.5t-124.5 -400.5q0 -212 88.5 -354t225.5 -197v-139h-533v154h291q-108 67 -183 212.5t-75 344.5q0 198 80 353.5t225 242t330 86.5q184 0 328.5 -86.5t224.5 -242t80 -353.5
q0 -195 -73 -342.5t-183 -214.5h290v-154z" />
    <glyph glyph-name="mu" unicode="&#x3bc;" horiz-adv-x="1075" 
d="M938 0h-156v74q-1 0 -8 -5t-14 -9.5t-20 -12t-25.5 -13.5t-30 -14t-35 -14.5t-39 -12.5t-42.5 -10.5t-46 -7t-49 -2.5q-118 0 -176 58v-283h-160v1243h174v-563q0 -110 9.5 -166.5t44.5 -91.5q49 -49 139 -49q57 0 122 21.5t95.5 38.5t42.5 26v784h174v-991z" />
    <glyph glyph-name="pi" unicode="&#x3c0;" horiz-adv-x="1378" 
d="M1202 8q-72 -18 -127 -18q-100 0 -157 57q-27 26 -40.5 72t-15.5 84.5t-2 109.5v531h-364v-844h-174v844h-146v147h1012v-147h-154v-541q0 -67 6 -96.5t23 -44.5q29 -25 76 -25q31 0 63 4v-133z" />
    <glyph glyph-name="figuredash" unicode="&#x2012;" 
d="M1135 453h-1020v147h1020v-147z" />
    <glyph glyph-name="endash" unicode="&#x2013;" horiz-adv-x="1335" 
d="M1171 453h-1005v147h1005v-147z" />
    <glyph glyph-name="emdash" unicode="&#x2014;" horiz-adv-x="2031" 
d="M1866 453h-1700v147h1700v-147z" />
    <glyph glyph-name="quoteleft" unicode="&#x2018;" horiz-adv-x="473" 
d="M397 1307q-55 -65 -80 -116q-51 -104 -51 -235h-190q0 247 209 436q2 2 3.5 3t2.5 2z" />
    <glyph glyph-name="quoteright" unicode="&#x2019;" horiz-adv-x="473" 
d="M397 1366q0 -246 -209 -435q-4 -4 -6 -5l-106 90q2 2 6 7q22 25 36.5 46t38.5 65t37 103.5t13 128.5h190z" />
    <glyph glyph-name="quotesinglbase" unicode="&#x201a;" horiz-adv-x="473" 
d="M397 195q0 -247 -209 -436q-2 -2 -3.5 -3t-2.5 -2l-106 90q55 65 80 116q51 104 51 235h190z" />
    <glyph glyph-name="quotedblleft" unicode="&#x201c;" horiz-adv-x="784" 
d="M709 1307q-55 -65 -80 -116q-51 -104 -51 -235h-191q0 247 209 436q2 2 3.5 3t2.5 2zM397 1307q-55 -65 -80 -116q-51 -104 -51 -235h-190q0 247 209 436q2 2 3.5 3t2.5 2z" />
    <glyph glyph-name="quotedblright" unicode="&#x201d;" horiz-adv-x="784" 
d="M709 1366q0 -246 -209 -435q-4 -4 -6 -5l-107 90q2 2 6 7q22 25 36.5 46t38.5 65t37 103.5t13 128.5h191zM397 1366q0 -246 -209 -435q-4 -4 -6 -5l-106 90q2 2 6 7q22 25 36.5 46t38.5 65t37 103.5t13 128.5h190z" />
    <glyph glyph-name="quotedblbase" unicode="&#x201e;" horiz-adv-x="784" 
d="M709 195q0 -247 -209 -436q-4 -4 -6 -5l-107 90q55 65 80 116q51 104 51 235h191zM397 195q0 -247 -209 -436q-2 -2 -3.5 -3t-2.5 -2l-106 90q55 65 80 116q51 104 51 235h190z" />
    <glyph glyph-name="dagger" unicode="&#x2020;" horiz-adv-x="1189" 
d="M1040 723h-358l-16 -975h-142l-16 975h-356v156h354l-8 487h194l-8 -487h356v-156z" />
    <glyph glyph-name="daggerdbl" unicode="&#x2021;" horiz-adv-x="1189" 
d="M1040 723h-360l-2 -254h360v-156h-362l-10 -565h-142l-8 565h-362v156h358l-2 254h-358v156h354l-8 487h194l-8 -487h356v-156z" />
    <glyph glyph-name="bullet" unicode="&#x2022;" horiz-adv-x="1050" 
d="M717 535q0 -79 -55.5 -135t-135.5 -56q-77 0 -133.5 56t-56.5 135q0 77 57 133.5t133 56.5q79 0 135 -56.5t56 -133.5z" />
    <glyph glyph-name="ellipsis" unicode="&#x2026;" horiz-adv-x="1472" 
d="M1346 102q0 -50 -34 -84t-83 -34q-50 0 -84.5 34.5t-34.5 83.5t34.5 83t84.5 34q49 0 83 -33.5t34 -83.5zM854 102q0 -50 -34 -84t-83 -34q-50 0 -84.5 34.5t-34.5 83.5t34.5 83t84.5 34q49 0 83 -33.5t34 -83.5zM362 102q0 -50 -33.5 -84t-82.5 -34q-50 0 -84.5 34.5
t-34.5 83.5t34.5 83t84.5 34q49 0 82.5 -33.5t33.5 -83.5z" />
    <glyph glyph-name="perthousand" unicode="&#x2030;" horiz-adv-x="2252" 
d="M1446 354q0 -171 -80.5 -268.5t-224.5 -97.5q-138 0 -218.5 94.5t-80.5 255.5q0 173 81.5 273t223.5 100q136 0 217.5 -97.5t81.5 -259.5zM702 1022q0 -171 -80.5 -269t-224.5 -98q-138 0 -218.5 95t-80.5 256q0 173 81.5 272.5t223.5 99.5q136 0 217.5 -97t81.5 -259z
M1315 352q0 119 -45 184.5t-121 65.5q-81 0 -127.5 -68t-46.5 -194q0 -118 44 -182t122 -64q87 0 130.5 71t43.5 187zM571 1020q0 120 -44.5 185t-120.5 65q-81 0 -128 -68.5t-47 -193.5q0 -118 44 -182t122 -64q87 0 130.5 71t43.5 187zM1290 1364l-962 -1444l-107 72
l963 1446zM2154 354q0 -171 -80.5 -268.5t-224.5 -97.5q-138 0 -218.5 94.5t-80.5 255.5q0 173 81.5 273t223.5 100q136 0 217.5 -97.5t81.5 -259.5zM2023 352q0 120 -44.5 185t-120.5 65q-81 0 -128 -68.5t-47 -193.5q0 -118 44 -182t122 -64q87 0 130.5 71t43.5 187z" />
    <glyph glyph-name="guilsinglleft" unicode="&#x2039;" horiz-adv-x="659" 
d="M532 178l-114 -72l-291 398l291 391l114 -76l-188 -315z" />
    <glyph glyph-name="guilsinglright" unicode="&#x203a;" horiz-adv-x="659" 
d="M532 504l-290 -398l-115 72l188 326l-188 315l115 76z" />
    <glyph glyph-name="fraction" unicode="&#x2044;" horiz-adv-x="0" 
d="M496 1364l-963 -1444l-106 72l962 1446z" />
    <glyph glyph-name="zerosuperior" unicode="&#x2070;" horiz-adv-x="800" 
d="M702 1022q0 -171 -80.5 -269t-224.5 -98q-138 0 -218.5 95t-80.5 256q0 173 81.5 272.5t223.5 99.5q136 0 217.5 -97t81.5 -259zM571 1020q0 120 -44.5 185t-120.5 65q-81 0 -128 -68.5t-47 -193.5q0 -118 44 -182t122 -64q87 0 130.5 71t43.5 187z" />
    <glyph glyph-name="foursuperior" unicode="&#x2074;" horiz-adv-x="800" 
d="M672 817h-92v-151h-123v151h-338v88l342 461h119v-442h92v-107zM457 924v268l-197 -268h197z" />
    <glyph glyph-name="fivesuperior" unicode="&#x2075;" horiz-adv-x="800" 
d="M637 897q0 -111 -72 -176.5t-190 -65.5q-61 0 -115 20.5t-75.5 37t-26.5 24.5l59 80q19 -16 62 -35.5t90 -19.5q67 0 105 33.5t38 95.5q0 56 -37 93.5t-106 37.5q-16 0 -32 -2.5t-30 -7.5t-23.5 -9t-20.5 -9.5l-13 -6.5l-49 29v350h401v-106h-283v-148q32 12 78 12
q108 0 174 -62.5t66 -164.5z" />
    <glyph glyph-name="sixsuperior" unicode="&#x2076;" horiz-adv-x="800" 
d="M655 903q0 -109 -68.5 -179.5t-178.5 -70.5q-128 0 -196.5 97t-68.5 249q0 77 16.5 143t50 120t90.5 85t132 31q56 0 107 -19.5t72 -35.5t28 -25l-55 -77q-69 55 -144 55q-86 0 -127.5 -60.5t-48.5 -154.5q56 76 164 76q103 0 165 -65.5t62 -168.5zM539 899
q0 60 -32 97.5t-89 37.5q-62 0 -98.5 -40.5t-36.5 -100.5q0 -59 36 -97t93 -38q58 0 92.5 40.5t34.5 100.5z" />
    <glyph glyph-name="sevensuperior" unicode="&#x2077;" horiz-adv-x="800" 
d="M645 1282l-276 -616h-131l278 596h-356v104h485v-84z" />
    <glyph glyph-name="eightsuperior" unicode="&#x2078;" horiz-adv-x="800" 
d="M657 864q0 -96 -69 -153.5t-182 -57.5q-118 0 -188.5 56.5t-70.5 152.5q0 58 28.5 103.5t74.5 66.5q-86 47 -86 148q0 90 65.5 144t169.5 54q106 0 172 -53t66 -141q0 -52 -24 -92.5t-62 -61.5q106 -36 106 -166zM518 1180q0 46 -32 74t-83 28q-54 0 -86 -28t-32 -74
q0 -47 32.5 -76t85.5 -29q51 0 83 29t32 76zM537 866q0 54 -36.5 83.5t-99.5 29.5t-99 -30t-36 -83q0 -54 36 -83t104 -29q62 0 96.5 29t34.5 83z" />
    <glyph glyph-name="ninesuperior" unicode="&#x2079;" horiz-adv-x="800" 
d="M659 1034q0 -77 -16.5 -143.5t-49.5 -120.5t-90 -85.5t-132 -31.5q-57 0 -108.5 19.5t-72.5 35.5t-28 25l57 80q7 -7 24 -18t51.5 -24t67.5 -13q153 0 173 213q-23 -35 -67.5 -55.5t-92.5 -20.5q-103 0 -165.5 66t-62.5 169q0 107 68.5 177.5t177.5 70.5
q68 0 120.5 -28.5t83.5 -77.5t46.5 -109t15.5 -129zM520 1139q0 59 -37 98t-92 39q-59 0 -93 -41t-34 -102q0 -60 31.5 -98t89.5 -38q59 0 97 41t38 101z" />
    <glyph glyph-name="parenleftsuperior" unicode="&#x207d;" horiz-adv-x="442" 
d="M98 1012q0 154 69 270.5t167 187.5l61 -77q-70 -60 -118 -157.5t-48 -219.5q0 -124 49.5 -225t120.5 -158l-61 -78q-58 39 -109.5 99t-91 156.5t-39.5 201.5z" />
    <glyph glyph-name="parenrightsuperior" unicode="&#x207e;" horiz-adv-x="442" 
d="M344 1012q0 -154 -68.5 -270t-166.5 -187l-62 78q70 60 119 157.5t49 219.5q0 124 -50.5 224.5t-121.5 158.5l63 77q93 -62 165.5 -183.5t72.5 -274.5z" />
    <glyph glyph-name="zeroinferior" unicode="&#x2080;" horiz-adv-x="800" 
d="M702 354q0 -171 -80.5 -268.5t-224.5 -97.5q-138 0 -218.5 94.5t-80.5 255.5q0 173 81.5 273t223.5 100q136 0 217.5 -97.5t81.5 -259.5zM571 352q0 120 -44.5 185t-120.5 65q-81 0 -128 -68.5t-47 -193.5q0 -118 44 -182t122 -64q87 0 130.5 71t43.5 187z" />
    <glyph glyph-name="oneinferior" unicode="&#x2081;" horiz-adv-x="800" 
d="M514 0h-127v547l-156 -101l-63 95l248 159h98v-700z" />
    <glyph glyph-name="twoinferior" unicode="&#x2082;" horiz-adv-x="800" 
d="M621 0h-447v94q47 40 76.5 66.5t81 77.5t82 89.5t54.5 84.5t24 82q0 52 -29 81t-82 29q-70 0 -150 -74l-65 76q34 41 94.5 74t132.5 33q99 0 161 -59.5t62 -155.5q0 -49 -19 -96.5t-60 -99t-83 -93t-110 -103.5h277v-106z" />
    <glyph glyph-name="threeinferior" unicode="&#x2083;" horiz-adv-x="800" 
d="M629 205q0 -101 -69 -160t-177 -59q-62 0 -114 18.5t-74.5 36.5t-34.5 35l63 76q1 -1 8.5 -6.5t13.5 -10t17 -11.5t22.5 -12t25 -10t29.5 -7.5t32 -2.5q64 0 99.5 29t35.5 78q0 57 -43 81.5t-129 24.5h-33v103h33q32 0 54.5 2.5t50 11.5t42.5 31t15 55q0 41 -29.5 68.5
t-81.5 27.5q-72 0 -145 -61l-66 71q30 36 89 66.5t132 30.5q98 0 159.5 -54t61.5 -143q0 -48 -31 -94.5t-83 -59.5q58 -10 92.5 -54.5t34.5 -100.5z" />
    <glyph glyph-name="fourinferior" unicode="&#x2084;" horiz-adv-x="800" 
d="M672 150h-92v-150h-123v150h-338v90l342 460h119v-444h92v-106zM457 256v268l-197 -268h197z" />
    <glyph glyph-name="fiveinferior" unicode="&#x2085;" horiz-adv-x="800" 
d="M637 231q0 -113 -72 -178t-190 -65q-61 0 -115 21t-75.5 38t-26.5 25l59 80q11 -9 29.5 -20.5t54 -24.5t68.5 -13q67 0 105 34t38 95q0 57 -37 94t-106 37q-47 0 -119 -32l-49 28v350h401v-106h-283v-148q52 13 78 13q108 0 174 -63t66 -165z" />
    <glyph glyph-name="sixinferior" unicode="&#x2086;" horiz-adv-x="800" 
d="M655 236q0 -109 -68.5 -179.5t-178.5 -70.5q-128 0 -196.5 97t-68.5 249q0 77 16.5 143t50 120t90.5 85t132 31q56 0 107 -19.5t72 -35.5t28 -25l-55 -78q-69 55 -144 55q-86 0 -127.5 -60.5t-48.5 -154.5q56 76 164 76q103 0 165 -65t62 -168zM539 231q0 60 -32 98
t-89 38q-62 0 -98.5 -41t-36.5 -101q0 -59 36 -97t93 -38q58 0 92.5 40.5t34.5 100.5z" />
    <glyph glyph-name="seveninferior" unicode="&#x2087;" horiz-adv-x="800" 
d="M645 616l-276 -616h-131l278 596h-356v104h485v-84z" />
    <glyph glyph-name="eightinferior" unicode="&#x2088;" horiz-adv-x="800" 
d="M657 197q0 -96 -69 -153.5t-182 -57.5q-118 0 -188.5 56.5t-70.5 152.5q0 58 28.5 103.5t74.5 66.5q-86 47 -86 147q0 90 65.5 144.5t169.5 54.5q105 0 171.5 -53.5t66.5 -141.5q0 -52 -24 -92.5t-62 -61.5q106 -36 106 -165zM518 512q0 46 -32 74t-83 28q-54 0 -86 -28
t-32 -74q0 -47 32.5 -75.5t85.5 -28.5q51 0 83 28.5t32 75.5zM537 199q0 53 -36 82.5t-100 29.5q-63 0 -99 -30t-36 -82q0 -54 36.5 -83.5t103.5 -29.5q62 0 96.5 29.5t34.5 83.5z" />
    <glyph glyph-name="nineinferior" unicode="&#x2089;" horiz-adv-x="800" 
d="M659 367q0 -77 -16.5 -143.5t-49.5 -120.5t-90 -85.5t-132 -31.5q-57 0 -108.5 19.5t-72.5 35.5t-28 25l57 79q7 -7 24 -18t51.5 -24t67.5 -13q153 0 173 213q-23 -35 -67.5 -55.5t-92.5 -20.5q-103 0 -165.5 66.5t-62.5 169.5q0 107 68.5 177.5t177.5 70.5
q68 0 120.5 -28.5t83.5 -77.5t46.5 -109t15.5 -129zM520 471q0 59 -37 98t-92 39q-59 0 -93 -41t-34 -102q0 -59 31.5 -97t89.5 -38q59 0 97 41t38 100z" />
    <glyph glyph-name="parenleftinferior" unicode="&#x208d;" horiz-adv-x="442" 
d="M98 344q0 154 69 271t167 188l61 -78q-70 -60 -118 -157.5t-48 -219.5q0 -124 49.5 -225t120.5 -158l-61 -78q-58 39 -109.5 99t-91 156.5t-39.5 201.5z" />
    <glyph glyph-name="parenrightinferior" unicode="&#x208e;" horiz-adv-x="442" 
d="M344 344q0 -154 -68.5 -271t-166.5 -186l-62 78q70 60 119 157.5t49 219.5q0 124 -50.5 224.5t-121.5 158.5l63 78q93 -62 165.5 -184t72.5 -275z" />
    <glyph glyph-name="franc" unicode="&#x20a3;" horiz-adv-x="1599" 
d="M905 1214h-557v-364h504v-148h-504v-702h-182v1366h739v-152zM1542 858l-41 -139q-36 6 -74 6q-35 0 -68 -6.5t-57.5 -16t-48 -23.5t-39.5 -27t-31 -29t-23 -26t-16 -21.5t-9 -12.5v-563h-174v850h155v-129q130 156 320 156q21 0 38.5 -1.5t29.5 -4.5t19 -5.5t13 -5.5z
" />
    <glyph glyph-name="lira" unicode="&#x20a4;" 
d="M170 618h184q-2 14 -9 66.5t-9 63.5h-166v129h154v41q0 226 124 350.5t330 124.5q79 0 148.5 -18t113.5 -45t67 -45t32 -30l-86 -108q-1 1 -12 9t-18.5 13t-24.5 15t-31.5 17t-36 15.5t-42.5 14t-47 9t-53 3.5q-131 0 -207.5 -83t-76.5 -242v-41h411v-129h-401
q2 -16 8 -64.5t8 -65.5h385v-129h-376v-14q0 -234 -113 -319h688v-156h-948v137q38 13 63 25t53 34.5t44 53t27 78.5t12 112q0 19 -3 49h-192v129z" />
    <glyph glyph-name="peseta" unicode="&#x20a7;" horiz-adv-x="2670" 
d="M1036 965q0 -185 -112 -297q-31 -31 -63.5 -53.5t-72.5 -35.5t-69.5 -21t-82.5 -11t-80.5 -3.5t-92.5 -0.5h-117v-543h-180v1366h336q160 0 256.5 -20.5t167.5 -92.5q110 -107 110 -288zM852 963q0 123 -74 194q-29 30 -77.5 44.5t-88 17t-114.5 2.5h-152v-529h109
q139 0 207.5 11.5t113.5 56.5q76 76 76 203zM1790 29q-94 -54 -215 -54q-145 0 -221 76q-42 42 -55 98.5t-13 153.5v545h-172v143h172v279h174v-279h305v-143h-305v-506q0 -106 13 -142q27 -74 133 -75q32 0 63 6.5t52 14.5t24 8zM2589 279q0 -142 -100 -224t-269 -82
q-56 0 -112 10t-95 23.5t-73 30t-49 25.5t-21 14l67 123q137 -82 267 -82q102 0 155.5 39.5t53.5 107.5q0 40 -21.5 71t-57 50t-80.5 37.5t-92 34t-92 40.5t-80.5 54.5t-57 77.5t-21.5 110q0 126 98 202.5t252 76.5q53 0 103.5 -9t85 -21t63 -26t41.5 -22.5t16 -11.5
l-63 -115q-12 8 -40 21.5t-85 30t-109 16.5q-85 0 -135.5 -36t-50.5 -93q0 -42 27.5 -74t72 -52.5t98 -40t107 -43.5t98 -56t72 -85t27.5 -122z" />
    <glyph glyph-name="Euro" unicode="&#x20ac;" 
d="M1128 115q-170 -142 -387 -142q-89 0 -165 24t-127.5 62t-92.5 88.5t-65 99.5t-40 99.5t-21.5 84.5t-6.5 58h-141v129h133q-2 27 -2 72q0 25 2 58h-133v129h141q1 18 6.5 49.5t21.5 81.5t39.5 100.5t65 103t93 92.5t128 65.5t166.5 25.5q61 0 120 -13.5t98 -30
t73.5 -38.5t47.5 -33t20 -18l-84 -111q-123 96 -264 96q-64 0 -118 -18.5t-89 -47t-62.5 -67t-42.5 -73.5t-25 -72t-12.5 -57.5t-3.5 -34.5h502v-129h-514q-2 -27 -2 -68q0 -39 2 -62h514v-129h-502q0 -12 2.5 -33t12 -56.5t24 -71t41.5 -73t62 -66t88 -46.5t117 -18
q148 0 294 104z" />
    <glyph glyph-name="afii61289" unicode="&#x2113;" horiz-adv-x="1024" 
d="M510 551q-46 -242 -57 -308t-11 -118q0 -51 37 -51q53 0 105 110q15 37 39 37q26 0 26 -31q0 -47 -53 -122q-75 -97 -156 -97q-64 0 -100.5 48t-36.5 133q0 64 21 260q-83 -78 -101 -78q-10 0 -19 10.5t-9 22.5q0 19 41 55q12 11 48.5 48.5t53.5 57.5q85 442 182.5 651.5
t220.5 209.5q58 0 93.5 -45.5t35.5 -120.5q0 -83 -35.5 -189t-95.5 -205q-73 -117 -229 -278zM532 682q256 287 256 532q0 40 -13 65.5t-34 25.5q-23 0 -46.5 -25.5t-37.5 -65.5q-63 -177 -125 -532z" />
    <glyph glyph-name="afii61352" unicode="&#x2116;" horiz-adv-x="2101" 
d="M1157 0h-182l-645 1087l4 -1087h-168v1366h182l645 -1092l-4 1092h168v-1366zM2017 1004q0 -174 -96.5 -280t-255.5 -106q-155 0 -249.5 106.5t-94.5 279.5q0 174 97 281.5t257 107.5q155 0 248.5 -106t93.5 -283zM1880 1004q0 123 -60.5 198.5t-152.5 75.5
q-95 0 -152 -73.5t-57 -196.5t60.5 -198t152.5 -75q98 0 153.5 72.5t55.5 196.5z" />
    <glyph glyph-name="trademark" unicode="&#x2122;" horiz-adv-x="1564" 
d="M1473 639h-125l-52 506l-178 -506h-100l-182 506l-48 -506h-116l78 727h129l194 -537l191 537h127zM616 1260h-208v-621h-125v621h-211v106h544v-106z" />
    <glyph glyph-name="uni2126" unicode="&#x2126;" horiz-adv-x="1685" 
d="M1511 0h-532v139q137 55 224 196.5t87 354.5q0 249 -123 401t-323 152t-324.5 -152.5t-124.5 -400.5q0 -212 88.5 -354t225.5 -197v-139h-533v154h291q-108 67 -183 212.5t-75 344.5q0 198 80 353.5t225 242t330 86.5q184 0 328.5 -86.5t224.5 -242t80 -353.5
q0 -195 -73 -342.5t-183 -214.5h290v-154z" />
    <glyph glyph-name="estimated" unicode="&#x212e;" horiz-adv-x="1634" 
d="M1575 637h-1227q-12 0 -12 -8v-371q0 -21 18 -43q90 -95 210 -148t255 -53q143 0 269.5 60.5t218.5 165.5h110q-105 -123 -263 -195t-337 -72q-154 0 -294.5 54t-242 145t-161.5 217.5t-60 265.5q0 138 60 264t161.5 217t242 145t294.5 54t294.5 -54t242 -145t161.5 -217
t60 -264v-18zM1298 686v371q0 25 -20 45q-89 91 -208 141.5t-251 50.5q-134 0 -253.5 -52.5t-209.5 -145.5q-20 -20 -20 -47v-363q0 -10 12 -10h940q10 0 10 10z" />
    <glyph glyph-name="onethird" unicode="&#x2153;" horiz-adv-x="1544" 
d="M1303 1364l-963 -1444l-107 72l963 1446zM514 666h-127v548l-156 -100l-63 92l248 160h98v-700zM1372 205q0 -101 -69.5 -160t-178.5 -59q-62 0 -113.5 18.5t-73 36t-34.5 35.5l62 76q1 -1 8 -6.5t13.5 -10t17.5 -11.5t22.5 -12t25 -10t30 -7.5t32.5 -2.5q64 0 98.5 29
t34.5 78q0 57 -42.5 81.5t-129.5 24.5h-33v103h33q25 0 43.5 1.5t42.5 7t39 15.5t26 29.5t11 46.5q0 41 -29.5 68.5t-81.5 27.5q-72 0 -145 -61l-66 71q30 36 89.5 66.5t132.5 30.5q99 0 160 -54t61 -143q0 -49 -31 -95t-84 -59q59 -10 94 -54.5t35 -100.5z" />
    <glyph glyph-name="twothirds" unicode="&#x2154;" horiz-adv-x="1544" 
d="M1303 1364l-963 -1444l-107 72l963 1446zM1372 205q0 -101 -69.5 -160t-178.5 -59q-62 0 -113.5 18.5t-73 36t-34.5 35.5l62 76q1 -1 8 -6.5t13.5 -10t17.5 -11.5t22.5 -12t25 -10t30 -7.5t32.5 -2.5q64 0 98.5 29t34.5 78q0 57 -42.5 81.5t-129.5 24.5h-33v103h33
q25 0 43.5 1.5t42.5 7t39 15.5t26 29.5t11 46.5q0 41 -29.5 68.5t-81.5 27.5q-72 0 -145 -61l-66 71q30 36 89.5 66.5t132.5 30.5q99 0 160 -54t61 -143q0 -49 -31 -95t-84 -59q59 -10 94 -54.5t35 -100.5zM623 666h-447v94q46 40 76.5 67t81 77.5t81.5 89t55 84.5t24 81
q0 52 -29 82.5t-82 30.5q-63 0 -150 -74l-65 74q33 41 93.5 73.5t133.5 32.5q99 0 161 -59t62 -156q0 -91 -67.5 -179t-206.5 -210h279v-108z" />
    <glyph glyph-name="oneeighth" unicode="&#x215b;" horiz-adv-x="1544" 
d="M1401 197q0 -96 -69.5 -153.5t-182.5 -57.5q-118 0 -188 56.5t-70 152.5q0 58 28 104t74 66q-84 46 -84 147q0 90 66 144.5t170 54.5t170.5 -53.5t66.5 -141.5q0 -52 -24 -92.5t-64 -61.5q107 -36 107 -165zM1264 512q0 46 -32.5 74t-84.5 28q-53 0 -86 -28t-33 -74
q0 -47 33.5 -75.5t87.5 -28.5q50 0 82.5 28.5t32.5 75.5zM1280 199q0 53 -35.5 82.5t-97.5 29.5q-64 0 -100.5 -29.5t-36.5 -82.5q0 -54 36.5 -83.5t102.5 -29.5q62 0 96.5 29.5t34.5 83.5zM514 666h-127v548l-156 -100l-63 92l248 160h98v-700zM1303 1364l-963 -1444
l-107 72l963 1446z" />
    <glyph glyph-name="threeeighths" unicode="&#x215c;" horiz-adv-x="1544" 
d="M1401 197q0 -96 -69.5 -153.5t-182.5 -57.5q-118 0 -188 56.5t-70 152.5q0 58 28 104t74 66q-84 46 -84 147q0 90 66 144.5t170 54.5t170.5 -53.5t66.5 -141.5q0 -52 -24 -92.5t-64 -61.5q107 -36 107 -165zM1264 512q0 46 -32.5 74t-84.5 28q-53 0 -86 -28t-33 -74
q0 -47 33.5 -75.5t87.5 -28.5q50 0 82.5 28.5t32.5 75.5zM1280 199q0 53 -35.5 82.5t-97.5 29.5q-64 0 -100.5 -29.5t-36.5 -82.5q0 -54 36.5 -83.5t102.5 -29.5q62 0 96.5 29.5t34.5 83.5zM602 872q0 -101 -69 -160t-177 -59q-62 0 -114 18.5t-74.5 36.5t-34.5 35l64 76
q1 -1 8.5 -6.5t13.5 -9.5t17 -11t22 -12t25 -10t29.5 -7.5t31.5 -2.5q65 0 100 29t35 77q0 57 -43 82t-129 25h-33v102h33q31 0 54 3t50.5 12t42.5 31t15 55q0 41 -29.5 68.5t-81.5 27.5q-71 0 -145 -62l-66 72q30 35 89.5 65.5t132.5 30.5q98 0 159.5 -54t61.5 -142
q0 -48 -31.5 -94.5t-83.5 -59.5q58 -10 92.5 -55t34.5 -101zM1303 1364l-963 -1444l-107 72l963 1446z" />
    <glyph glyph-name="fiveeighths" unicode="&#x215d;" horiz-adv-x="1544" 
d="M1303 1364l-963 -1444l-107 72l963 1446zM1401 197q0 -96 -69.5 -153.5t-182.5 -57.5q-118 0 -188 56.5t-70 152.5q0 58 28 104t74 66q-84 46 -84 147q0 90 66 144.5t170 54.5t170.5 -53.5t66.5 -141.5q0 -52 -24 -92.5t-64 -61.5q107 -36 107 -165zM1264 512
q0 46 -32.5 74t-84.5 28q-53 0 -86 -28t-33 -74q0 -47 33.5 -75.5t87.5 -28.5q50 0 82.5 28.5t32.5 75.5zM1280 199q0 53 -35.5 82.5t-97.5 29.5q-64 0 -100.5 -29.5t-36.5 -82.5q0 -54 36.5 -83.5t102.5 -29.5q62 0 96.5 29.5t34.5 83.5zM637 897q0 -111 -72 -176.5
t-190 -65.5q-61 0 -115 20.5t-75.5 37t-26.5 24.5l59 80q19 -16 62 -35.5t90 -19.5q67 0 105 33.5t38 95.5q0 56 -37 93.5t-106 37.5q-16 0 -32 -2.5t-30 -7.5t-23.5 -9t-20.5 -9.5l-13 -6.5l-49 29v350h401v-106h-283v-148q32 12 78 12q108 0 174 -62.5t66 -164.5z" />
    <glyph glyph-name="seveneighths" unicode="&#x215e;" horiz-adv-x="1544" 
d="M1303 1364l-963 -1444l-107 72l963 1446zM645 1282l-276 -616h-131l278 596h-356v104h485v-84zM1401 197q0 -96 -69.5 -153.5t-182.5 -57.5q-118 0 -188 56.5t-70 152.5q0 58 28 104t74 66q-84 46 -84 147q0 90 66 144.5t170 54.5t170.5 -53.5t66.5 -141.5
q0 -52 -24 -92.5t-64 -61.5q107 -36 107 -165zM1264 512q0 46 -32.5 74t-84.5 28q-53 0 -86 -28t-33 -74q0 -47 33.5 -75.5t87.5 -28.5q50 0 82.5 28.5t32.5 75.5zM1280 199q0 53 -35.5 82.5t-97.5 29.5q-64 0 -100.5 -29.5t-36.5 -82.5q0 -54 36.5 -83.5t102.5 -29.5
q62 0 96.5 29.5t34.5 83.5z" />
    <glyph glyph-name="partialdiff" unicode="&#x2202;" horiz-adv-x="1259" 
d="M1083 719q0 -348 -125.5 -547t-347.5 -199q-195 0 -314.5 144t-119.5 379q0 233 120 377.5t322 144.5q65 0 132 -21.5t93 -36.5t44 -28q-14 185 -110.5 300.5t-252.5 115.5q-18 0 -37.5 -2t-37.5 -6.5t-35.5 -9t-34 -11t-30 -11.5t-27 -11.5t-21.5 -10.5t-17 -9t-10 -5
l-71 123q170 106 329 106q253 0 402 -205.5t149 -576.5zM907 696l-2 70q-125 104 -278 104q-126 0 -201.5 -101.5t-75.5 -272.5q0 -170 71.5 -272.5t188.5 -102.5q82 0 142 47.5t92.5 132t47.5 182t15 213.5z" />
    <glyph glyph-name="uni2206" unicode="&#x2206;" horiz-adv-x="1447" 
d="M1274 0h-1098l475 1366h150zM1049 147l-326 957l-330 -957h656z" />
    <glyph glyph-name="product" unicode="&#x220f;" horiz-adv-x="1638" 
d="M1462 1214h-159v-1214h-185v1214h-598v-1214h-184v1214h-160v152h1286v-152z" />
    <glyph glyph-name="summation" unicode="&#x2211;" horiz-adv-x="1142" 
d="M967 0h-791v123l365 573l-365 547v123h791v-156h-555l325 -505l-344 -549h574v-156z" />
    <glyph glyph-name="minus" unicode="&#x2212;" 
d="M1135 453h-1020v147h1020v-147z" />
    <glyph glyph-name="radical" unicode="&#x221a;" horiz-adv-x="1654" 
d="M1481 1452l-547 -1452h-160l-309 803l-242 -82l-47 135l391 135l293 -764l469 1278z" />
    <glyph glyph-name="infinity" unicode="&#x221e;" horiz-adv-x="1730" 
d="M1554 571q0 -123 -89 -212t-214 -89q-97 0 -188.5 55.5t-196.5 155.5q-104 -100 -196 -156.5t-189 -56.5q-124 0 -214.5 88.5t-90.5 208.5q0 127 86.5 213t214.5 86q196 0 389 -202q195 204 391 204q127 0 212 -84.5t85 -210.5zM1419 578q0 67 -49.5 114t-122.5 47
q-36 0 -73.5 -12t-62.5 -25.5t-60 -42.5t-49 -42.5t-46 -45.5q46 -41 80 -68.5t97.5 -59t117.5 -31.5q70 0 119 48t49 118zM776 571q-36 36 -60 57.5t-63.5 50t-82 42.5t-87.5 14q-73 0 -121.5 -46t-48.5 -114q0 -69 49.5 -118t118.5 -49q34 0 71.5 13t64 27t64 42.5
t51 40.5t44.5 40z" />
    <glyph glyph-name="integral" unicode="&#x222b;" horiz-adv-x="1255" 
d="M1081 1446l-53 -129q-74 33 -135 33q-80 0 -123 -43q-55 -55 -55 -187v-1216q0 -93 -20.5 -163t-78.5 -128q-39 -39 -100 -60.5t-127 -21.5q-51 0 -102.5 12.5t-77 24.5t-33.5 18l53 129q72 -32 136 -32q79 0 122 43q56 56 56 186v1216q0 94 20 163.5t78 127.5
q39 39 100 60.5t127 21.5q51 0 102.5 -12.5t77 -24.5t33.5 -18z" />
    <glyph glyph-name="approxequal" unicode="&#x2248;" 
d="M1087 700q-104 -137 -243 -137q-54 0 -108 15t-120 42t-100 37q-56 17 -96 17q-47 0 -80.5 -20t-77.5 -64l-100 80q10 19 27 39t47.5 45.5t79 42t106.5 16.5q56 0 116.5 -17.5t104.5 -38t99 -38t100 -17.5q43 0 75 20.5t80 68.5zM1087 377q-104 -137 -243 -137
q-54 0 -108 15t-120 42t-100 37q-53 16 -96 16q-47 0 -80.5 -20t-77.5 -64l-100 80q10 19 27 39t47.5 45.5t79 42t106.5 16.5q70 0 146 -27.5t147 -55t127 -27.5q43 0 75 20t80 68z" />
    <glyph glyph-name="notequal" unicode="&#x2260;" 
d="M1135 305h-566l-155 -250l-113 70l115 180h-301v150h389l88 143h-477v147h567l152 240l112 -70l-106 -170h295v-147h-387l-89 -143h476v-150z" />
    <glyph glyph-name="lessequal" unicode="&#x2264;" 
d="M1126 362l-59 -133l-944 449v113l944 448l59 -135l-786 -371zM1126 0h-1003v147h1003v-147z" />
    <glyph glyph-name="greaterequal" unicode="&#x2265;" 
d="M1126 678l-944 -449l-59 133l786 371l-786 371l61 135l942 -448v-113zM1126 0h-1003v147h1003v-147z" />
    <glyph glyph-name="lozenge" unicode="&#x25ca;" horiz-adv-x="1359" 
d="M1184 686l-443 -686h-125l-440 686l440 680h123zM1008 686l-330 500l-320 -500l322 -514z" />
    <glyph glyph-name="Euro.fitted" unicode="&#xe002;" 
d="M1128 115q-170 -142 -387 -142q-89 0 -165 24t-127.5 62t-92.5 88.5t-65 99.5t-40 99.5t-21.5 84.5t-6.5 58h-141v129h133q-2 27 -2 72q0 25 2 58h-133v129h141q1 18 6.5 49.5t21.5 81.5t39.5 100.5t65 103t93 92.5t128 65.5t166.5 25.5q61 0 120 -13.5t98 -30
t73.5 -38.5t47.5 -33t20 -18l-84 -111q-123 96 -264 96q-64 0 -118 -18.5t-89 -47t-62.5 -67t-42.5 -73.5t-25 -72t-12.5 -57.5t-3.5 -34.5h502v-129h-514q-2 -27 -2 -68q0 -39 2 -62h514v-129h-502q0 -12 2.5 -33t12 -56.5t24 -71t41.5 -73t62 -66t88 -46.5t117 -18
q148 0 294 104z" />
    <glyph glyph-name="Dotaccent" unicode="&#xefed;" horiz-adv-x="804" 
d="M512 1587q0 -45 -32.5 -76.5t-78.5 -31.5t-77 31t-31 77t31 77.5t77 31.5t78.5 -31.5t32.5 -77.5z" />
    <glyph glyph-name="Breve" unicode="&#xefee;" horiz-adv-x="804" 
d="M686 1745q-9 -128 -84.5 -202.5t-198.5 -74.5t-199 74.5t-85 202.5h131q18 -129 153 -129q134 0 152 129h131z" />
    <glyph glyph-name="Ogonek" unicode="&#xeff1;" horiz-adv-x="804" 
d="M610 -389q-10 -8 -31.5 -19.5t-73 -27t-102.5 -15.5q-97 0 -153.5 60.5t-56.5 161.5q0 77 34.5 125.5t94.5 89.5l114 -35l-30 -22.5t-32.5 -25.5t-25.5 -24.5t-25 -31.5t-13 -33.5t-7 -42.5q0 -56 32 -88.5t87 -32.5q24 0 51 6t43.5 13t34.5 15t20 9z" />
    <glyph glyph-name="Cedilla" unicode="&#xeff2;" horiz-adv-x="804" 
d="M578 -266q0 -84 -61 -134.5t-140 -50.5q-53 0 -93.5 14.5t-58.5 30.5l37 78q43 -26 103 -26q55 0 77.5 26t22.5 58q0 35 -24 57.5t-62 22.5q-46 0 -84 -27l-57 35l32 182h101l-17 -102q16 8 47 8q78 0 127.5 -48t49.5 -124z" />
    <glyph glyph-name="Tilde" unicode="&#xeff5;" horiz-adv-x="804" 
d="M733 1583q-110 -110 -221 -110q-43 0 -114.5 25.5t-108.5 25.5q-49 0 -137 -58l-80 101q36 31 63 50.5t70.5 37.5t85.5 18q43 0 115 -25.5t108 -25.5q67 0 141 61z" />
    <glyph glyph-name="Circumflex" unicode="&#xeff7;" horiz-adv-x="804" 
d="M727 1563l-68 -97l-256 144l-258 -144l-67 101l325 221z" />
    <glyph glyph-name="parenleft.dnom" unicode="&#xf62c;" horiz-adv-x="442" 
d="M98 344q0 154 69 271t167 188l61 -78q-70 -60 -118 -157.5t-48 -219.5q0 -124 49.5 -225t120.5 -158l-61 -78q-58 39 -109.5 99t-91 156.5t-39.5 201.5z" />
    <glyph glyph-name="parenright.dnom" unicode="&#xf62d;" horiz-adv-x="442" 
d="M344 344q0 -154 -68.5 -271t-166.5 -186l-62 78q70 60 119 157.5t49 219.5q0 124 -50.5 224.5t-121.5 158.5l63 78q93 -62 165.5 -184t72.5 -275z" />
    <glyph glyph-name="parenleft.numr" unicode="&#xf631;" horiz-adv-x="442" 
d="M98 1012q0 154 69 270.5t167 187.5l61 -77q-70 -60 -118 -157.5t-48 -219.5q0 -124 49.5 -225t120.5 -158l-61 -78q-58 39 -109.5 99t-91 156.5t-39.5 201.5z" />
    <glyph glyph-name="parenright.numr" unicode="&#xf632;" horiz-adv-x="442" 
d="M344 1012q0 -154 -68.5 -270t-166.5 -187l-62 78q70 60 119 157.5t49 219.5q0 124 -50.5 224.5t-121.5 158.5l63 77q93 -62 165.5 -183.5t72.5 -274.5z" />
    <glyph glyph-name="zero.fitted" unicode="&#xf639;" horiz-adv-x="1261" 
d="M1155 686q0 -333 -138.5 -523t-387.5 -190t-386 190t-137 525q0 324 138.5 515.5t380.5 191.5q249 0 389.5 -190.5t140.5 -518.5zM971 682q0 271 -87.5 416t-250.5 145q-167 0 -254.5 -144.5t-87.5 -422.5q0 -266 87 -408.5t249 -142.5q166 0 255 143.5t89 413.5z" />
    <glyph glyph-name="two.fitted" unicode="&#xf63a;" horiz-adv-x="1034" 
d="M928 0h-875v141q45 38 154 140.5t186 179.5q179 179 255.5 293t76.5 227q0 121 -70.5 189.5t-193.5 68.5q-57 0 -115.5 -18.5t-101.5 -45t-66.5 -43.5t-32.5 -26l-96 108q4 7 21.5 24t57 45t87.5 52t119.5 42t146.5 18q192 0 310 -110t118 -296q0 -79 -25 -154.5
t-76 -149t-100 -129t-126 -132.5q-56 -56 -125.5 -121.5t-112.5 -104.5t-47 -42h631v-156z" />
    <glyph glyph-name="three.fitted" unicode="&#xf63b;" horiz-adv-x="1054" 
d="M948 385q0 -189 -132.5 -300.5t-346.5 -111.5q-79 0 -149.5 14t-115 32.5t-81.5 42t-52 37t-22 22.5l90 117q1 0 10.5 -7.5t22.5 -16.5t33 -21t45.5 -23t54.5 -20.5t65 -15t74 -5.5q149 0 233.5 67t84.5 183q0 96 -68 164q-51 49 -124.5 65.5t-204.5 16.5h-33v151h33
q58 0 91.5 2t79 9.5t81.5 26.5t67 50q57 57 57 150q0 99 -73 162t-195 63q-162 0 -307 -121l-92 109q4 6 20.5 21t55 41.5t85 49t117 39.5t144.5 17q192 0 309 -103t117 -268q0 -73 -28.5 -140.5t-87 -117.5t-136.5 -61q128 -13 203 -103.5t75 -216.5z" />
    <glyph glyph-name="four.fitted" unicode="&#xf63c;" horiz-adv-x="1148" 
d="M1075 309h-180v-309h-172v309h-662v137l654 920h180v-907h180v-150zM723 459v674l-471 -674h471z" />
    <glyph glyph-name="five.fitted" unicode="&#xf63d;" horiz-adv-x="1077" 
d="M971 444q0 -216 -136 -343.5t-360 -127.5q-74 0 -141.5 14t-111 32.5t-79 41t-50 35.5t-19.5 19l88 118q146 -104 299 -104q150 0 238.5 80.5t88.5 220.5q0 129 -83.5 214t-241.5 85q-124 0 -234 -63l-71 43v657h764v-152h-592v-368q88 35 188 35q209 0 331 -120.5
t122 -316.5z" />
    <glyph glyph-name="six.fitted" unicode="&#xf63e;" horiz-adv-x="1159" 
d="M1073 455q0 -210 -128.5 -346t-336.5 -136q-105 0 -190 37.5t-142.5 100.5t-96 150t-56 183.5t-17.5 202.5q0 119 18 225.5t60 203t104 166.5t155.5 111.5t209.5 41.5q70 0 134.5 -13t107 -30.5t76 -38t48.5 -33t19 -18.5l-84 -119q-129 100 -282 100q-87 0 -155.5 -30.5
t-112 -80.5t-72.5 -120.5t-41.5 -143.5t-14.5 -155v-51q34 113 139 178t232 65q195 0 310.5 -126.5t115.5 -323.5zM903 446q0 135 -73 221.5t-203 86.5q-134 0 -219.5 -92.5t-85.5 -227.5q0 -132 82.5 -220.5t211.5 -88.5q131 0 209 92t78 229z" />
    <glyph glyph-name="seven.fitted" unicode="&#xf63f;" horiz-adv-x="1036" 
d="M981 1225l-553 -1225h-199l562 1210h-748v156h938v-141z" />
    <glyph glyph-name="eight.fitted" unicode="&#xf640;" horiz-adv-x="1183" 
d="M1077 371q0 -182 -131.5 -290t-347.5 -108q-224 0 -358 106.5t-134 289.5q0 134 75 230.5t200 109.5q-112 27 -173 111t-61 196q0 169 123 274t320 105q200 0 323 -103t123 -270q0 -118 -60.5 -202.5t-168.5 -110.5q130 -23 200 -112.5t70 -225.5zM862 1014
q0 105 -73 171t-195 66q-121 0 -195.5 -66t-74.5 -169q0 -106 76 -174t196 -68q117 0 191.5 67t74.5 173zM899 379q0 119 -81.5 187.5t-223.5 68.5q-143 0 -226 -69.5t-83 -184.5q0 -123 83 -193.5t232 -70.5q140 0 219.5 70.5t79.5 191.5z" />
    <glyph glyph-name="nine.fitted" unicode="&#xf641;" horiz-adv-x="1159" 
d="M1053 721q0 -119 -18 -225.5t-59.5 -203t-103 -166.5t-155 -111.5t-209.5 -41.5q-70 0 -135 13t-107.5 30.5t-76.5 37.5t-49 33t-19 19l86 119q131 -102 282 -102q107 0 186 45.5t122.5 124.5t64.5 168t23 194v50q-34 -113 -139 -177.5t-232 -64.5q-195 0 -311.5 126.5
t-116.5 323.5q0 210 129.5 346t337.5 136q105 0 190 -37.5t142 -100.5t95.5 -150t55.5 -183.5t17 -202.5zM840 934q0 132 -83 220.5t-212 88.5q-131 0 -209 -93t-78 -230q0 -135 73.5 -220.5t203.5 -85.5q134 0 219.5 92.5t85.5 227.5z" />
    <glyph glyph-name="zero.taboldstyle" unicode="&#xf643;" 
d="M1151 539q0 -248 -147 -403.5t-383 -155.5q-229 0 -377 154.5t-148 395.5q0 246 148.5 400.5t384.5 154.5q232 0 377 -152t145 -394zM971 543q0 181 -98.5 290t-254.5 109q-155 0 -248.5 -110.5t-93.5 -296.5q0 -183 99.5 -296.5t251.5 -113.5q164 0 254 115.5t90 302.5z
" />
    <glyph glyph-name="one.taboldstyle" unicode="&#xf644;" 
d="M801 0h-176v868l-256 -168l-88 119l381 246h139v-1065z" />
    <glyph glyph-name="two.taboldstyle" unicode="&#xf645;" 
d="M961 0h-752v129q2 2 46.5 38.5t95.5 79t115.5 100.5t108.5 102q97 99 142 167t45 144q0 75 -55 127.5t-146 52.5q-135 0 -258 -113l-94 101q8 12 32 33.5t69 52t117 52t153 21.5q87 0 157 -26.5t113.5 -71.5t66.5 -101.5t23 -119.5q0 -99 -45.5 -179.5t-149.5 -185.5
q-132 -134 -288 -258h504v-145z" />
    <glyph glyph-name="three.taboldstyle" unicode="&#xf646;" 
d="M987 135q0 -171 -125.5 -282t-322.5 -111q-87 0 -163 18t-122.5 44.5t-71 46t-35.5 32.5l86 109l11 -8q10 -9 21.5 -17t30.5 -20t42 -22t50 -19t60 -14t68 -5q132 0 210.5 67t78.5 171q0 92 -62 154q-45 47 -111.5 63t-193.5 16h-24v144h28q116 0 182.5 21t108.5 63
q53 53 53 141q0 90 -65 151.5t-180 61.5q-52 0 -103.5 -15.5t-88.5 -37.5t-57 -37t-30 -25l-92 103q5 7 21 22t51.5 39.5t78.5 45.5t107.5 36.5t132.5 15.5q180 0 290 -99.5t110 -252.5q0 -106 -63.5 -194t-178.5 -109q126 -15 197 -96.5t71 -200.5z" />
    <glyph glyph-name="four.taboldstyle" unicode="&#xf647;" 
d="M1116 23h-182v-275h-172v275h-635v124l618 918h189v-903h182v-139zM762 162v682l-449 -682h449z" />
    <glyph glyph-name="five.taboldstyle" unicode="&#xf648;" 
d="M1053 184q0 -196 -126 -319t-337 -123q-68 0 -130.5 13t-102.5 30.5t-73.5 39t-47 33.5t-19.5 19l82 113q1 -1 12.5 -9.5t23.5 -16.5t31.5 -19.5t42 -21t48.5 -18t58 -13.5t65 -5q143 0 218.5 82.5t75.5 204.5q0 55 -18 105t-52.5 91t-92.5 65t-131 24q-116 0 -215 -66
l-70 45v627h704v-141h-542v-357q70 35 174 35q194 0 308 -115.5t114 -302.5z" />
    <glyph glyph-name="six.taboldstyle" unicode="&#xf649;" 
d="M1075 432q0 -199 -121 -328t-315 -129q-98 0 -178 35t-133 95t-88.5 142t-51.5 173t-16 192q0 112 17 212.5t55.5 192.5t96.5 158.5t146 106t197 39.5q223 0 356 -124q3 -2 4 -3l-81 -115q-124 99 -265 99q-81 0 -144.5 -30t-103.5 -78.5t-66.5 -116t-37.5 -136
t-12 -145.5v-35q34 104 131 163.5t211 59.5q183 0 291 -120t108 -308zM907 426q0 129 -66.5 210t-185.5 81q-123 0 -200.5 -87.5t-77.5 -215.5q0 -126 74.5 -209.5t193.5 -83.5t190.5 88t71.5 217z" />
    <glyph glyph-name="seven.taboldstyle" unicode="&#xf64a;" 
d="M1038 924l-514 -1176h-186l526 1167h-704v150h878v-141z" />
    <glyph glyph-name="eight.taboldstyle" unicode="&#xf64b;" 
d="M1075 356q0 -176 -122.5 -278.5t-325.5 -102.5q-200 0 -326.5 103.5t-126.5 277.5q0 65 20.5 119t49 86.5t66.5 58t64 36t50 16.5q-29 9 -59 26t-68.5 50t-63 89.5t-24.5 127.5q0 159 115.5 257.5t300.5 98.5q188 0 302.5 -96t114.5 -254q0 -60 -17.5 -110.5t-41 -81
t-56 -55t-54 -35t-42.5 -17.5q244 -78 244 -316zM874 963q0 97 -67.5 158t-179.5 61t-181 -61.5t-69 -155.5q0 -97 68.5 -163.5t183.5 -66.5q110 0 177.5 65t67.5 163zM905 360q0 110 -74 176t-204 66t-205.5 -66.5t-75.5 -173.5q0 -111 76.5 -178t206.5 -67
q129 0 202.5 66.5t73.5 176.5z" />
    <glyph glyph-name="nine.taboldstyle" unicode="&#xf64c;" 
d="M1077 451q0 -112 -17 -212.5t-56 -192.5t-97.5 -158.5t-146.5 -106t-197 -39.5q-223 0 -356 124q-3 2 -4 3l82 115q124 -99 266 -99q81 0 144.5 30t103 78.5t65.5 116t37 136t12 145.5v35q-34 -105 -130 -164t-210 -59q-183 0 -292 120t-109 308q0 199 121 327.5
t315 128.5q98 0 178 -35t133.5 -94.5t89.5 -142t52 -173t16 -191.5zM870 649q0 126 -74.5 209.5t-193.5 83.5t-190.5 -88t-71.5 -217t66.5 -210t185.5 -81q123 0 200.5 87.5t77.5 215.5z" />
    <glyph glyph-name="Euro.taboldstyle" unicode="&#xf64e;" 
d="M1149 115q-170 -142 -387 -142q-89 0 -165 24t-127.5 62t-92.5 88.5t-65 99.5t-40 99.5t-21.5 84.5t-6.5 58h-142v129h134q-3 40 -3 72q0 8 3 58h-134v129h142q1 18 6.5 49.5t21.5 81.5t39.5 100.5t65 103t93 92.5t128 65.5t166.5 25.5q61 0 120 -13.5t97.5 -30t73 -38.5
t47.5 -33t20 -18l-84 -111q-123 96 -264 96q-64 0 -117.5 -18.5t-89 -47t-63 -67t-42 -73.5t-24.5 -72t-12.5 -57.5t-3.5 -34.5h502v-129h-514q-2 -27 -2 -68q0 -39 2 -62h514v-129h-502q0 -12 2.5 -33t12 -56.5t24 -71t41 -73t61.5 -66t88 -46.5t117 -18q149 0 295 104z
" />
    <glyph glyph-name="florin.taboldstyle" unicode="&#xf64f;" 
d="M1219 1337l-50 -131q-88 33 -149 33q-90 0 -132.5 -56t-72.5 -202l-53 -258h305l-31 -148h-307l-121 -600q-36 -176 -63 -245q-29 -74 -66 -111q-88 -88 -227 -88q-127 0 -223 55l53 133q2 -1 15 -5.5t24.5 -8.5t29 -8.5t37 -7t39.5 -2.5q74 0 113 39q23 23 41 69.5
t25 78.5t26 126l119 575h-260l31 148h262l53 262q32 151 55 207q28 66 68 106q95 95 239 95q108 0 220 -56z" />
    <glyph glyph-name="sterling.taboldstyle" unicode="&#xf651;" 
d="M1112 1255l-86 -108q-1 0 -13.5 10t-23 16.5t-29.5 18t-39 19t-44.5 16t-54 12.5t-60.5 4q-134 0 -209.5 -84.5t-75.5 -240.5q0 -79 15 -195h397v-148h-383q6 -48 6 -100q0 -236 -113 -319h688v-156h-948v137q101 31 148 98t47 205q0 66 -6 135h-185v148h170
q-16 136 -16 195q0 222 122 348.5t333 126.5q79 0 148.5 -18t113 -45t66.5 -45t32 -30z" />
    <glyph glyph-name="yen.taboldstyle" unicode="&#xf652;" 
d="M1141 1366l-367 -641h238v-129h-297v-119h295v-127h-297v-350h-176v350h-299v127h299v119h-301v129h235l-360 641h194l326 -623l332 623h178z" />
    <glyph glyph-name="dollar.taboldstyle" unicode="&#xf653;" 
d="M1073 387q0 -153 -94.5 -259.5t-263.5 -133.5v-203h-150v197q-231 12 -389 143l90 125l19 -12q19 -13 34.5 -22.5t45.5 -24.5t58.5 -25.5t66.5 -19.5t75 -11v508q-94 43 -154.5 77t-101.5 75q-94 94 -94 217q0 139 95.5 235t254.5 119v180h150v-176q202 -15 342 -135
l-92 -113q-117 88 -250 101v-445q178 -81 258 -161q100 -100 100 -236zM567 846v377q-78 -21 -124 -71t-46 -122q0 -55 49 -104q37 -37 121 -80zM883 375q0 75 -66 141q-42 42 -104 72v-436q81 24 125.5 85t44.5 138z" />
    <glyph glyph-name="cent.taboldstyle" unicode="&#xf654;" 
d="M1047 109q-8 -8 -37.5 -26.5t-97 -44.5t-138.5 -34v-213h-149v211q-187 23 -299.5 157.5t-112.5 340.5q0 210 114 355.5t298 174.5v203h149v-197q69 -8 132 -33t91 -43.5t35 -27.5l-74 -113q-91 57 -184 70v-735q116 16 201 73zM625 160v717q-107 -32 -171.5 -132.5
t-64.5 -228.5q0 -137 63.5 -232t172.5 -124z" />
    <glyph glyph-name="zero.dnom" unicode="&#xf655;" horiz-adv-x="800" 
d="M702 354q0 -171 -80.5 -268.5t-224.5 -97.5q-138 0 -218.5 94.5t-80.5 255.5q0 173 81.5 273t223.5 100q136 0 217.5 -97.5t81.5 -259.5zM571 352q0 120 -44.5 185t-120.5 65q-81 0 -128 -68.5t-47 -193.5q0 -118 44 -182t122 -64q87 0 130.5 71t43.5 187z" />
    <glyph glyph-name="one.dnom" unicode="&#xf656;" horiz-adv-x="800" 
d="M514 0h-127v547l-156 -101l-63 95l248 159h98v-700z" />
    <glyph glyph-name="two.dnom" unicode="&#xf657;" horiz-adv-x="800" 
d="M621 0h-447v94q47 40 76.5 66.5t81 77.5t82 89.5t54.5 84.5t24 82q0 52 -29 81t-82 29q-70 0 -150 -74l-65 76q34 41 94.5 74t132.5 33q99 0 161 -59.5t62 -155.5q0 -49 -19 -96.5t-60 -99t-83 -93t-110 -103.5h277v-106z" />
    <glyph glyph-name="three.dnom" unicode="&#xf658;" horiz-adv-x="800" 
d="M629 205q0 -101 -69 -160t-177 -59q-62 0 -114 18.5t-74.5 36.5t-34.5 35l63 76q1 -1 8.5 -6.5t13.5 -10t17 -11.5t22.5 -12t25 -10t29.5 -7.5t32 -2.5q64 0 99.5 29t35.5 78q0 57 -43 81.5t-129 24.5h-33v103h33q32 0 54.5 2.5t50 11.5t42.5 31t15 55q0 41 -29.5 68.5
t-81.5 27.5q-72 0 -145 -61l-66 71q30 36 89 66.5t132 30.5q98 0 159.5 -54t61.5 -143q0 -48 -31 -94.5t-83 -59.5q58 -10 92.5 -54.5t34.5 -100.5z" />
    <glyph glyph-name="four.dnom" unicode="&#xf659;" horiz-adv-x="800" 
d="M672 150h-92v-150h-123v150h-338v90l342 460h119v-444h92v-106zM457 256v268l-197 -268h197z" />
    <glyph glyph-name="five.dnom" unicode="&#xf65a;" horiz-adv-x="800" 
d="M637 231q0 -113 -72 -178t-190 -65q-61 0 -115 21t-75.5 38t-26.5 25l59 80q11 -9 29.5 -20.5t54 -24.5t68.5 -13q67 0 105 34t38 95q0 57 -37 94t-106 37q-47 0 -119 -32l-49 28v350h401v-106h-283v-148q52 13 78 13q108 0 174 -63t66 -165z" />
    <glyph glyph-name="six.dnom" unicode="&#xf65b;" horiz-adv-x="800" 
d="M655 236q0 -109 -68.5 -179.5t-178.5 -70.5q-128 0 -196.5 97t-68.5 249q0 77 16.5 143t50 120t90.5 85t132 31q56 0 107 -19.5t72 -35.5t28 -25l-55 -78q-69 55 -144 55q-86 0 -127.5 -60.5t-48.5 -154.5q56 76 164 76q103 0 165 -65t62 -168zM539 231q0 60 -32 98
t-89 38q-62 0 -98.5 -41t-36.5 -101q0 -59 36 -97t93 -38q58 0 92.5 40.5t34.5 100.5z" />
    <glyph glyph-name="seven.dnom" unicode="&#xf65c;" horiz-adv-x="800" 
d="M645 616l-276 -616h-131l278 596h-356v104h485v-84z" />
    <glyph glyph-name="eight.dnom" unicode="&#xf65d;" horiz-adv-x="800" 
d="M657 197q0 -96 -69 -153.5t-182 -57.5q-118 0 -188.5 56.5t-70.5 152.5q0 58 28.5 103.5t74.5 66.5q-86 47 -86 147q0 90 65.5 144.5t169.5 54.5q105 0 171.5 -53.5t66.5 -141.5q0 -52 -24 -92.5t-62 -61.5q106 -36 106 -165zM518 512q0 46 -32 74t-83 28q-54 0 -86 -28
t-32 -74q0 -47 32.5 -75.5t85.5 -28.5q51 0 83 28.5t32 75.5zM537 199q0 53 -36 82.5t-100 29.5q-63 0 -99 -30t-36 -82q0 -54 36.5 -83.5t103.5 -29.5q62 0 96.5 29.5t34.5 83.5z" />
    <glyph glyph-name="nine.dnom" unicode="&#xf65e;" horiz-adv-x="800" 
d="M659 367q0 -77 -16.5 -143.5t-49.5 -120.5t-90 -85.5t-132 -31.5q-57 0 -108.5 19.5t-72.5 35.5t-28 25l57 79q7 -7 24 -18t51.5 -24t67.5 -13q153 0 173 213q-23 -35 -67.5 -55.5t-92.5 -20.5q-103 0 -165.5 66.5t-62.5 169.5q0 107 68.5 177.5t177.5 70.5
q68 0 120.5 -28.5t83.5 -77.5t46.5 -109t15.5 -129zM520 471q0 59 -37 98t-92 39q-59 0 -93 -41t-34 -102q0 -59 31.5 -97t89.5 -38q59 0 97 41t38 100z" />
    <glyph glyph-name="zero.numr" unicode="&#xf661;" horiz-adv-x="800" 
d="M702 1022q0 -171 -80.5 -269t-224.5 -98q-138 0 -218.5 95t-80.5 256q0 173 81.5 272.5t223.5 99.5q136 0 217.5 -97t81.5 -259zM571 1020q0 120 -44.5 185t-120.5 65q-81 0 -128 -68.5t-47 -193.5q0 -118 44 -182t122 -64q87 0 130.5 71t43.5 187z" />
    <glyph glyph-name="one.numr" unicode="&#xf662;" horiz-adv-x="800" 
d="M514 666h-127v548l-156 -100l-63 92l248 160h98v-700z" />
    <glyph glyph-name="two.numr" unicode="&#xf663;" horiz-adv-x="800" 
d="M621 666h-447v94q46 40 76.5 67t81 77.5t81.5 89t55 84.5t24 81q0 52 -29 82.5t-82 30.5q-63 0 -150 -74l-65 74q33 41 93.5 73.5t133.5 32.5q99 0 161 -59t62 -156q0 -91 -67 -178.5t-205 -210.5h277v-108z" />
    <glyph glyph-name="three.numr" unicode="&#xf664;" horiz-adv-x="800" 
d="M629 872q0 -101 -69 -160t-177 -59q-62 0 -114 18.5t-74.5 36.5t-34.5 35l63 76l8 -6q8 -6 14 -10t17 -11t22.5 -12t25 -10t29.5 -7.5t32 -2.5q65 0 100 29t35 77q0 57 -43 82t-129 25h-33v102h33q31 0 54 3t50.5 12t42.5 31t15 55q0 41 -29.5 68.5t-81.5 27.5
q-71 0 -145 -62l-66 72q30 35 89 65.5t132 30.5q98 0 159.5 -54t61.5 -142q0 -48 -31 -94.5t-83 -59.5q58 -10 92.5 -55t34.5 -101z" />
    <glyph glyph-name="four.numr" unicode="&#xf665;" horiz-adv-x="800" 
d="M672 817h-92v-151h-123v151h-338v88l342 461h119v-442h92v-107zM457 924v268l-197 -268h197z" />
    <glyph glyph-name="five.numr" unicode="&#xf666;" horiz-adv-x="800" 
d="M637 897q0 -111 -72 -176.5t-190 -65.5q-61 0 -115 20.5t-75.5 37t-26.5 24.5l59 80q19 -16 62 -35.5t90 -19.5q67 0 105 33.5t38 95.5q0 56 -37 93.5t-106 37.5q-16 0 -32 -2.5t-30 -7.5t-23.5 -9t-20.5 -9.5l-13 -6.5l-49 29v350h401v-106h-283v-148q32 12 78 12
q108 0 174 -62.5t66 -164.5z" />
    <glyph glyph-name="six.numr" unicode="&#xf667;" horiz-adv-x="800" 
d="M655 903q0 -109 -68.5 -179.5t-178.5 -70.5q-128 0 -196.5 97t-68.5 249q0 77 16.5 143t50 120t90.5 85t132 31q56 0 107 -19.5t72 -35.5t28 -25l-55 -77q-69 55 -144 55q-86 0 -127.5 -60.5t-48.5 -154.5q56 76 164 76q103 0 165 -65.5t62 -168.5zM539 899
q0 60 -32 97.5t-89 37.5q-62 0 -98.5 -40.5t-36.5 -100.5q0 -59 36 -97t93 -38q58 0 92.5 40.5t34.5 100.5z" />
    <glyph glyph-name="seven.numr" unicode="&#xf668;" horiz-adv-x="800" 
d="M645 1282l-276 -616h-131l278 596h-356v104h485v-84z" />
    <glyph glyph-name="eight.numr" unicode="&#xf669;" horiz-adv-x="800" 
d="M657 864q0 -96 -69 -153.5t-182 -57.5q-118 0 -188.5 56.5t-70.5 152.5q0 58 28.5 103.5t74.5 66.5q-86 47 -86 148q0 90 65.5 144t169.5 54q106 0 172 -53t66 -141q0 -52 -24 -92.5t-62 -61.5q106 -36 106 -166zM518 1180q0 46 -32 74t-83 28q-54 0 -86 -28t-32 -74
q0 -47 32.5 -76t85.5 -29q51 0 83 29t32 76zM537 866q0 54 -36.5 83.5t-99.5 29.5t-99 -30t-36 -83q0 -54 36 -83t104 -29q62 0 96.5 29t34.5 83z" />
    <glyph glyph-name="nine.numr" unicode="&#xf66a;" horiz-adv-x="800" 
d="M659 1034q0 -77 -16.5 -143.5t-49.5 -120.5t-90 -85.5t-132 -31.5q-57 0 -108.5 19.5t-72.5 35.5t-28 25l57 80q7 -7 24 -18t51.5 -24t67.5 -13q153 0 173 213q-23 -35 -67.5 -55.5t-92.5 -20.5q-103 0 -165.5 66t-62.5 169q0 107 68.5 177.5t177.5 70.5
q68 0 120.5 -28.5t83.5 -77.5t46.5 -109t15.5 -129zM520 1139q0 59 -37 98t-92 39q-59 0 -93 -41t-34 -102q0 -60 31.5 -98t89.5 -38q59 0 97 41t38 101z" />
    <glyph glyph-name="Acute" unicode="&#xf6c9;" horiz-adv-x="804" 
d="M655 1640l-450 -174l-55 103l434 219z" />
    <glyph glyph-name="Caron" unicode="&#xf6ca;" horiz-adv-x="804" 
d="M727 1688l-326 -222l-323 226l67 96l256 -143l258 143z" />
    <glyph glyph-name="Dieresis" unicode="&#xf6cb;" horiz-adv-x="804" 
d="M682 1587q0 -45 -32.5 -76.5t-78.5 -31.5t-77 31t-31 77t31 77.5t77 31.5t78.5 -31.5t32.5 -77.5zM342 1587q0 -45 -32.5 -76.5t-78.5 -31.5t-77 31t-31 77t31 77.5t77 31.5t78.5 -31.5t32.5 -77.5z" />
    <glyph glyph-name="Grave" unicode="&#xf6ce;" horiz-adv-x="804" 
d="M600 1466l-450 174l71 148l434 -219z" />
    <glyph glyph-name="Hungarumlaut" unicode="&#xf6cf;" horiz-adv-x="804" 
d="M684 1808l-147 -348l-131 45l114 365zM399 1808l-145 -348l-133 45l115 365z" />
    <glyph glyph-name="Macron" unicode="&#xf6d0;" horiz-adv-x="804" 
d="M729 1497h-651v131h651v-131z" />
    <glyph glyph-name="one.fitted" unicode="&#xf6dc;" horiz-adv-x="798" 
d="M633 0h-180v1153l-326 -219l-90 131l450 301h146v-1366z" />
    <glyph glyph-name="Lslashsmall" unicode="&#xf6f9;" horiz-adv-x="927" 
d="M860 0h-631v408l-114 -84l-90 110l204 146v485h179v-379l172 123l86 -113l-258 -180v-373h452v-143z" />
    <glyph glyph-name="OEsmall" unicode="&#xf6fa;" horiz-adv-x="1527" 
d="M1425 0h-641q-77 0 -125 1.5t-110.5 9t-106.5 21.5t-91.5 39.5t-88.5 63.5q-78 72 -122 173.5t-44 215.5q0 119 43.5 222t122.5 176q52 49 111 79t131 43.5t130.5 17t151.5 3.5h625v-143h-463v-297h436v-142h-436v-336h477v-147zM772 141v781h-24q-129 0 -214.5 -20
t-150.5 -85q-102 -102 -102 -295q0 -172 96 -268q62 -62 142 -87.5t249 -25.5h4z" />
    <glyph glyph-name="Scaronsmall" unicode="&#xf6fd;" horiz-adv-x="903" 
d="M799 301q0 -141 -99.5 -232.5t-271.5 -91.5q-123 0 -225.5 47t-128.5 80l86 117q135 -94 262 -94q94 0 144 45.5t50 112.5q0 38 -21.5 69.5t-57 53.5t-80.5 45.5t-92.5 44t-92.5 49t-80.5 60.5t-57 79.5t-21.5 104.5q0 132 98 214t254 82q72 0 135 -15t103 -38t61 -39.5
t33 -29.5l-90 -111q-113 84 -232 84q-86 0 -135 -37t-49 -98q0 -37 26.5 -67.5t53.5 -45.5t99 -50l30 -15q35 -17 54.5 -27t55.5 -31t58 -38t49.5 -43.5t43.5 -52.5t27 -60.5t11 -71.5zM793 1366l-326 -221l-324 225l68 96l256 -143l258 143z" />
    <glyph glyph-name="Zcaronsmall" unicode="&#xf6ff;" horiz-adv-x="993" 
d="M893 0h-799v119l565 803h-534v143h754v-123l-555 -795h569v-147zM819 1366l-325 -221l-324 225l68 96l256 -143l258 143z" />
    <glyph glyph-name="ampersandsmall" unicode="&#xf726;" horiz-adv-x="1193" 
d="M1092 -2l-29 -2q-89 -7 -146.5 19t-113.5 81l-11 -8q-10 -9 -19 -16t-28 -19t-37.5 -21.5t-45.5 -20t-54 -17.5t-62 -12t-71 -5q-156 0 -262.5 93t-106.5 233q0 63 25 119.5t64 95.5q39 41 137 90q-115 115 -115 221q0 114 90 186t223 72q124 0 202.5 -68.5t78.5 -168.5
q0 -36 -10 -68.5t-30.5 -58t-39.5 -45t-49 -37.5t-46.5 -27t-44.5 -21.5t-32 -14.5l246 -269q30 36 55.5 107.5t26.5 171.5h147q0 -126 -40.5 -229.5t-84.5 -153.5q43 -43 82.5 -59.5t100.5 -16.5v-131zM655 846q0 49 -32 80.5t-93 31.5q-67 0 -107 -37t-40 -90
q0 -36 21.5 -69.5t72.5 -91.5l13 6q13 6 19 8.5t21.5 10.5t24.5 14l24 16t24 19t20 21t17 24t10.5 27t4.5 30zM702 199l-280 309q-69 -34 -103 -76q-45 -53 -45 -121q0 -79 60.5 -133.5t157.5 -54.5q115 0 210 76z" />
    <glyph glyph-name="zerooldstyle" unicode="&#xf730;" horiz-adv-x="1259" 
d="M1157 539q0 -248 -147 -403.5t-383 -155.5q-229 0 -377 154.5t-148 395.5q0 246 148.5 400.5t384.5 154.5q232 0 377 -152t145 -394zM977 543q0 181 -98 290t-254 109q-155 0 -248.5 -110.5t-93.5 -296.5q0 -183 99 -296.5t251 -113.5q164 0 254 115.5t90 302.5z" />
    <glyph glyph-name="oneoldstyle" unicode="&#xf731;" horiz-adv-x="696" 
d="M537 0h-177v868l-256 -168l-88 119l381 246h140v-1065z" />
    <glyph glyph-name="twooldstyle" unicode="&#xf732;" horiz-adv-x="882" 
d="M799 0h-752v129q3 2 47.5 38.5t95.5 79t115.5 100.5t108.5 102q97 98 141.5 166.5t44.5 144.5q0 75 -55 127.5t-146 52.5q-135 0 -258 -113l-94 101q8 12 32 33.5t69 52t117 52t153 21.5q87 0 157 -26.5t113.5 -71.5t66.5 -101.5t23 -119.5q0 -99 -45.5 -179.5
t-148.5 -185.5q-129 -131 -289 -258h504v-145z" />
    <glyph glyph-name="threeoldstyle" unicode="&#xf733;" horiz-adv-x="950" 
d="M848 135q0 -171 -126 -282t-323 -111q-87 0 -163 18t-122 44.5t-70.5 45.5t-35.5 33l86 109l10 -8q11 -9 22.5 -17t30.5 -20t42 -22t50 -19t60 -14t68 -5q132 0 210.5 67t78.5 171q0 92 -62 154q-45 47 -111.5 63t-193.5 16h-25v144h29q116 0 182.5 21t108.5 63
q53 53 53 141q0 89 -65.5 151t-180.5 62q-52 0 -103.5 -15t-88 -38t-56.5 -37.5t-30 -24.5l-92 103q5 7 21 22t51.5 39.5t78.5 45.5t107.5 36.5t132.5 15.5q180 0 289.5 -99.5t109.5 -252.5q0 -106 -63 -194t-178 -109q126 -15 197 -96.5t71 -200.5z" />
    <glyph glyph-name="fouroldstyle" unicode="&#xf734;" horiz-adv-x="1060" 
d="M1032 23h-182v-275h-172v275h-635v124l619 918h188v-903h182v-139zM678 162v682l-449 -682h449z" />
    <glyph glyph-name="fiveoldstyle" unicode="&#xf735;" horiz-adv-x="1019" 
d="M928 184q0 -196 -126 -319t-337 -123q-68 0 -130.5 13t-102.5 30.5t-73.5 39t-47 33.5t-19.5 19l82 113q1 -1 12.5 -9.5t23.5 -16.5t31.5 -19.5t42 -21t48.5 -18t58 -13.5t65 -5q143 0 219 82.5t76 204.5q0 117 -76 201t-219 84q-116 0 -215 -66l-70 45v627h704v-141
h-542v-357q70 35 174 35q194 0 308 -115.5t114 -302.5z" />
    <glyph glyph-name="sixoldstyle" unicode="&#xf736;" horiz-adv-x="1097" 
d="M1006 432q0 -199 -121.5 -328t-315.5 -129q-98 0 -178 35t-133 95t-88.5 142t-51.5 173t-16 192q0 112 17 212.5t55.5 192.5t96.5 158.5t146 106t197 39.5q223 0 358 -124l1.5 -1.5l1.5 -1.5l-82 -115q-124 99 -264 99q-81 0 -144.5 -30t-103.5 -78.5t-66.5 -116
t-38 -136.5t-12.5 -145v-35q34 104 131 163.5t211 59.5q183 0 291.5 -120t108.5 -308zM838 426q0 129 -66.5 210t-185.5 81q-123 0 -201 -88t-78 -215q0 -126 74.5 -209.5t193.5 -83.5t191 88t72 217z" />
    <glyph glyph-name="sevenoldstyle" unicode="&#xf737;" horiz-adv-x="933" 
d="M883 924l-514 -1176h-187l527 1167h-705v150h879v-141z" />
    <glyph glyph-name="eightoldstyle" unicode="&#xf738;" horiz-adv-x="1105" 
d="M1004 356q0 -175 -123 -278t-326 -103q-200 0 -326.5 103.5t-126.5 277.5q0 65 20.5 119t49 86.5t66.5 58t64 36t50 16.5q-29 9 -59 26t-68.5 50t-63 89.5t-24.5 127.5q0 159 115.5 257.5t300.5 98.5q188 0 303 -96t115 -254q0 -60 -17.5 -110.5t-41 -81t-56 -55t-54 -35
t-42.5 -17.5q244 -78 244 -316zM803 963q0 97 -67.5 158t-180.5 61q-112 0 -181 -61.5t-69 -155.5q0 -97 68.5 -163.5t183.5 -66.5q110 0 178 65.5t68 162.5zM834 360q0 110 -74.5 176t-204.5 66t-205.5 -66.5t-75.5 -173.5q0 -111 76.5 -178t206.5 -67q129 0 203 66.5
t74 176.5z" />
    <glyph glyph-name="nineoldstyle" unicode="&#xf739;" horiz-adv-x="1110" 
d="M1008 451q0 -112 -17 -212.5t-56 -192.5t-97.5 -158.5t-146.5 -106t-197 -39.5q-223 0 -358 124l-3 3l82 115q124 -99 266 -99q81 0 144.5 30t103 78.5t66 116t37.5 136t12 145.5v35q-34 -105 -130 -164t-210 -59q-183 0 -292.5 120t-109.5 308q0 199 121 327.5
t316 128.5q98 0 178 -35t133.5 -94.5t89.5 -142t52 -173t16 -191.5zM801 649q0 126 -75 209.5t-194 83.5t-190.5 -88t-71.5 -217t66.5 -210t185.5 -81q123 0 201 88t78 215z" />
    <glyph glyph-name="Asmall" unicode="&#xf761;" horiz-adv-x="1060" 
d="M1038 0h-188l-100 270h-449l-100 -270h-178l415 1065h183zM696 410l-172 464l-174 -464h346z" />
    <glyph glyph-name="Bsmall" unicode="&#xf762;" horiz-adv-x="999" 
d="M905 309q0 -131 -86 -211q-31 -29 -70 -48t-73 -29t-91.5 -15t-94 -5.5t-113.5 -0.5h-23h-204v1065h319q108 0 180.5 -15.5t128.5 -66.5q90 -84 90 -203q0 -47 -14 -87t-35 -65t-47.5 -43.5t-48 -26.5t-39.5 -11q96 -13 158.5 -72.5t62.5 -165.5zM696 772q0 68 -41 109
q-12 12 -26.5 20.5t-34 14t-33.5 9t-39 4.5t-35.5 1.5t-38 0t-32.5 -0.5h-94v-324h116q157 0 217 60q41 41 41 106zM727 313q0 64 -43 107q-13 13 -28.5 23t-38.5 15.5t-37.5 9.5t-45 5.5t-40 2t-43 0t-35.5 -0.5h-94v-336h127q94 0 145.5 12t91.5 52q41 41 41 110z" />
    <glyph glyph-name="Csmall" unicode="&#xf763;" horiz-adv-x="1042" 
d="M1001 100q-33 -35 -134 -79t-242 -44q-149 0 -268 64t-190 189t-71 292q0 173 75 302.5t198.5 195t275.5 65.5q70 0 134 -13t106.5 -33t68 -36t37.5 -28l-76 -121q-36 22 -58 34t-82 29t-122 17q-161 0 -265.5 -108t-104.5 -291q0 -187 95 -295.5t263 -108.5q25 0 50 2.5
t47 7.5t41.5 10t38 12.5t32.5 13.5t28.5 14t21.5 12t16 10l10 6z" />
    <glyph glyph-name="Dsmall" unicode="&#xf764;" horiz-adv-x="1196" 
d="M1100 541q0 -119 -43.5 -222t-122.5 -176q-52 -49 -111 -79t-131 -43.5t-130.5 -17t-151.5 -3.5h-260v1065h262q77 0 125 -1.5t110.5 -9t106.5 -21.5t91.5 -39.5t88.5 -63.5q78 -72 122 -173.5t44 -215.5zM915 543q0 172 -96 268q-62 62 -142 87.5t-249 25.5h-98v-781
h119q130 0 213.5 19t150.5 86q102 102 102 295z" />
    <glyph glyph-name="Esmall" unicode="&#xf765;" horiz-adv-x="905" 
d="M803 0h-653v1065h638v-143h-462v-297h436v-142h-436v-336h477v-147z" />
    <glyph glyph-name="Fsmall" unicode="&#xf766;" horiz-adv-x="862" 
d="M774 922h-448v-297h424v-142h-424v-483h-176v1065h624v-143z" />
    <glyph glyph-name="Gsmall" unicode="&#xf767;" horiz-adv-x="1132" 
d="M1016 84q-13 -10 -37 -23t-73 -34.5t-122.5 -35.5t-154.5 -14q-112 0 -209.5 37.5t-169.5 106.5t-113 173t-41 230q0 173 74.5 302.5t198 195t276.5 65.5q132 0 223 -37t125 -71l-75 -119q-114 76 -265 76q-163 0 -271 -108t-108 -291q0 -187 100 -297.5t271 -110.5
q127 0 201 39v233h-230v142h400v-459z" />
    <glyph glyph-name="Hsmall" unicode="&#xf768;" horiz-adv-x="1136" 
d="M987 0h-178v483h-481v-483h-178v1065h178v-434h481v434h178v-1065z" />
    <glyph glyph-name="Ismall" unicode="&#xf769;" horiz-adv-x="477" 
d="M328 0h-178v1065h178v-1065z" />
    <glyph glyph-name="Jsmall" unicode="&#xf76a;" horiz-adv-x="669" 
d="M535 268q-4 -145 -80 -219q-72 -69 -199 -69q-83 0 -147 24.5t-91 46.5l64 123q78 -43 137 -43t96 33q20 19 29.5 52t10.5 53.5t1 66.5v729h179v-721v-76z" />
    <glyph glyph-name="Ksmall" unicode="&#xf76b;" horiz-adv-x="1007" 
d="M989 0h-221l-440 498v-498h-178v1065h178v-496l436 496h199l-463 -520z" />
    <glyph glyph-name="Lsmall" unicode="&#xf76c;" horiz-adv-x="854" 
d="M786 0h-636v1065h178v-918h458v-147z" />
    <glyph glyph-name="Msmall" unicode="&#xf76d;" horiz-adv-x="1503" 
d="M1386 0h-180l-86 788l-303 -788h-145l-305 788l-82 -788h-168l125 1065h190l320 -819l315 819h190z" />
    <glyph glyph-name="Nsmall" unicode="&#xf76e;" horiz-adv-x="1122" 
d="M985 0h-170l-504 788l4 -788h-165v1065h169l504 -791l-4 791h166v-1065z" />
    <glyph glyph-name="Osmall" unicode="&#xf76f;" horiz-adv-x="1247" 
d="M1151 539q0 -248 -147 -403.5t-383 -155.5q-229 0 -377 154.5t-148 395.5q0 246 148.5 400.5t384.5 154.5q232 0 377 -152t145 -394zM967 543q0 178 -97.5 286.5t-251.5 108.5q-153 0 -245 -109t-92 -294q0 -181 98 -293.5t248 -112.5q163 0 251.5 114t88.5 300z" />
    <glyph glyph-name="Psmall" unicode="&#xf770;" horiz-adv-x="980" 
d="M887 745q0 -148 -96 -237q-19 -17 -38 -31t-43.5 -24t-40.5 -17t-46 -11.5t-43 -7.5t-48.5 -4t-44.5 -1h-50h-46h-63v-412h-178v1065h292q125 0 205.5 -16t140.5 -72q99 -91 99 -232zM709 748q0 79 -52 131q-23 23 -62.5 34.5t-67 13t-76.5 1.5h-123v-377h86
q104 0 156.5 9.5t84.5 41.5q54 54 54 146z" />
    <glyph glyph-name="Qsmall" unicode="&#xf771;" horiz-adv-x="1253" 
d="M1157 -201q-90 -20 -188 -20q-313 0 -455 211q-79 13 -151.5 53.5t-133 105.5t-97 163.5t-36.5 215.5q0 246 148.5 401.5t384.5 155.5q231 0 376.5 -153t145.5 -395q0 -209 -111.5 -359.5t-310.5 -187.5q94 -76 279 -76q29 0 129 10zM967 543q0 178 -97.5 286.5
t-251.5 108.5q-153 0 -245 -109t-92 -294q0 -181 98 -293.5t248 -112.5q163 0 251.5 114t88.5 300z" />
    <glyph glyph-name="Rsmall" unicode="&#xf772;" horiz-adv-x="985" 
d="M938 0h-186l-131 276q-29 62 -49.5 94t-50.5 50t-60 22t-90 4h-45v-446h-176v1065h249h37h40t37 -1t40.5 -2.5t36.5 -4.5t39 -8t34 -11.5t36 -15.5t31.5 -21t31.5 -26q90 -90 90 -213q0 -110 -74 -184q-63 -63 -168 -78q19 -1 36 -7.5t29.5 -14t26 -22.5t21.5 -24
t19.5 -29.5t15.5 -29t14.5 -31t13.5 -27.5zM676 762q0 70 -45 115q-24 24 -61.5 36t-63.5 13.5t-74 1.5h-14h-92v-346h53q93 0 151.5 11.5t98.5 51.5q47 47 47 117z" />
    <glyph glyph-name="Ssmall" unicode="&#xf773;" horiz-adv-x="903" 
d="M799 301q0 -141 -99.5 -232.5t-271.5 -91.5q-123 0 -225.5 47t-128.5 80l86 117q135 -94 262 -94q94 0 144 45.5t50 112.5q0 38 -21.5 69.5t-57 53.5t-80.5 45.5t-92.5 44t-92.5 49t-80.5 60.5t-57 79.5t-21.5 104.5q0 132 98 214t254 82q72 0 135 -15t103 -38t61 -39.5
t33 -29.5l-90 -111q-113 84 -232 84q-86 0 -135 -37t-49 -98q0 -37 26.5 -67.5t53.5 -45.5t99 -50l30 -15q35 -17 54.5 -27t55.5 -31t58 -38t49.5 -43.5t43.5 -52.5t27 -60.5t11 -71.5z" />
    <glyph glyph-name="Tsmall" unicode="&#xf774;" horiz-adv-x="948" 
d="M891 922h-326v-922h-180v922h-328v143h834v-143z" />
    <glyph glyph-name="Usmall" unicode="&#xf775;" horiz-adv-x="1110" 
d="M975 498q0 -171 -19 -257t-82 -149q-112 -112 -319 -112q-209 0 -319 110q-37 37 -59 73.5t-30.5 84t-10 74.5t-1.5 92v651h180v-666q0 -49 2 -77.5t16 -66.5t42 -65q64 -61 186 -61q110 0 170 57q39 38 51.5 81.5t14.5 109.5v117v571h178v-567z" />
    <glyph glyph-name="Vsmall" unicode="&#xf776;" horiz-adv-x="1073" 
d="M1030 1065l-403 -1065h-187l-397 1065h188l308 -872l315 872h176z" />
    <glyph glyph-name="Wsmall" unicode="&#xf777;" horiz-adv-x="1568" 
d="M1495 1065l-283 -1065h-206l-220 848l-227 -848h-205l-280 1065h184l203 -846l229 846h203l223 -844l207 844h172z" />
    <glyph glyph-name="Xsmall" unicode="&#xf778;" horiz-adv-x="1021" 
d="M977 0h-199l-270 418l-270 -418h-193l367 553l-342 512h200l244 -381l244 381h192l-344 -514z" />
    <glyph glyph-name="Ysmall" unicode="&#xf779;" horiz-adv-x="991" 
d="M948 1065l-364 -641v-424h-178v424l-363 641h190l271 -494l270 494h174z" />
    <glyph glyph-name="Zsmall" unicode="&#xf77a;" horiz-adv-x="993" 
d="M893 0h-799v119l565 803h-534v143h754v-123l-555 -795h569v-147z" />
    <glyph glyph-name="Agravesmall" unicode="&#xf7e0;" horiz-adv-x="1060" 
d="M1038 0h-188l-100 270h-449l-100 -270h-178l415 1065h183zM696 410l-172 464l-174 -464h346zM766 1247l-55 -102l-451 174l72 147z" />
    <glyph glyph-name="Aacutesmall" unicode="&#xf7e1;" horiz-adv-x="1060" 
d="M1038 0h-188l-100 270h-449l-100 -270h-178l415 1065h183zM696 410l-172 464l-174 -464h346zM758 1319l-451 -174l-55 102l434 219z" />
    <glyph glyph-name="Acircumflexsmall" unicode="&#xf7e2;" horiz-adv-x="1060" 
d="M1038 0h-188l-100 270h-449l-100 -270h-178l415 1065h183zM696 410l-172 464l-174 -464h346zM836 1241l-68 -96l-256 143l-258 -143l-68 100l326 221z" />
    <glyph glyph-name="Atildesmall" unicode="&#xf7e3;" horiz-adv-x="1060" 
d="M1038 0h-188l-100 270h-449l-100 -270h-178l415 1065h183zM696 410l-172 464l-174 -464h346zM858 1284q-110 -110 -221 -110q-43 0 -114.5 25.5t-108.5 25.5q-50 0 -138 -58l-79 101q36 31 63 50.5t70.5 37.5t85.5 18q43 0 115 -25.5t108 -25.5q67 0 141 61z" />
    <glyph glyph-name="Adieresissmall" unicode="&#xf7e4;" horiz-adv-x="1060" 
d="M1038 0h-188l-100 270h-449l-100 -270h-178l415 1065h183zM696 410l-172 464l-174 -464h346zM791 1300q0 -45 -32.5 -76.5t-78.5 -31.5t-77.5 31t-31.5 77t31.5 77.5t77.5 31.5t78.5 -31.5t32.5 -77.5zM451 1300q0 -45 -32.5 -76.5t-78.5 -31.5t-77.5 31t-31.5 77
t31.5 77.5t77.5 31.5t78.5 -31.5t32.5 -77.5z" />
    <glyph glyph-name="Aringsmall" unicode="&#xf7e5;" horiz-adv-x="1060" 
d="M1038 0h-188l-100 270h-449l-100 -270h-178l415 1065h183zM696 410l-172 464l-174 -464h346zM721 1372q0 -86 -61.5 -147.5t-147.5 -61.5t-147.5 61.5t-61.5 147.5q0 87 61.5 147t147.5 60q87 0 148 -61t61 -146zM621 1372q0 45 -32 77t-77 32q-44 0 -76.5 -32.5
t-32.5 -76.5t32.5 -76t76.5 -32q46 0 77.5 32t31.5 76z" />
    <glyph glyph-name="AEsmall" unicode="&#xf7e6;" horiz-adv-x="1497" 
d="M1395 0h-647v272h-377l-162 -272h-186l657 1065h702v-141h-460v-301h434v-140h-434v-340h473v-143zM748 412v508l-299 -508h299z" />
    <glyph glyph-name="Ccedillasmall" unicode="&#xf7e7;" horiz-adv-x="1042" 
d="M1001 100q-33 -35 -134 -79t-242 -44h-15l-12 -79q16 8 47 8q78 0 127 -48t49 -124q0 -85 -60.5 -135t-139.5 -50q-53 0 -93.5 14.5t-58.5 30.5l37 78q43 -26 102 -26q55 0 78 26t23 58q0 35 -24 57.5t-62 22.5q-46 0 -84 -27l-58 35l31 170q-186 35 -301 176t-115 358
q0 173 75 302.5t198.5 195t275.5 65.5q70 0 134 -13t106.5 -33t68 -36t37.5 -28l-76 -121q-36 22 -58 34t-82 29t-122 17q-161 0 -265.5 -108t-104.5 -291q0 -187 95 -295.5t263 -108.5q25 0 50 2.5t47 7.5t41.5 10t38 12.5t32.5 13.5t28.5 14t21.5 12t16 10l10 6z" />
    <glyph glyph-name="Egravesmall" unicode="&#xf7e8;" horiz-adv-x="905" 
d="M803 0h-653v1065h638v-143h-462v-297h436v-142h-436v-336h477v-147zM715 1247l-56 -102l-450 174l72 147z" />
    <glyph glyph-name="Eacutesmall" unicode="&#xf7e9;" horiz-adv-x="905" 
d="M803 0h-653v1065h638v-143h-462v-297h436v-142h-436v-336h477v-147zM713 1319l-451 -174l-55 102l434 219z" />
    <glyph glyph-name="Ecircumflexsmall" unicode="&#xf7ea;" horiz-adv-x="905" 
d="M821 0h-653v1065h639v-143h-463v-297h436v-142h-436v-336h477v-147zM799 1241l-68 -96l-256 143l-258 -143l-67 100l325 221z" />
    <glyph glyph-name="Edieresissmall" unicode="&#xf7eb;" horiz-adv-x="905" 
d="M803 0h-653v1065h638v-143h-462v-297h436v-142h-436v-336h477v-147zM737 1300q0 -46 -32 -77t-78 -31t-77.5 31t-31.5 77t31.5 77.5t77.5 31.5t78 -31.5t32 -77.5zM397 1300q0 -46 -32 -77t-78 -31t-77.5 31t-31.5 77t31.5 77.5t77.5 31.5t78 -31.5t32 -77.5z" />
    <glyph glyph-name="Igravesmall" unicode="&#xf7ec;" horiz-adv-x="477" 
d="M340 0h-178v1065h178v-1065zM492 1247l-56 -102l-450 174l71 147z" />
    <glyph glyph-name="Iacutesmall" unicode="&#xf7ed;" horiz-adv-x="477" 
d="M340 0h-178v1065h178v-1065zM492 1319l-451 -174l-55 102l434 219z" />
    <glyph glyph-name="Icircumflexsmall" unicode="&#xf7ee;" horiz-adv-x="477" 
d="M340 0h-178v1065h178v-1065zM563 1241l-67 -96l-256 143l-258 -143l-68 100l326 221z" />
    <glyph glyph-name="Idieresissmall" unicode="&#xf7ef;" horiz-adv-x="477" 
d="M340 0h-178v1065h178v-1065zM518 1300q0 -46 -32 -77t-78 -31t-77.5 31t-31.5 77t31.5 77.5t77.5 31.5t78 -31.5t32 -77.5zM178 1300q0 -46 -32 -77t-78 -31t-77.5 31t-31.5 77t31.5 77.5t77.5 31.5t78 -31.5t32 -77.5z" />
    <glyph glyph-name="Ethsmall" unicode="&#xf7f0;" horiz-adv-x="1263" 
d="M1174 541q0 -119 -43.5 -222t-122.5 -176q-52 -49 -111 -79t-131 -43.5t-131 -17t-152 -3.5h-260v485h-164v136h164v444h262q77 0 125 -1.5t110.5 -9t106.5 -21.5t92 -39.5t89 -63.5q78 -72 122 -173.5t44 -215.5zM989 543q0 172 -96 268q-62 62 -142 87.5t-249 25.5h-99
v-303h314v-136h-314v-342h119q129 0 214.5 20t150.5 85q102 102 102 295z" />
    <glyph glyph-name="Ntildesmall" unicode="&#xf7f1;" horiz-adv-x="1122" 
d="M985 0h-170l-504 788l4 -788h-165v1065h169l504 -791l-4 791h166v-1065zM879 1284q-44 -44 -102.5 -77t-119.5 -33q-43 0 -114.5 25.5t-108.5 25.5q-49 0 -137 -58l-80 101q36 31 63 50.5t70.5 37.5t85.5 18q43 0 115 -25.5t108 -25.5q68 0 142 61z" />
    <glyph glyph-name="Ogravesmall" unicode="&#xf7f2;" horiz-adv-x="1247" 
d="M1151 539q0 -248 -147 -403.5t-383 -155.5q-229 0 -377 154.5t-148 395.5q0 246 148.5 400.5t384.5 154.5q232 0 377 -152t145 -394zM967 543q0 178 -97.5 286.5t-251.5 108.5q-153 0 -245 -109t-92 -294q0 -181 98 -293.5t248 -112.5q163 0 251.5 114t88.5 300z
M885 1247l-56 -102l-450 174l72 147z" />
    <glyph glyph-name="Oacutesmall" unicode="&#xf7f3;" horiz-adv-x="1247" 
d="M1151 539q0 -248 -147 -403.5t-383 -155.5q-229 0 -377 154.5t-148 395.5q0 246 148.5 400.5t384.5 154.5q232 0 377 -152t145 -394zM967 543q0 178 -97.5 286.5t-251.5 108.5q-153 0 -245 -109t-92 -294q0 -181 98 -293.5t248 -112.5q163 0 251.5 114t88.5 300z
M866 1319l-450 -174l-56 102l435 219z" />
    <glyph glyph-name="Ocircumflexsmall" unicode="&#xf7f4;" horiz-adv-x="1247" 
d="M1151 539q0 -248 -147 -403.5t-383 -155.5q-229 0 -377 154.5t-148 395.5q0 246 148.5 400.5t384.5 154.5q232 0 377 -152t145 -394zM967 543q0 178 -97.5 286.5t-251.5 108.5q-153 0 -245 -109t-92 -294q0 -181 98 -293.5t248 -112.5q163 0 251.5 114t88.5 300z
M942 1241l-68 -96l-256 143l-258 -143l-67 100l325 221z" />
    <glyph glyph-name="Otildesmall" unicode="&#xf7f5;" horiz-adv-x="1247" 
d="M1151 539q0 -248 -147 -403.5t-383 -155.5q-229 0 -377 154.5t-148 395.5q0 246 148.5 400.5t384.5 154.5q232 0 377 -152t145 -394zM967 543q0 178 -97.5 286.5t-251.5 108.5q-153 0 -245 -109t-92 -294q0 -181 98 -293.5t248 -112.5q163 0 251.5 114t88.5 300z
M954 1284q-110 -110 -221 -110q-43 0 -114.5 25.5t-108.5 25.5q-49 0 -137 -58l-80 101q36 31 63 50.5t70.5 37.5t85.5 18q43 0 115 -25.5t108 -25.5q68 0 142 61z" />
    <glyph glyph-name="Odieresissmall" unicode="&#xf7f6;" horiz-adv-x="1247" 
d="M1151 539q0 -248 -147 -403.5t-383 -155.5q-229 0 -377 154.5t-148 395.5q0 246 148.5 400.5t384.5 154.5q232 0 377 -152t145 -394zM967 543q0 178 -97.5 286.5t-251.5 108.5q-153 0 -245 -109t-92 -294q0 -181 98 -293.5t248 -112.5q163 0 251.5 114t88.5 300z
M905 1300q0 -46 -32 -77t-78 -31t-77.5 31t-31.5 77t31.5 77.5t77.5 31.5t78 -31.5t32 -77.5zM565 1300q0 -46 -32 -77t-78 -31t-77.5 31t-31.5 77t31.5 77.5t77.5 31.5t78 -31.5t32 -77.5z" />
    <glyph glyph-name="Oslashsmall" unicode="&#xf7f8;" horiz-adv-x="1247" 
d="M1151 539q0 -248 -147 -403.5t-383 -155.5q-108 0 -218 43l-88 -144l-118 70l88 147q-90 74 -139.5 186.5t-49.5 247.5q0 246 148.5 400.5t384.5 154.5q126 0 225 -45l84 140l121 -72l-86 -143q178 -158 178 -426zM967 543q0 164 -84 272l-400 -655q22 -13 66.5 -22
t77.5 -9q163 0 251.5 114t88.5 300zM774 905q-17 11 -60 22t-96 11q-153 0 -245 -109t-92 -294q0 -58 10 -109.5t26.5 -87t30 -56.5t27.5 -36z" />
    <glyph glyph-name="Ugravesmall" unicode="&#xf7f9;" horiz-adv-x="1110" 
d="M975 498q0 -171 -19 -257t-82 -149q-112 -112 -319 -112q-209 0 -319 110q-37 37 -59 73.5t-30.5 84t-10 74.5t-1.5 92v651h180v-666q0 -49 2 -77.5t16 -66.5t42 -65q64 -61 186 -61q110 0 170 57q39 38 51.5 81.5t14.5 109.5v117v571h178v-567zM809 1247l-55 -102
l-451 174l72 147z" />
    <glyph glyph-name="Uacutesmall" unicode="&#xf7fa;" horiz-adv-x="1110" 
d="M975 498q0 -171 -19 -257t-82 -149q-112 -112 -319 -112q-209 0 -319 110q-37 37 -59 73.5t-30.5 84t-10 74.5t-1.5 92v651h180v-666q0 -49 2 -77.5t16 -66.5t42 -65q64 -61 186 -61q110 0 170 57q39 38 51.5 81.5t14.5 109.5v117v571h178v-567zM817 1319l-450 -174
l-56 102l434 219z" />
    <glyph glyph-name="Ucircumflexsmall" unicode="&#xf7fb;" horiz-adv-x="1110" 
d="M975 498q0 -171 -19 -257t-82 -149q-112 -112 -319 -112q-209 0 -319 110q-37 37 -59 73.5t-30.5 84t-10 74.5t-1.5 92v651h180v-666q0 -49 2 -77.5t16 -66.5t42 -65q64 -61 186 -61q110 0 170 57q39 38 51.5 81.5t14.5 109.5v117v571h178v-567zM883 1241l-68 -96
l-256 143l-258 -143l-68 100l326 221z" />
    <glyph glyph-name="Udieresissmall" unicode="&#xf7fc;" horiz-adv-x="1110" 
d="M975 498q0 -171 -19 -257t-82 -149q-112 -112 -319 -112q-209 0 -319 110q-37 37 -59 73.5t-30.5 84t-10 74.5t-1.5 92v651h180v-666q0 -49 2 -77.5t16 -66.5t42 -65q64 -61 186 -61q110 0 170 57q39 38 51.5 81.5t14.5 109.5v117v571h178v-567zM840 1300
q0 -45 -32.5 -76.5t-78.5 -31.5t-77 31t-31 77t31 77.5t77 31.5t78.5 -31.5t32.5 -77.5zM500 1300q0 -45 -32.5 -76.5t-78.5 -31.5t-77 31t-31 77t31 77.5t77 31.5t78.5 -31.5t32.5 -77.5z" />
    <glyph glyph-name="Yacutesmall" unicode="&#xf7fd;" horiz-adv-x="991" 
d="M948 1065l-364 -641v-424h-178v424l-363 641h190l271 -494l270 494h174zM752 1319l-451 -174l-55 102l434 219z" />
    <glyph glyph-name="Thornsmall" unicode="&#xf7fe;" horiz-adv-x="966" 
d="M874 549q0 -149 -96 -238q-19 -17 -38 -31t-43 -24t-40.5 -17t-46.5 -11.5t-42.5 -7.5t-48 -4t-44.5 -1h-50h-46h-64v-215h-178v1065h178v-197h115q125 0 205.5 -16t140.5 -72q98 -91 98 -231zM696 547q0 85 -57 139q-7 7 -17 12.5t-19 10t-22.5 7.5t-22.5 5.5t-25.5 4
t-24 2t-25 1t-22.5 0.5h-23h-20h-103v-375h58q5 0 41 -0.5t50 0t46 3t50.5 7.5t41 15t37.5 24q57 54 57 144z" />
    <glyph glyph-name="Ydieresissmall" unicode="&#xf7ff;" horiz-adv-x="991" 
d="M948 1065l-364 -641v-424h-178v424l-363 641h190l271 -494l270 494h174zM768 1300q0 -45 -32.5 -76.5t-78.5 -31.5t-77 31t-31 77t31 77.5t77 31.5t78.5 -31.5t32.5 -77.5zM428 1300q0 -45 -32.5 -76.5t-78.5 -31.5t-77 31t-31 77t31 77.5t77 31.5t78.5 -31.5t32.5 -77.5
z" />
    <glyph glyph-name="Foundry" unicode="&#xf8ff;" horiz-adv-x="1855" 
d="M1759 795q0 -135 -41 -261t-117.5 -227t-178 -177t-229 -117.5t-265.5 -41.5q-114 0 -222.5 29.5t-200 83t-168 129.5t-129.5 166t-82.5 197t-29.5 219q0 169 65.5 322t176.5 263t265 175t325 65q229 0 420.5 -110.5t301 -300t109.5 -414.5zM1599 795q0 135 -53 258.5
t-143 213.5t-214.5 143.5t-260.5 53.5q-180 0 -335 -90t-246 -244t-91 -333q0 -101 28 -192.5t74.5 -161.5t109 -127t128.5 -94.5t135 -59.5v459h-160v135h160v112q0 93 18 163t72 124q80 80 219 80q59 0 113.5 -17t77.5 -31t31 -22l-64 -108q-65 39 -137 39q-81 0 -121 -43
q-22 -23 -32.5 -60.5t-11.5 -58.5t-1 -64v-114h291v-135h-291v-488q16 -4 33 -4q137 0 261 53t214 142.5t143 212.5t53 258z" />
    <glyph glyph-name="Ring" unicode="&#xfff3;" horiz-adv-x="804" 
d="M612 1675q0 -86 -61.5 -147.5t-147.5 -61.5t-147 61.5t-61 147.5q0 87 61 147t147 60q87 0 148 -61t61 -146zM512 1675q0 45 -32 77t-77 32q-44 0 -76 -32.5t-32 -76.5t32 -76t76 -32q45 0 77 31.5t32 76.5z" />
    <glyph glyph-name="CR" horiz-adv-x="1048" 
 />
    <glyph glyph-name="dotlessismall" horiz-adv-x="477" 
d="M328 0h-178v1065h178v-1065z" />
    <glyph glyph-name="germandblssmall" horiz-adv-x="1718" 
d="M799 301q0 -141 -99.5 -232.5t-271.5 -91.5q-123 0 -225.5 47t-128.5 80l86 117q135 -94 262 -94q94 0 144 45.5t50 112.5q0 38 -21.5 69.5t-57 53.5t-80.5 45.5t-92.5 44t-92.5 49t-80.5 60.5t-57 79.5t-21.5 104.5q0 132 98 214t254 82q72 0 135 -15t103 -38t61 -39.5
t33 -29.5l-90 -111q-113 84 -232 84q-86 0 -135 -37t-49 -98q0 -37 26.5 -67.5t53.5 -45.5t99 -50l30 -15q35 -17 54.5 -27t55.5 -31t58 -38t49.5 -43.5t43.5 -52.5t27 -60.5t11 -71.5zM1614 301q0 -141 -99.5 -232.5t-271.5 -91.5q-123 0 -225.5 47t-128.5 80l86 117
q135 -94 262 -94q94 0 144.5 45.5t50.5 112.5q0 43 -28 77.5t-72 59.5t-98 49.5t-108 53t-98 63t-72 86.5t-28 117q0 132 98 214t254 82q72 0 135 -15t103 -38t61 -39.5t33 -29.5l-90 -111q-113 84 -232 84q-86 0 -135 -37t-49 -98q0 -37 26.5 -67.5t53.5 -45.5t99 -50
l30 -15q35 -17 54.5 -27t55.5 -31t58 -38t49.5 -43.5t43.5 -52.5t27 -60.5t11 -71.5z" />
    <glyph glyph-name="germandbls.small" horiz-adv-x="1718" 
d="M799 301q0 -141 -99.5 -232.5t-271.5 -91.5q-123 0 -225.5 47t-128.5 80l86 117q135 -94 262 -94q94 0 144 45.5t50 112.5q0 38 -21.5 69.5t-57 53.5t-80.5 45.5t-92.5 44t-92.5 49t-80.5 60.5t-57 79.5t-21.5 104.5q0 132 98 214t254 82q72 0 135 -15t103 -38t61 -39.5
t33 -29.5l-90 -111q-113 84 -232 84q-86 0 -135 -37t-49 -98q0 -37 26.5 -67.5t53.5 -45.5t99 -50l30 -15q35 -17 54.5 -27t55.5 -31t58 -38t49.5 -43.5t43.5 -52.5t27 -60.5t11 -71.5zM1614 301q0 -141 -99.5 -232.5t-271.5 -91.5q-123 0 -225.5 47t-128.5 80l86 117
q135 -94 262 -94q94 0 144.5 45.5t50.5 112.5q0 43 -28 77.5t-72 59.5t-98 49.5t-108 53t-98 63t-72 86.5t-28 117q0 132 98 214t254 82q72 0 135 -15t103 -38t61 -39.5t33 -29.5l-90 -111q-113 84 -232 84q-86 0 -135 -37t-49 -98q0 -37 26.5 -67.5t53.5 -45.5t99 -50
l30 -15q35 -17 54.5 -27t55.5 -31t58 -38t49.5 -43.5t43.5 -52.5t27 -60.5t11 -71.5z" />
    <glyph glyph-name="commaaccent" horiz-adv-x="473" 
d="M397 -139q0 -247 -209 -436q-2 -2 -3.5 -3t-2.5 -2l-106 91q2 2 6 7q22 25 36.5 46t38.5 65t37 103.5t13 128.5h190z" />
    <glyph glyph-name="Commaaccent" horiz-adv-x="473" 
d="M397 -139q0 -247 -209 -436q-2 -2 -3.5 -3t-2.5 -2l-106 91q2 2 6 7q22 25 36.5 46t38.5 65t37 103.5t13 128.5h190z" />
    <glyph glyph-name="dollar.fitted" 
d="M1073 387q0 -153 -94.5 -259.5t-263.5 -133.5v-203h-150v197q-231 12 -389 143l90 125l19 -12q19 -13 34.5 -22.5t45.5 -24.5t58.5 -25.5t66.5 -19.5t75 -11v508q-94 43 -154.5 77t-101.5 75q-94 94 -94 217q0 139 95.5 235t254.5 119v180h150v-176q202 -15 342 -135
l-92 -113q-117 88 -250 101v-445q178 -81 258 -161q100 -100 100 -236zM567 846v377q-78 -21 -124 -71t-46 -122q0 -55 49 -104q37 -37 121 -80zM883 375q0 75 -66 141q-42 42 -104 72v-436q81 24 125.5 85t44.5 138z" />
    <glyph glyph-name="cent.fitted" 
d="M1047 109q-8 -8 -37.5 -26.5t-97 -44.5t-138.5 -34v-213h-149v211q-187 23 -299.5 157.5t-112.5 340.5q0 210 114 355.5t298 174.5v203h149v-197q69 -8 132 -33t91 -43.5t35 -27.5l-74 -113q-91 57 -184 70v-735q116 16 201 73zM625 160v717q-107 -32 -171.5 -132.5
t-64.5 -228.5q0 -137 63.5 -232t172.5 -124z" />
    <glyph glyph-name="sterling.fitted" 
d="M1139 1255l-86 -108l-13 10q-14 10 -24 16.5t-29.5 18t-39 19t-44.5 16t-54.5 12.5t-60.5 4q-134 0 -209 -84t-75 -241q0 -86 14 -195h397v-148h-383q7 -56 7 -100q0 -236 -113 -319h688v-156h-948v137q101 31 147.5 98t46.5 205q0 66 -6 135h-184v148h170
q-16 136 -16 195q0 222 121.5 348.5t332.5 126.5q79 0 148.5 -18t113.5 -45t67 -45t32 -30z" />
    <glyph glyph-name="florin.fitted" horiz-adv-x="1247" 
d="M1198 1337l-49 -131q-88 33 -150 33q-90 0 -132 -55.5t-72 -202.5l-54 -258h306l-31 -148h-307l-121 -600q-36 -176 -63 -245q-29 -74 -66 -111q-88 -88 -228 -88q-127 0 -223 55l53 133q1 0 14.5 -5t25 -9t29 -8.5t37.5 -7t40 -2.5q73 0 112 39q23 23 41 68.5t26 80.5
t26 125l118 575h-260l31 148h262l53 262q32 151 55 207q28 66 68 106q95 95 240 95q107 0 219 -56z" />
    <glyph glyph-name="yen.fitted" 
d="M1139 1366l-367 -641h238v-129h-297v-119h295v-127h-297v-350h-176v350h-299v127h299v119h-302v129h236l-360 641h194l326 -623l332 623h178z" />
    <glyph glyph-name="Eurooldstyle" horiz-adv-x="1148" 
d="M1149 115q-170 -142 -387 -142q-89 0 -165 24t-127.5 62t-92.5 88.5t-65 99.5t-40 99.5t-21.5 84.5t-6.5 58h-142v129h134q-3 40 -3 72q0 8 3 58h-134v129h142q1 18 6.5 49.5t21.5 81.5t39.5 100.5t65 103t93 92.5t128 65.5t166.5 25.5q61 0 120 -13.5t97.5 -30t73 -38.5
t47.5 -33t20 -18l-84 -111q-123 96 -264 96q-64 0 -117.5 -18.5t-89 -47t-63 -67t-42 -73.5t-24.5 -72t-12.5 -57.5t-3.5 -34.5h502v-129h-514q-2 -27 -2 -68q0 -39 2 -62h514v-129h-502q0 -12 2.5 -33t12 -56.5t24 -71t41 -73t61.5 -66t88 -46.5t117 -18q149 0 295 104z
" />
    <glyph glyph-name="dollaroldstyle" horiz-adv-x="987" 
d="M897 387q0 -153 -94.5 -259.5t-263.5 -133.5v-203h-150v197q-231 12 -389 143l90 125l19 -12q19 -13 34.5 -22.5t45.5 -24.5t58.5 -25.5t66.5 -19.5t75 -11v508q-94 43 -154.5 77t-101.5 75q-94 94 -94 217q0 139 95.5 235t254.5 119v180h150v-176q202 -15 342 -135
l-93 -113q-117 88 -249 101v-445q178 -81 258 -161q100 -100 100 -236zM391 846v377q-78 -21 -124 -71t-46 -122q0 -55 49 -104q37 -37 121 -80zM707 375q0 75 -66 141q-42 42 -104 72v-436q81 24 125.5 85t44.5 138z" />
    <glyph glyph-name="centoldstyle" horiz-adv-x="950" 
d="M920 109q-8 -8 -37.5 -26.5t-97 -44.5t-138.5 -34v-213h-149v211q-187 23 -299.5 157.5t-112.5 340.5q0 210 114 355.5t298 174.5v203h149v-197q69 -8 132 -33t91 -43.5t35 -27.5l-74 -113q-91 57 -184 70v-735q116 16 201 73zM498 160v717q-107 -32 -171.5 -132.5
t-64.5 -228.5q0 -137 63.5 -232t172.5 -124z" />
    <glyph glyph-name="sterlingoldstyle" horiz-adv-x="1075" 
d="M1075 1255l-86 -108q-1 0 -13.5 10t-23 16.5t-29.5 18t-39 19t-44.5 16t-54 12.5t-60.5 4q-134 0 -209.5 -84.5t-75.5 -240.5q0 -79 15 -195h397v-148h-383q6 -48 6 -100q0 -236 -113 -319h689v-156h-949v137q101 31 148 98t47 205q0 66 -6 135h-185v148h170
q-16 136 -16 195q0 222 122 348.5t333 126.5q79 0 148.5 -18t113 -45t66.5 -45t32 -30z" />
    <glyph glyph-name="florinoldstyle" horiz-adv-x="944" 
d="M1006 1337l-50 -131q-88 33 -149 33q-90 0 -132.5 -56t-72.5 -202l-53 -258h305l-31 -148h-307l-121 -600q-36 -176 -63 -245q-29 -74 -66 -111q-88 -88 -227 -88q-127 0 -223 55l53 133q2 -1 15 -5.5t24.5 -8.5t29 -8.5t37 -7t39.5 -2.5q74 0 113 39q23 23 41 69.5
t25 78.5t26 126l119 575h-260l31 148h262l53 262q32 151 55 207q28 66 68 106q95 95 239 95q108 0 220 -56z" />
    <glyph glyph-name="yenoldstyle" horiz-adv-x="1030" 
d="M1030 1366l-366 -641h237v-129h-297v-119h295v-127h-297v-350h-176v350h-299v127h299v119h-301v129h235l-360 641h195l325 -623l332 623h178z" />
    </font>
</defs>
</svg>
