<?xml version="1.0" standalone="no"?>
<!DOCTYPE svg PUBLIC "-//W3C//DTD SVG 1.1//EN" "http://www.w3.org/Graphics/SVG/1.1/DTD/svg11.dtd" >
<svg xmlns="http://www.w3.org/2000/svg" xmlns:xlink="http://www.w3.org/1999/xlink" version="1.1">
<metadata>
Created by FontForge 20170731 at Mon Jun  6 18:18:48 2022
 By Aleksey,,,
Copyright (c) The digitally encoded machine readable outline data for producing the typefaces licensed to you is copyrighted (c), 2009 by The Foundry, London. All rights reserved.
</metadata>
<defs>
<font id="FoundrySterling-Light" horiz-adv-x="1187" >
  <font-face 
    font-family="Foundry Sterling Light"
    font-weight="300"
    font-stretch="normal"
    units-per-em="2048"
    panose-1="2 0 5 0 4 0 0 2 0 4"
    ascent="1638"
    descent="-410"
    x-height="977"
    cap-height="1366"
    bbox="-563 -496 2361 1872"
    underline-thickness="102"
    underline-position="-307"
    unicode-range="U+0020-FFF3"
  />
<missing-glyph horiz-adv-x="1097" 
d="M918 1366v-1614h-738v1614h738zM268 1288v-1458h561v1458h-561z" />
    <glyph glyph-name="IJ" unicode="IJ" horiz-adv-x="1153" 
d="M268 0h-88v1366h88v-1366zM989 395v-22q0 -58 -1.5 -89.5t-8 -79t-24.5 -83.5t-48 -66q-78 -78 -192 -78q-138 0 -246 72l39 70q1 0 14 -8.5t29 -16.5t38 -17t51 -14.5t58 -5.5q93 0 142 49q27 27 41.5 68t17 71.5t2.5 78.5v1042h88v-971z" />
    <glyph glyph-name="ij" unicode="ij" horiz-adv-x="755" 
d="M252 1323q0 -26 -18 -44.5t-44 -18.5t-44.5 18.5t-18.5 44.5t18.5 43.5t44.5 17.5t44 -17.5t18 -43.5zM231 0h-84v977h84v-977zM629 1321q0 -26 -18 -43.5t-44 -17.5t-44.5 17.5t-18.5 43.5t18.5 43.5t44.5 17.5t44 -17.5t18 -43.5zM608 -131q0 -100 -16 -158.5
t-57 -99.5q-31 -31 -79 -51.5t-104 -20.5q-60 0 -129 23l21 69q48 -18 96 -18q52 0 80.5 11.5t56.5 39.5q47 47 47 191v1122h84v-1108z" />
    <glyph glyph-name="f_j" unicode="fj" horiz-adv-x="976" 
d="M829 -131q0 -100 -16 -158.5t-57 -99.5q-31 -31 -79 -51.5t-104 -20.5q-60 0 -129 23l21 69q48 -18 96 -18q52 0 80.5 11.5t56.5 39.5q47 47 47 191v1050h-432v-905h-84v905h-178v72h178v203q0 161 84 245q34 34 87 53t110 19q66 0 115.5 -17t68.5 -34l-35 -66
q-68 39 -145 39q-90 0 -139 -49q-29 -29 -44 -73t-16.5 -69.5t-1.5 -66.5v-184h516v-1108z" />
    <glyph glyph-name="IJsmall" unicode="&#xf769;&#xf76a;" horiz-adv-x="993" 
d="M246 0h-86v1053h86v-1053zM850 315q0 -115 -10 -170.5t-52 -97.5q-65 -65 -157 -65q-76 0 -130 23t-75 44l39 66l9 -6q8 -6 16.5 -11t24 -12t30.5 -12.5t36.5 -9t43.5 -3.5q63 0 98 35q10 10 17 20.5t11.5 25.5t7.5 24t4 28.5t1 25v28.5v26v779h86v-738z" />
    <glyph glyph-name="f_f" unicode="ff" horiz-adv-x="1196" 
d="M1202 1446l-35 -66q-68 39 -145 39q-90 0 -139 -49q-29 -29 -44 -73t-16.5 -69.5t-1.5 -66.5v-184h318v-72h-318v-905h-84v905h-424v-905h-84v905h-178v72h178v203q0 161 84 245q72 72 197 72q86 0 156 -35l-33 -69q-52 26 -119 26q-90 0 -139 -49q-29 -29 -44 -73
t-16.5 -69.5t-1.5 -66.5v-184h424v203q0 161 84 245q34 34 87 53t110 19q66 0 115.5 -17t68.5 -34z" />
    <glyph glyph-name="fi" unicode="fi" horiz-adv-x="976" 
d="M829 0h-84v905h-432v-905h-84v905h-178v72h178v203q0 161 84 245q72 72 197 72q66 0 115.5 -17t68.5 -34l-35 -66q-68 39 -145 39q-90 0 -139 -49q-29 -29 -44 -73t-16.5 -69.5t-1.5 -66.5v-184h516v-977z" />
    <glyph glyph-name="fl" unicode="fl" horiz-adv-x="976" 
d="M829 0h-84v905h-432v-905h-84v905h-178v72h178v203q0 161 84 245q72 72 197 72q86 0 156 -35l-33 -69q-52 26 -119 26q-90 0 -139 -49q-29 -29 -44 -73t-16.5 -69.5t-1.5 -66.5v-184h432v496h84v-1473z" />
    <glyph glyph-name="f_f_i" unicode="ffi" horiz-adv-x="1492" 
d="M1346 0h-84v905h-433v-905h-84v905h-432v-905h-84v905h-178v72h178v203q0 161 84 245q72 72 197 72q86 0 156 -35l-33 -69q-52 26 -119 26q-90 0 -139 -49q-29 -29 -44 -73t-16.5 -69.5t-1.5 -66.5v-184h432v203q0 161 84 245q34 34 87 53t110 19q66 0 115.5 -17
t68.5 -34l-34 -66q-68 39 -146 39q-90 0 -139 -49q-29 -29 -44 -73t-16.5 -69.5t-1.5 -66.5v-184h517v-977z" />
    <glyph glyph-name="f_f_l" unicode="ffl" horiz-adv-x="1492" 
d="M1346 0h-84v905h-433v-905h-84v905h-432v-905h-84v905h-178v72h178v203q0 161 84 245q72 72 197 72q86 0 156 -35l-33 -69q-52 26 -119 26q-90 0 -139 -49q-29 -29 -44 -73t-16.5 -69.5t-1.5 -66.5v-184h432v203q0 161 84 245q72 72 197 72q86 0 156 -35l-33 -69
q-52 26 -119 26q-90 0 -139 -49q-29 -29 -44 -73t-16.5 -69.5t-1.5 -66.5v-184h433v496h84v-1473z" />
    <glyph glyph-name="f_t" unicode="ft" horiz-adv-x="1243" 
d="M1153 20q-1 -1 -9.5 -5t-15.5 -6.5t-19 -7.5t-25.5 -8t-30 -6.5t-36.5 -5t-42 -1.5q-124 0 -187 63q-12 12 -21 26.5t-14.5 35.5t-9 34.5t-5 42t-2 39t0 44.5t0.5 40v600h-424v-905h-84v905h-178v72h178v203q0 161 84 245q72 72 197 72q66 0 115.5 -17t68.5 -34l-35 -66
q-68 39 -145 39q-90 0 -139 -49q-29 -29 -44 -73t-16.5 -69.5t-1.5 -66.5v-184h424v278h84v-278h322v-72h-322v-596q0 -119 9 -155q18 -74 92 -91q26 -6 61 -6q18 0 36 2t31 4.5t27 7t21.5 7t17 6.5t10.5 4z" />
    <glyph glyph-name=".notdef" horiz-adv-x="1097" 
d="M918 1366v-1614h-738v1614h738zM268 1288v-1458h561v1458h-561z" />
    <glyph glyph-name=".notdef" horiz-adv-x="1097" 
d="M918 1366v-1614h-738v1614h738zM268 1288v-1458h561v1458h-561z" />
    <glyph glyph-name=".null" horiz-adv-x="0" 
 />
    <glyph glyph-name="nonmarkingreturn" horiz-adv-x="682" 
 />
    <glyph glyph-name="space" unicode=" " horiz-adv-x="495" 
 />
    <glyph glyph-name="exclam" unicode="!" horiz-adv-x="557" 
d="M336 1366l-19 -1057h-79l-19 1057h117zM348 53q0 -29 -20 -49t-49 -20t-49.5 20t-20.5 49t20.5 50.5t49.5 21.5t49 -21t20 -51z" />
    <glyph glyph-name="quotedbl" unicode="&#x22;" horiz-adv-x="550" 
d="M434 1366l-6 -457h-82l-6 457h94zM211 1366l-6 -457h-82l-6 457h94z" />
    <glyph glyph-name="numbersign" unicode="#" horiz-adv-x="1142" 
d="M995 1047l-10 -78h-197l-38 -275h196l-10 -78h-197l-49 -337h-82l49 337h-237l-49 -337h-82l49 337h-191l11 78h188l41 275h-190l10 78h188l45 319h82l-45 -319h240l45 319h82l-45 -319h196zM707 969h-238l-41 -275h240z" />
    <glyph glyph-name="dollar" unicode="$" 
d="M989 373q0 -155 -94 -259.5t-268 -119.5v-187h-78v183q-34 1 -67.5 4.5t-61 9.5t-54 14.5t-47.5 17t-41.5 19t-34.5 19t-28 18.5t-21.5 15.5t-15 12.5t-8.5 7l51 68q1 -1 12 -8.5t22 -15.5t30.5 -19.5t39.5 -21.5t47 -21t53.5 -18.5t59 -13t64.5 -5.5v612q-70 30 -99 43
t-78.5 42.5t-82.5 61.5q-84 81 -84 213t94 223.5t250 104.5v139h78v-137q217 -8 340 -135l4 -4l-56 -55l-7 6q-8 7 -13 11.5t-16 13.5t-21 16t-26 16t-31 15.5t-35.5 14t-41 12.5t-46 8.5t-51.5 4.5v-548q179 -69 258 -142q104 -97 104 -235zM549 778v516q-116 -15 -187 -85
t-71 -169q0 -84 63 -147q16 -16 34.5 -30t33 -23.5t35.5 -20.5t31.5 -15.5t33 -14t27.5 -11.5zM893 367q0 97 -80 174q-62 57 -186 112v-579q130 20 198 97.5t68 195.5z" />
    <glyph glyph-name="percent" unicode="%" horiz-adv-x="1476" 
d="M668 1028q0 -170 -76 -265t-215 -95q-132 0 -208.5 88.5t-76.5 242.5q0 179 76.5 277t218.5 98q130 0 205.5 -93.5t75.5 -252.5zM578 1030q0 127 -49.5 201t-141.5 74q-100 0 -152.5 -78.5t-52.5 -220.5q0 -126 50 -197.5t145 -71.5t148 74t53 219zM1251 1380l-983 -1448
l-67 43l983 1455zM1384 352q0 -170 -75.5 -265t-214.5 -95q-132 0 -208.5 89t-76.5 243q0 179 76.5 276.5t218.5 97.5q130 0 205 -93.5t75 -252.5zM1294 354q0 127 -49 201t-141 74q-100 0 -152.5 -78.5t-52.5 -220.5q0 -126 50 -197.5t145 -71.5q94 0 147 74t53 219z" />
    <glyph glyph-name="ampersand" unicode="&#x26;" horiz-adv-x="1349" 
d="M1247 0q-119 0 -188 37t-139 119q-178 -181 -406 -181q-171 0 -284 113t-113 281q0 83 31.5 156t76.5 118q68 68 189 127q-84 111 -111 159q-49 88 -49 167q0 128 92 211.5t234 83.5q136 0 218.5 -74t82.5 -193q0 -34 -7 -66t-16.5 -57.5t-28 -50.5t-33.5 -43t-41 -38.5
t-42.5 -32.5t-46 -28.5t-43 -23.5t-42.5 -21t-36 -18l377 -454q13 17 29.5 44.5t43 84t44 139.5t18.5 174h88q0 -157 -52 -300t-112 -212q78 -92 133.5 -118.5t132.5 -28.5v-74zM788 1114q0 90 -58.5 145.5t-151.5 55.5q-99 0 -165.5 -61.5t-66.5 -155.5q0 -59 32 -120
t120 -173q156 71 223 138.5t67 170.5zM862 219l-401 490q-252 -120 -252 -334q0 -134 92 -223t229 -89q182 0 332 156z" />
    <glyph glyph-name="quotesingle" unicode="'" horiz-adv-x="327" 
d="M211 1366l-6 -457h-82l-6 457h94z" />
    <glyph glyph-name="parenleft" unicode="(" horiz-adv-x="724" 
d="M618 1436q-92 -74 -159 -158.5t-105 -163.5t-60.5 -172.5t-29 -170.5t-6.5 -173q0 -120 14.5 -219.5t51 -205.5t108.5 -205.5t178 -190.5l-51 -60q-101 72 -175 162t-116.5 176.5t-68 188.5t-33.5 185.5t-8 180.5q0 93 10 181t38 190t72 190.5t118.5 175t172.5 150.5z
" />
    <glyph glyph-name="parenright" unicode=")" horiz-adv-x="724" 
d="M567 610q0 -97 -8 -180.5t-33.5 -185.5t-68 -188.5t-116.5 -176.5t-175 -162l-51 60q106 91 178 190.5t108.5 205.5t51 205.5t14.5 219.5q0 79 -5 144.5t-18 142t-39 145t-64.5 139t-98 138t-136.5 129.5l50 61q98 -64 172.5 -150.5t118.5 -175t72 -190.5t38 -190
t10 -181z" />
    <glyph glyph-name="asterisk" unicode="*" horiz-adv-x="917" 
d="M801 1128l-281 -86l180 -241l-75 -51l-166 256l-166 -256l-76 51l180 241l-280 86l26 82l271 -108v264h90v-264l268 108z" />
    <glyph glyph-name="plus" unicode="+" 
d="M1030 475h-397v-397h-78v397h-397v78h397v397h78v-397h397v-78z" />
    <glyph glyph-name="comma" unicode="," horiz-adv-x="446" 
d="M299 111q0 -212 -149 -361l-64 45q29 29 63.5 113.5t34.5 193.5v23h115v-14z" />
    <glyph glyph-name="hyphen" unicode="-" horiz-adv-x="995" 
d="M817 475h-639v78h639v-78z" />
    <glyph glyph-name="period" unicode="." horiz-adv-x="409" 
d="M276 55q0 -29 -21 -50t-50 -21t-50.5 21t-21.5 50t21.5 50.5t50.5 21.5t50 -21.5t21 -50.5z" />
    <glyph glyph-name="slash" unicode="/" horiz-adv-x="856" 
d="M776 1366l-618 -1645l-78 31l618 1645z" />
    <glyph glyph-name="zero" unicode="0" 
d="M1079 682q0 -334 -126.5 -519.5t-360.5 -185.5q-237 0 -360 186t-123 529q0 327 124.5 513t352.5 186q239 0 366 -186t127 -523zM983 682q0 302 -98 466.5t-291 164.5q-199 0 -294 -161t-95 -480q0 -294 98.5 -455.5t288.5 -161.5q194 0 292.5 162.5t98.5 464.5z" />
    <glyph glyph-name="one" unicode="1" 
d="M694 0h-86v1262l-348 -236l-51 68l407 272h78v-1366z" />
    <glyph glyph-name="two" unicode="2" 
d="M983 0h-795v82q130 127 230 227q132 132 212 220.5t140 173t84.5 154t24.5 142.5q0 149 -81 228.5t-229 79.5q-50 0 -100.5 -12t-86.5 -28.5t-67 -35.5t-45 -30t-18 -15l-53 57q4 6 22 21.5t54 37.5t79.5 41.5t105 33.5t124.5 14q183 0 287 -101t104 -278
q0 -51 -13 -103.5t-32 -97.5t-54.5 -98.5t-65 -92.5t-79.5 -93.5t-83 -88.5t-89 -90l-266 -266h690v-82z" />
    <glyph glyph-name="three" unicode="3" 
d="M973 371q0 -181 -125 -287.5t-309 -106.5q-247 0 -387 140l53 59l7 -7q8 -7 21.5 -17t32.5 -22t45 -24t56.5 -22.5t70 -16.5t80.5 -6q163 0 263 79.5t100 219.5q0 121 -84 205q-54 54 -132.5 75.5t-228.5 21.5h-30v81h36q124 0 205.5 19.5t145.5 83.5q71 71 71 186
q0 123 -84.5 199t-228.5 76q-179 0 -317 -124l-3 -3l-55 57q3 6 20 21.5t51.5 38.5t77 43.5t104 35.5t124.5 15q187 0 294 -99t107 -260q0 -125 -75 -220t-207 -112q137 -10 219 -102.5t82 -226.5z" />
    <glyph glyph-name="four" unicode="4" 
d="M1055 350h-193v-350h-86v350h-657v78l653 938h90v-938h193v-78zM776 428v799l-561 -799h561z" />
    <glyph glyph-name="five" unicode="5" 
d="M993 422q0 -202 -126 -323.5t-320 -121.5q-69 0 -131.5 12.5t-102 29.5t-72 37.5t-45.5 32t-18 17.5l47 64q4 -4 17 -14t43 -27t64.5 -31.5t84 -25.5t98.5 -11q170 0 269.5 95.5t99.5 259.5q0 96 -38 174.5t-121.5 129t-200.5 50.5q-146 0 -254 -72l-56 35v633h707v-80
h-619v-487q10 7 32.5 18.5t80 26t119.5 14.5q211 0 326.5 -120.5t115.5 -315.5z" />
    <glyph glyph-name="six" unicode="6" 
d="M1049 440q0 -197 -119 -330t-309 -133q-110 0 -194.5 43t-133.5 109t-80.5 157.5t-42 175t-10.5 175.5q0 76 5.5 145.5t20.5 147t38.5 142.5t62.5 125t90 102t123 67t159 25q63 0 121.5 -12.5t97 -30t69.5 -37.5t45 -33.5t18 -20.5l-54 -59q-1 1 -12 10t-19.5 15.5
t-25.5 18t-32.5 20t-38.5 18.5t-45.5 16t-51 10.5t-57.5 4.5q-75 0 -136.5 -22t-105.5 -59.5t-78 -91.5t-54.5 -113t-33 -129.5t-17 -136.5t-3.5 -138q0 -30 1 -40.5t1 -19.5q15 98 73.5 169.5t142.5 106.5t183 35q191 0 296.5 -120.5t105.5 -311.5zM961 434
q0 159 -81.5 262t-236.5 103q-104 0 -185.5 -54.5t-124 -142.5t-42.5 -192q0 -149 94 -254t242 -105q104 0 182 56t115 141.5t37 185.5z" />
    <glyph glyph-name="seven" unicode="7" 
d="M1040 1294l-571 -1294h-107l584 1282h-780v84h874v-72z" />
    <glyph glyph-name="eight" unicode="8" 
d="M1044 352q0 -169 -121 -272t-319 -103q-212 0 -336.5 99.5t-124.5 269.5q0 101 40 183.5t115 131t171 46.5q-135 23 -212 111.5t-77 215.5q0 158 115 257.5t295 99.5q186 0 301 -95.5t115 -251.5q0 -128 -72.5 -219.5t-204.5 -117.5q152 -12 233.5 -106.5t81.5 -248.5z
M911 1034q0 132 -89 209.5t-226 77.5q-142 0 -232 -77t-90 -208q0 -130 93 -212.5t229 -82.5q137 0 226 81.5t89 211.5zM948 358q0 147 -97 230.5t-257 83.5q-156 0 -255 -85.5t-99 -226.5q0 -150 97.5 -231.5t268.5 -81.5q157 0 249.5 81.5t92.5 229.5z" />
    <glyph glyph-name="nine" unicode="9" 
d="M1028 731q0 -76 -5.5 -145.5t-20.5 -147t-39 -142.5t-63 -125t-90 -102t-123 -67t-159 -25q-63 0 -121.5 12.5t-96.5 30t-69 37.5t-45 33.5t-18 20.5l53 59q1 0 12.5 -9.5t19.5 -16t25.5 -18t33 -20t38.5 -18.5t45.5 -16t51 -10.5t57.5 -4.5q103 0 182 42.5t125 109.5
t74.5 160.5t38 184.5t8.5 194q0 30 -1 40t-1 19q-15 -98 -73.5 -169.5t-142.5 -106.5t-183 -35q-191 0 -296.5 120.5t-105.5 311.5q0 197 119 330t309 133q110 0 194.5 -43t133.5 -109t80.5 -157.5t42 -175t10.5 -175.5zM897 958q0 149 -94 254t-242 105q-104 0 -182 -56
t-115 -141.5t-37 -185.5q0 -159 81.5 -262t236.5 -103q104 0 185.5 54.5t124 142.5t42.5 192z" />
    <glyph glyph-name="colon" unicode=":" horiz-adv-x="409" 
d="M276 934q0 -29 -21 -50.5t-50 -21.5t-50.5 21.5t-21.5 50.5t21.5 50.5t50.5 21.5t50 -21.5t21 -50.5zM276 55q0 -29 -21 -50t-50 -21t-50.5 21t-21.5 50t21.5 50.5t50.5 21.5t50 -21.5t21 -50.5z" />
    <glyph glyph-name="semicolon" unicode=";" horiz-adv-x="446" 
d="M317 934q0 -29 -21 -50.5t-50 -21.5t-50.5 21.5t-21.5 50.5t21.5 50.5t50.5 21.5t50 -21.5t21 -50.5zM299 111q0 -212 -149 -361l-64 45q29 29 63.5 113.5t34.5 193.5v23h115v-14z" />
    <glyph glyph-name="less" unicode="&#x3c;" horiz-adv-x="1196" 
d="M1069 111l-33 -70l-909 446v56l907 446l35 -67l-844 -410z" />
    <glyph glyph-name="equal" unicode="=" 
d="M1065 592h-942v78h942v-78zM1065 358h-942v78h942v-78z" />
    <glyph glyph-name="greater" unicode="&#x3e;" horiz-adv-x="1196" 
d="M1069 487l-909 -446l-33 70l844 401l-844 410l35 67l907 -446v-56z" />
    <glyph glyph-name="question" unicode="?" horiz-adv-x="980" 
d="M829 1018q0 -55 -9.5 -99.5t-30 -77.5t-34 -49.5t-38.5 -41.5q-48 -48 -129.5 -99t-106.5 -76q-32 -32 -38.5 -62.5t-6.5 -135.5v-68h-78q-4 90 -4 121q0 79 7 114t36 64q26 25 114.5 84.5t119.5 91.5q58 58 79 110t21 124q0 127 -82 208t-209 81q-138 0 -278 -93l-45 64
q5 5 20 15.5t48 28t72 32.5t96 26t116 11q164 0 262 -102t98 -271zM467 53q0 -29 -20.5 -49t-49.5 -20t-49 20t-20 49q0 30 20 51t49 21t49.5 -21.5t20.5 -50.5z" />
    <glyph glyph-name="at" unicode="@" horiz-adv-x="1576" 
d="M1475 850q0 -221 -145 -355.5t-380 -134.5q-16 0 -32 2l20 117q-5 -5 -13.5 -13t-35.5 -28.5t-55.5 -36t-70 -28.5t-81.5 -13q-95 0 -154 66.5t-59 175.5q0 186 127.5 313t314.5 127q116 0 199 -36l-109 -576q176 12 283 119q49 49 82 132t33 167q0 202 -152 330.5
t-387 128.5q-143 0 -268 -51.5t-213.5 -141.5t-139.5 -217t-51 -272q0 -256 164 -414t416 -158q240 0 424 123l45 -63q-189 -142 -479 -142q-189 0 -338.5 83t-233.5 233t-84 342q0 213 98.5 385t272.5 269t389 97q177 0 317 -68t218 -189t78 -273zM1012 956q-12 2 -27.5 7
t-21.5 6q-28 4 -52 4q-146 0 -251 -107.5t-105 -255.5q0 -73 43.5 -122.5t110.5 -49.5q18 0 37 3.5t35 8.5t32.5 13t29.5 16t26 17.5t22.5 17.5t18.5 16.5t14 13.5l10 10l4 5z" />
    <glyph glyph-name="A" unicode="A" horiz-adv-x="1161" 
d="M1135 0h-99l-151 420h-619l-151 -420h-88l497 1366h109zM856 502l-281 772l-278 -772h559z" />
    <glyph glyph-name="B" unicode="B" horiz-adv-x="1112" 
d="M995 381q0 -156 -102 -258q-36 -36 -78.5 -59.5t-81.5 -36t-103.5 -19t-111 -7.5t-137.5 -1h-201v1366h297q142 0 225 -18.5t148 -83.5q98 -95 98 -256q0 -112 -61.5 -199t-179.5 -109q156 -22 222 -104.5t66 -214.5zM858 1016q0 114 -72 186q-55 55 -125 71.5t-204 16.5
h-189v-561h174q239 0 346 107q70 70 70 180zM905 377q0 112 -78 190q-25 25 -61.5 42t-69 25.5t-84 13t-81 5t-86.5 0.5h-17h-160v-577h154q165 0 253 18.5t159 89.5q35 35 53 90t18 103z" />
    <glyph glyph-name="C" unicode="C" horiz-adv-x="1222" 
d="M1169 98q-11 -11 -39.5 -28t-79.5 -39.5t-131 -38t-169 -15.5q-132 0 -247 47t-201 134t-135.5 219.5t-49.5 294.5q0 167 52 305t141.5 227.5t206.5 138t249 48.5q82 0 154.5 -13.5t120 -34.5t71 -34.5t37.5 -24.5l-43 -72q-146 91 -330 91q-115 0 -218 -42.5
t-180.5 -120t-123 -194.5t-45.5 -258q0 -285 150 -455t403 -170q31 0 61 2.5t55.5 7t51 10.5t45 12.5t39.5 14.5t33.5 14.5t28 14t21.5 12t16 9.5l9 6z" />
    <glyph glyph-name="D" unicode="D" horiz-adv-x="1363" 
d="M1247 688q0 -324 -198 -522q-99 -99 -223.5 -132.5t-327.5 -33.5h-318v1366h232q248 0 389.5 -30.5t242.5 -131.5q98 -98 150.5 -230t52.5 -286zM1151 692q0 283 -170 453q-91 91 -208 118t-357 27h-148v-1214h197q60 0 85.5 0.5t78 3t80.5 7.5t71.5 15.5t74 25.5
t66 38.5t66.5 54.5q81 79 122.5 203.5t41.5 267.5z" />
    <glyph glyph-name="E" unicode="E" horiz-adv-x="999" 
d="M889 0h-709v1366h692v-80h-604v-528h568v-76h-568v-600h621v-82z" />
    <glyph glyph-name="F" unicode="F" horiz-adv-x="937" 
d="M852 1286h-584v-528h545v-76h-545v-682h-88v1366h672v-80z" />
    <glyph glyph-name="G" unicode="G" horiz-adv-x="1325" 
d="M1182 90q-12 -11 -39 -26t-78 -36.5t-134 -36t-179 -14.5q-133 0 -248 47t-201.5 133.5t-136 219.5t-49.5 295q0 167 52 305t141.5 227.5t206.5 138t249 48.5q82 0 155 -13t119.5 -32t72.5 -33t36 -23l-43 -71q-20 12 -51 27t-113 36t-166 21q-115 0 -218 -42.5
t-180.5 -120t-123 -194.5t-45.5 -258q0 -288 150 -456.5t405 -168.5q41 0 78.5 3t66.5 7.5t55.5 11t44.5 13t34.5 13.5t25.5 12t17 9l8 5v443h-332v75h420v-565z" />
    <glyph glyph-name="H" unicode="H" horiz-adv-x="1277" 
d="M1098 0h-88v680h-742v-680h-88v1366h88v-606h742v606h88v-1366z" />
    <glyph glyph-name="I" unicode="I" horiz-adv-x="448" 
d="M268 0h-88v1366h88v-1366z" />
    <glyph glyph-name="J" unicode="J" horiz-adv-x="704" 
d="M541 395v-22q0 -58 -1.5 -89.5t-8 -79t-24.5 -83.5t-48 -66q-78 -78 -193 -78q-138 0 -246 72l39 70l13 -9q14 -8 30 -16t38.5 -17t51.5 -14.5t58 -5.5q92 0 141 49q27 27 42 68t17.5 72t2.5 78v1042h88v-971z" />
    <glyph glyph-name="K" unicode="K" horiz-adv-x="1064" 
d="M1040 0h-122l-650 662v-662h-88v1366h88v-649l631 649h109l-652 -672z" />
    <glyph glyph-name="L" unicode="L" horiz-adv-x="944" 
d="M872 0h-692v1366h88v-1284h604v-82z" />
    <glyph glyph-name="M" unicode="M" horiz-adv-x="1769" 
d="M1606 0h-101l-137 1233l-453 -1233h-73l-455 1233l-135 -1233h-88l160 1366h104l459 -1227l448 1227h109z" />
    <glyph glyph-name="N" unicode="N" horiz-adv-x="1269" 
d="M1090 0h-123l-705 1245l2 -1245h-84v1366h113l715 -1264l-2 1264h84v-1366z" />
    <glyph glyph-name="O" unicode="O" horiz-adv-x="1413" 
d="M1296 686q0 -204 -74.5 -365.5t-212 -252.5t-313.5 -91q-162 0 -294.5 88.5t-208.5 246.5t-76 354q0 209 76 374t213.5 258t312.5 93q123 0 230 -52.5t183.5 -144.5t120 -223.5t43.5 -284.5zM1200 696q0 273 -140.5 443t-357.5 170q-222 0 -355.5 -169t-133.5 -448
q0 -136 37.5 -254t103 -201t157 -130.5t196.5 -47.5q221 0 357 169t136 468z" />
    <glyph glyph-name="P" unicode="P" horiz-adv-x="1077" 
d="M969 979q0 -178 -117 -295q-102 -102 -336 -102h-248v-582h-88v1366h291q142 0 232 -18.5t155 -83.5q111 -111 111 -285zM879 985q0 138 -91 229q-28 28 -59.5 44t-80 22.5t-84.5 8t-113 1.5h-183v-633h238q198 0 278 80q95 95 95 248z" />
    <glyph glyph-name="Q" unicode="Q" horiz-adv-x="1413" 
d="M1296 686q0 -307 -159 -501t-410 -208q23 -29 46 -52.5t62 -49t84.5 -42.5t112 -28.5t144.5 -11.5q27 0 51.5 2t38.5 4t16 2l8 -73q-75 -15 -155 -15q-175 0 -302.5 66t-214.5 205q-97 12 -186.5 64.5t-160 137.5t-112.5 210t-42 270q0 209 76 374t213.5 258t312.5 93
q123 0 230 -52.5t183.5 -144.5t120 -223.5t43.5 -284.5zM1200 696q0 273 -140.5 443t-357.5 170q-222 0 -355.5 -169t-133.5 -448q0 -136 37.5 -254t103 -201t157 -130.5t196.5 -47.5q221 0 357 169t136 468z" />
    <glyph glyph-name="R" unicode="R" horiz-adv-x="1099" 
d="M1042 0h-92l-151 344q-71 167 -117 213q-40 40 -90.5 55t-153.5 15h-170v-627h-88v1366h271h74.5t67 -2.5t74 -8t60.5 -15.5t64 -27t51 -41q57 -57 82.5 -122.5t25.5 -150.5q0 -148 -88 -239q-91 -91 -217 -105q39 -3 71 -22t55 -51t37 -58t29 -61l1.5 -4.5t1.5 -3.5
l2 -4zM860 1008q0 120 -84 204q-52 52 -115.5 65t-185.5 13h-207v-588h99q67 0 98.5 0.5t86.5 5.5t88 15.5t72.5 31t69.5 50.5q78 78 78 203z" />
    <glyph glyph-name="S" unicode="S" horiz-adv-x="1030" 
d="M901 369q0 -174 -107.5 -283t-310.5 -109q-217 0 -379 142l52 67l10 -8l22 -16t30.5 -20.5t39 -23t46 -22t53 -19.5t58 -13t62.5 -5q160 0 246 82.5t86 220.5q0 101 -78 179q-44 44 -117 83.5t-138 64t-138 64t-117 83.5q-82 82 -82 215q0 149 106 244.5t279 95.5
q224 -1 361 -144l-56 -55l-10 10q-10 10 -21.5 19.5t-30 23t-42 24.5t-52 21.5t-65.5 16.5t-76 6q-135 0 -222 -74.5t-87 -185.5q0 -92 66 -158q42 -42 114 -79t138 -61t140.5 -63t119.5 -84q100 -100 100 -239z" />
    <glyph glyph-name="T" unicode="T" horiz-adv-x="1077" 
d="M1008 1286h-426v-1286h-88v1286h-424v80h938v-80z" />
    <glyph glyph-name="U" unicode="U" horiz-adv-x="1239" 
d="M1079 596v-52.5v-56t-1 -51.5t-3.5 -55.5t-6.5 -50t-10 -52.5t-15 -46.5t-20.5 -48.5t-27 -41.5t-34.5 -41.5q-123 -123 -340 -123q-218 0 -345 127q-21 21 -38 43t-29 50.5t-20.5 47.5t-14 57t-8.5 54.5t-4.5 64t-2 62.5t0 72.5t0.5 71.5v739h88v-881q0 -57 2 -92.5
t10.5 -81t27.5 -82t50 -67.5q105 -105 289 -105q78 0 149 25.5t115 69.5q25 25 42.5 50t28.5 60.5t17 59.5t8.5 78t3 82.5t0.5 103.5v780h88v-770z" />
    <glyph glyph-name="V" unicode="V" horiz-adv-x="1191" 
d="M1139 1366l-484 -1366h-127l-475 1366h101l442 -1305l453 1305h90z" />
    <glyph glyph-name="W" unicode="W" horiz-adv-x="1802" 
d="M1718 1366l-342 -1366h-145l-326 1315l-332 -1315h-145l-344 1366h102l316 -1315l327 1315h156l326 -1315l317 1315h90z" />
    <glyph glyph-name="X" unicode="X" horiz-adv-x="1112" 
d="M1053 0h-109l-395 639l-391 -639h-99l435 713l-406 653h111l352 -582l346 582h102l-399 -655z" />
    <glyph glyph-name="Y" unicode="Y" horiz-adv-x="1079" 
d="M1022 1366l-438 -827v-539h-88v539l-439 827h103l385 -735l379 735h98z" />
    <glyph glyph-name="Z" unicode="Z" horiz-adv-x="1101" 
d="M1001 0h-903v72l787 1214h-744v80h844v-72l-780 -1212h796v-82z" />
    <glyph glyph-name="bracketleft" unicode="[" horiz-adv-x="628" 
d="M549 -248h-369v1614h369v-78h-281v-1458h281v-78z" />
    <glyph glyph-name="backslash" unicode="\" horiz-adv-x="856" 
d="M776 -248l-78 -31l-618 1645l78 31z" />
    <glyph glyph-name="bracketright" unicode="]" horiz-adv-x="628" 
d="M449 -248h-369v78h280v1458h-280v78h369v-1614z" />
    <glyph glyph-name="asciicircum" unicode="^" 
d="M1024 524h-102l-332 719l-330 -719h-96l395 842h68z" />
    <glyph glyph-name="underscore" unicode="_" horiz-adv-x="935" 
d="M940 -248h-944v78h944v-78z" />
    <glyph glyph-name="grave" unicode="`" horiz-adv-x="757" 
d="M608 1180l-30 -64l-428 158l43 98z" />
    <glyph glyph-name="a" unicode="a" horiz-adv-x="929" 
d="M797 0h-84v74q-1 -1 -20.5 -11.5t-35.5 -19t-47 -21.5t-61 -21t-70.5 -14.5t-81.5 -6.5q-140 0 -226.5 78t-86.5 208q0 64 23.5 115.5t57.5 84t88.5 56t101 35.5t110 18.5t100.5 7.5t88 1h60v53q0 5 0.5 31t0 34.5t-2 31t-5 34t-8.5 29t-14.5 31.5t-21.5 26
q-70 70 -205 70q-70 0 -137.5 -21t-97 -37.5t-36.5 -23.5l-43 61q3 4 17.5 13.5t44.5 24.5t66.5 28t89.5 22.5t108 9.5q160 0 250 -90q45 -45 61.5 -102.5t16.5 -169.5v-639zM713 147v363h-72q-84 0 -151.5 -6.5t-128 -23.5t-101.5 -44t-64.5 -70.5t-23.5 -101.5
q0 -85 60.5 -146t185.5 -61q28 0 56.5 3.5t53 9.5t49 14.5t43.5 16t36.5 16t28.5 14.5t19 11z" />
    <glyph glyph-name="b" unicode="b" horiz-adv-x="1036" 
d="M944 502q0 -230 -136.5 -375t-352.5 -145q-39 0 -79.5 4t-70 10t-60 14.5t-47.5 14t-34 11.5l-17 7v1430h84v-574q125 100 283 100q200 0 315 -135t115 -362zM856 498q0 188 -92.5 306t-251.5 118q-158 0 -278 -103q-1 -1 -2 -1l-1 -1v-719q1 0 12.5 -4t23.5 -8t33.5 -9
t44 -9t53.5 -6.5t63 -2.5q180 0 287.5 120.5t107.5 318.5z" />
    <glyph glyph-name="c" unicode="c" horiz-adv-x="927" 
d="M862 74q-16 -13 -52 -31.5t-112.5 -39.5t-154.5 -21q-199 0 -325 129t-126 354q0 237 131 385.5t346 148.5q76 0 145.5 -22t97 -39.5t38.5 -28.5l-43 -63q-1 0 -8 5t-12.5 8.5t-17 9.5t-23 11t-26.5 11t-32 10.5t-36.5 8.5t-42 6t-46.5 2q-173 0 -278 -121.5t-105 -313.5
q0 -190 103 -303.5t264 -113.5q145 0 276 75z" />
    <glyph glyph-name="d" unicode="d" horiz-adv-x="1036" 
d="M889 0h-84v82l-2 -2q-117 -88 -260 -97q-15 -1 -29 -1q-188 0 -305 134.5t-117 354.5q0 233 130 380.5t337 147.5q28 0 55 -3t50.5 -9t42.5 -12t37 -13.5t28.5 -12.5t21.5 -11l11 -6v541h84v-1473zM805 164v686q-1 0 -9 5t-15.5 10t-22 12t-28.5 13t-34 12.5t-40 11
t-45 7.5t-50 3q-172 0 -276.5 -126t-104.5 -331q0 -181 93.5 -294.5t248.5 -113.5q31 0 60.5 4t53 10.5t46.5 15.5t39 17.5t32.5 19t24.5 17t17 14t10 7.5z" />
    <glyph glyph-name="e" unicode="e" horiz-adv-x="993" 
d="M901 545q0 -16 -4 -62h-717q0 -191 95.5 -304t265.5 -113q76 0 148.5 21t106.5 42l35 21l41 -70q-4 -4 -20 -14t-48.5 -25t-70.5 -27.5t-91.5 -22t-106.5 -9.5q-205 0 -324 136.5t-119 362.5q0 239 118.5 378.5t319.5 139.5q162 0 266.5 -120.5t104.5 -333.5zM815 561
q0 68 -17 131t-50.5 116.5t-89.5 85.5t-128 32q-138 0 -237.5 -100t-108.5 -265h631z" />
    <glyph glyph-name="f" unicode="f" horiz-adv-x="688" 
d="M694 1446l-35 -66q-68 39 -145 39q-90 0 -139 -49q-29 -29 -44 -73t-16.5 -69.5t-1.5 -66.5v-184h318v-72h-318v-905h-84v905h-178v72h178v203q0 161 84 245q72 72 197 72q66 0 115.5 -17t68.5 -34z" />
    <glyph glyph-name="g" unicode="g" horiz-adv-x="1036" 
d="M889 -20q0 -140 -19 -214t-69 -124q-60 -60 -132.5 -81.5t-172.5 -21.5q-59 0 -115 11t-93.5 25.5t-70 32.5t-46.5 28.5t-19 15.5l43 63q1 0 12 -7.5t24.5 -15.5t34 -19t45 -20t53 -17.5t62.5 -13.5t68 -5q163 0 247 84q41 41 51.5 101.5t10.5 207.5v88l-11 -7
q-10 -7 -19.5 -13t-27.5 -16t-35.5 -18t-42 -17t-49 -15t-54.5 -10t-60 -4q-181 0 -296.5 132t-115.5 349q0 227 134.5 373.5t340.5 146.5q180 0 322 -79v-940zM803 180v690l-9 4q-8 4 -15 7t-21.5 8t-28 9t-33.5 9t-40 8t-45 5t-50 2q-173 0 -278 -123t-105 -320
q0 -179 89.5 -291t240.5 -112q44 0 89 9.5t79.5 25t60 29t45.5 26.5t21 14z" />
    <glyph glyph-name="h" unicode="h" horiz-adv-x="1003" 
d="M870 0h-84v586q0 81 -2 119.5t-16 84t-43 74.5q-58 58 -174 58q-136 0 -320 -109v-813h-84v1473h84v-580q18 14 54 34t117 46t157 26q150 0 227 -77q52 -52 68 -115t16 -182v-625z" />
    <glyph glyph-name="i" unicode="i" horiz-adv-x="378" 
d="M252 1323q0 -26 -18 -44.5t-44 -18.5t-44.5 18.5t-18.5 44.5t18.5 43.5t44.5 17.5t44 -17.5t18 -43.5zM231 0h-84v977h84v-977z" />
    <glyph glyph-name="j" unicode="j" horiz-adv-x="376" 
d="M250 1321q0 -26 -18 -43.5t-44 -17.5t-44.5 17.5t-18.5 43.5t18.5 43.5t44.5 17.5t44 -17.5t18 -43.5zM229 -131q0 -100 -16 -158.5t-57 -99.5q-31 -31 -79 -51.5t-104 -20.5q-60 0 -129 23l21 69q48 -18 96 -18q52 0 80.5 11.5t56.5 39.5q47 47 47 191v1122h84v-1108z
" />
    <glyph glyph-name="k" unicode="k" horiz-adv-x="903" 
d="M868 0h-118l-519 516v-516h-84v1473h84v-938l467 442h115l-485 -449z" />
    <glyph glyph-name="l" unicode="l" horiz-adv-x="378" 
d="M231 0h-84v1473h84v-1473z" />
    <glyph glyph-name="m" unicode="m" horiz-adv-x="1595" 
d="M1462 0h-84v616q0 89 -13.5 150.5t-51.5 99.5q-54 54 -160 54q-140 0 -324 -103q19 -48 19 -229v-588h-84v555q0 152 -10 214.5t-45 96.5q-60 56 -160 56q-147 0 -318 -109v-813h-84v977h84v-84q15 10 35 21t66.5 33.5t105 37t115.5 14.5q31 0 60 -4.5t49.5 -10
t40.5 -16.5t31.5 -18.5t25 -20.5t18.5 -18.5t14 -17.5l9 -12q1 1 13 8t19.5 12t24.5 14.5t31 16t35 16t40 16t44 13.5t48.5 11.5t50.5 7.5t54 3q136 0 211 -75q60 -60 75 -136.5t15 -222.5v-565z" />
    <glyph glyph-name="n" unicode="n" horiz-adv-x="1003" 
d="M870 0h-84v586q0 81 -2 119.5t-16 84t-43 74.5q-58 58 -174 58q-136 0 -320 -109v-813h-84v977h84v-84q18 14 54 34t117 46t157 26q150 0 227 -77q52 -52 68 -115t16 -182v-625z" />
    <glyph glyph-name="o" unicode="o" horiz-adv-x="1044" 
d="M952 475q0 -229 -116.5 -363.5t-315.5 -134.5q-196 0 -312 137.5t-116 374.5q0 235 116 372.5t320 137.5q197 0 310.5 -138.5t113.5 -385.5zM864 483q0 196 -97 319.5t-245 123.5q-157 0 -249.5 -119t-92.5 -315t97 -317.5t245 -121.5q161 0 251.5 116t90.5 314z" />
    <glyph glyph-name="p" unicode="p" horiz-adv-x="1036" 
d="M944 510q0 -234 -131.5 -381t-343.5 -147q-59 0 -115.5 15t-81 27.5t-41.5 24.5v-483h-84v1411h84v-78q12 10 29.5 21.5t55.5 32t92.5 33.5t113.5 13q188 0 305 -134.5t117 -354.5zM856 516q0 181 -93.5 294.5t-248.5 113.5q-31 0 -60.5 -4t-53 -10.5t-46.5 -15.5
t-39 -17.5t-32.5 -19t-24.5 -17t-17 -14t-10 -7.5v-688l9 -5q8 -5 15.5 -9.5t22 -11.5t28.5 -13t34 -12.5t40 -10.5t45 -7t50 -3q172 0 276.5 126t104.5 331z" />
    <glyph glyph-name="q" unicode="q" horiz-adv-x="1036" 
d="M889 -434h-84v516q-125 -100 -283 -100q-200 0 -315 135t-115 362q0 230 137 375t353 145q39 0 79 -4t70 -10t60 -14.5t47 -14t34 -12.5l17 -6v-1372zM805 164v719q-1 0 -12.5 4t-23.5 8t-33.5 9t-44 9t-53.5 6.5t-63 2.5q-180 0 -287.5 -120.5t-107.5 -318.5
q0 -188 92.5 -306t251.5 -118q158 0 278 103l2 2h1z" />
    <glyph glyph-name="r" unicode="r" horiz-adv-x="679" 
d="M639 989l-21 -74q-56 7 -83 7q-43 0 -82 -10t-68.5 -27.5t-53.5 -36.5t-42 -41t-29.5 -38t-19.5 -31l-9 -15v-723h-84v977h84v-150q39 56 73 86q101 91 235 91q55 0 100 -15z" />
    <glyph glyph-name="s" unicode="s" horiz-adv-x="831" 
d="M725 260q0 -134 -92.5 -208.5t-251.5 -74.5q-52 0 -102.5 8.5t-86 21t-64 26t-42 23t-16.5 12.5l39 67q127 -82 264 -82q123 0 193.5 52.5t70.5 146.5q0 72 -55 127q-31 31 -88.5 57t-112 42.5t-115.5 45.5t-96 64q-64 64 -64 166q0 112 89 178.5t221 66.5
q75 0 144.5 -20t93.5 -33.5t38 -23.5l-39 -66q-17 12 -41.5 24.5t-79.5 29t-108 16.5q-97 0 -164 -45.5t-67 -124.5q0 -66 45 -111q30 -30 88 -56.5t112.5 -43t116 -46.5t98.5 -67q72 -72 72 -172z" />
    <glyph glyph-name="t" unicode="t" horiz-adv-x="724" 
d="M635 20q-1 -1 -9.5 -5t-15.5 -6.5t-19 -7.5t-25.5 -8t-30 -6.5t-36.5 -5t-42 -1.5q-124 0 -187 63q-12 12 -21 26.5t-14.5 35.5t-9 34.5t-5 42t-2 39t0 44.5t0.5 40v600h-170v72h170v278h84v-278h322v-72h-322v-596q0 -119 9 -155q18 -74 92 -91q26 -6 61 -6q18 0 36 2
t31 4.5t27 7t21.5 7t17 6.5t10.5 4z" />
    <glyph glyph-name="u" unicode="u" horiz-adv-x="1003" 
d="M856 0h-84v84q-1 -1 -16 -10.5t-28.5 -17t-37 -19.5t-49 -21t-56 -18t-67.5 -13.5t-76 -4.5q-137 0 -225 88q-56 56 -70 124.5t-14 192.5v592h84v-600q0 -120 10 -163q14 -56 49 -91q68 -68 177 -68q34 0 69.5 5.5t65.5 14.5t56.5 19.5t49.5 22.5t37.5 20t27.5 17l13 8
v815h84v-977z" />
    <glyph glyph-name="v" unicode="v" horiz-adv-x="987" 
d="M926 977l-387 -977h-109l-385 977h96l346 -895l347 895h92z" />
    <glyph glyph-name="w" unicode="w" horiz-adv-x="1495" 
d="M1411 977l-289 -977h-114l-267 924l-274 -924h-117l-276 977h90l248 -899l268 899h133l258 -899l254 899h86z" />
    <glyph glyph-name="x" unicode="x" horiz-adv-x="935" 
d="M866 0h-106l-305 442l-305 -442h-101l359 504l-332 473h108l279 -414l285 414h100l-334 -473z" />
    <glyph glyph-name="y" unicode="y" horiz-adv-x="958" 
d="M903 977l-385 -1063q-75 -204 -145 -274q-101 -101 -248 -101q-40 0 -79.5 7t-57 12.5t-25.5 9.5l25 74q1 0 11.5 -3.5t20.5 -6.5t25.5 -6t35.5 -5t42 -2q110 0 178 68q19 19 36 43t35.5 62.5t25.5 53.5t28.5 68.5t22.5 56.5l-402 1006h96l353 -889l315 889h92z" />
    <glyph glyph-name="z" unicode="z" horiz-adv-x="925" 
d="M809 0h-719v70l598 835h-565v72h663v-68l-589 -833h612v-76z" />
    <glyph glyph-name="braceleft" unicode="{" horiz-adv-x="649" 
d="M569 -248h-90q-66 0 -95.5 2t-64.5 14.5t-61 38.5q-19 19 -29.5 38t-19 70t-8.5 132v338v16.5v21t-0.5 21.5t-2 23.5t-3.5 20.5t-6 19t-9 13q-23 23 -71 23v78q47 0 71 24q12 12 16.5 38.5t4.5 94.5v293q0 117 14 164t43 76q26 26 61 38.5t64.5 14.5t95.5 2h90v-78h-71
q-92 0 -120.5 -5t-49.5 -26q-20 -20 -28.5 -52.5t-8.5 -106.5v-314q0 -84 -4.5 -120t-22.5 -54q-15 -15 -41 -28q24 -12 41 -29q27 -27 27 -131v-402q0 -74 8.5 -106.5t28.5 -52.5q21 -21 49.5 -26t120.5 -5h71v-78z" />
    <glyph glyph-name="bar" unicode="|" horiz-adv-x="485" 
d="M289 -248h-92v1614h92v-1614z" />
    <glyph glyph-name="braceright" unicode="}" horiz-adv-x="649" 
d="M541 543q-49 0 -72 -23q-6 -6 -10 -17t-6 -21.5t-3 -26.5t-1 -25.5v-25.5v-19v-338q0 -81 -9 -132t-19.5 -70t-29.5 -38q-38 -38 -82.5 -46.5t-138.5 -8.5h-90v78h72q92 0 120.5 5t49.5 26q20 20 28 52.5t8 106.5v402q0 104 27 131q17 17 41 29q-26 13 -41 28
q-18 18 -22.5 54t-4.5 120v314q0 74 -8 106.5t-28 52.5q-21 21 -49.5 26t-120.5 5h-72v78h90q94 0 138.5 -8.5t82.5 -46.5q19 -19 29.5 -38t19.5 -70t9 -132v-293q0 -69 4 -95t16 -38q24 -24 72 -24v-78z" />
    <glyph glyph-name="asciitilde" unicode="~" 
d="M1028 530q-97 -122 -221 -122q-66 0 -141.5 29t-147 58t-127.5 29q-19 0 -35.5 -2t-31 -8.5t-24 -10t-22 -14t-16.5 -14t-16 -16t-13 -13.5l-73 54q49 68 103.5 95.5t127.5 27.5q54 0 113 -18.5t102.5 -40t98.5 -40t102 -18.5q34 0 64 13.5t46.5 28.5t38.5 40z" />
    <glyph glyph-name="exclamdown" unicode="&#xa1;" horiz-adv-x="557" 
d="M348 930q0 -30 -20 -51t-49 -21t-49.5 21.5t-20.5 50.5t20.5 49t49.5 20t49 -20t20 -49zM338 -383h-117l19 1057h79z" />
    <glyph glyph-name="cent" unicode="&#xa2;" 
d="M995 92q-25 -22 -102 -53.5t-174 -36.5v-195h-78v195q-188 12 -302 139t-114 342q0 219 112.5 364t303.5 167v164h78v-160q73 -2 137.5 -23.5t91.5 -39t35 -27.5l-43 -64l-8 6q-9 5 -15 8.5t-19.5 11t-25 12.5t-30 11.5t-36 10.5t-40.5 7.5t-47 4.5v-850q141 10 237 74z
M641 86v846q-152 -20 -240 -137t-88 -293q0 -179 91 -290.5t237 -125.5z" />
    <glyph glyph-name="sterling" unicode="&#xa3;" 
d="M1073 1280l-49 -55l-8 7q-9 7 -15.5 11.5t-21 13.5t-28.5 15.5t-35 14.5t-43 12.5t-50.5 8t-58.5 3.5q-159 0 -248.5 -101.5t-89.5 -291.5q0 -50 3 -91.5t7.5 -82.5t5.5 -48h400v-80h-391q0 -5 5 -58.5t5 -86.5q0 -297 -150 -393h748v-78h-885v74q38 15 62 27.5
t52.5 38.5t44.5 59.5t27 88t11 126.5q0 42 -11 202h-182v80h174q-18 120 -18 222q0 219 114 345t308 126q88 0 163.5 -24t108 -46t45.5 -39z" />
    <glyph glyph-name="currency" unicode="&#xa4;" horiz-adv-x="1214" 
d="M1114 240l-53 -54l-115 113q-133 -133 -344 -133q-202 0 -336 137l-116 -117l-52 54l121 120q-90 133 -90 314q0 217 94 348l-125 127l52 53l122 -123q124 121 334 121q198 0 330 -123l125 125l53 -53l-127 -129q103 -137 103 -330q0 -195 -97 -332zM995 700
q0 200 -109 312t-282 112q-178 0 -279.5 -111t-101.5 -317q0 -205 108.5 -328.5t276.5 -123.5q176 0 281.5 118t105.5 338z" />
    <glyph glyph-name="yen" unicode="&#xa5;" 
d="M1061 1366l-399 -674h270v-78h-299v-108h299v-78h-299v-428h-86v428h-295v78h295v108h-295v78h264l-389 674h104l357 -653l373 653h100z" />
    <glyph glyph-name="brokenbar" unicode="&#xa6;" horiz-adv-x="485" 
d="M289 745h-92v621h92v-621zM289 -248h-92v621h92v-621z" />
    <glyph glyph-name="section" unicode="&#xa7;" 
d="M967 565q0 -101 -56.5 -169t-183.5 -115q115 -60 159 -120.5t44 -146.5q0 -131 -95.5 -221t-254.5 -90q-204 0 -354 111q-4 3 -5 4l47 69q1 0 16 -10t27.5 -16.5t35 -18.5t45.5 -20t51 -16t60.5 -12.5t65.5 -4.5q129 0 198 60.5t69 148.5q0 79 -50 129q-38 38 -103 72.5
t-125 57.5t-128.5 60.5t-110.5 79.5q-75 75 -75 168q0 88 59.5 158.5t202.5 122.5q-113 54 -162 119.5t-49 152.5q0 125 90 199t236 74q54 0 104 -10t80.5 -22.5t57.5 -29t35 -23.5t13 -12l-45 -61q-114 80 -248 80q-107 0 -168 -50t-61 -128t43 -121q40 -40 128.5 -82
t181 -87.5t141.5 -94.5q84 -84 84 -185zM872 545q0 78 -53 131q-31 31 -75.5 59t-68 39t-85.5 39q-126 -38 -189 -100.5t-63 -134.5q0 -68 51 -119q20 -19 59 -42t65.5 -36t82.5 -38t63 -28q213 78 213 230z" />
    <glyph glyph-name="dieresis" unicode="&#xa8;" horiz-adv-x="757" 
d="M594 1247q0 -31 -20.5 -52t-51.5 -21t-52 21t-21 52t21 51.5t52 20.5t51.5 -20.5t20.5 -51.5zM307 1247q0 -31 -20 -52t-51 -21t-52.5 21t-21.5 52t21.5 51.5t52.5 20.5t51 -20.5t20 -51.5z" />
    <glyph glyph-name="copyright" unicode="&#xa9;" horiz-adv-x="1619" 
d="M1518 682q0 -191 -95 -354t-258 -258t-354 -95t-354.5 95t-259 258t-95.5 354t95.5 354.5t259 259t354.5 95.5q193 0 356.5 -98t257 -261t93.5 -350zM1427 682q0 129 -49.5 244.5t-133 197t-196.5 129t-237 47.5q-126 0 -241.5 -51t-198.5 -135.5t-132 -198t-49 -233.5
q0 -166 84 -308t227.5 -225t309.5 -83t308 83t225 225t83 308zM1051 379q-27 -25 -94.5 -51.5t-149.5 -26.5q-148 0 -244 100t-96 271q0 183 98.5 296t259.5 113q54 0 107 -18t77 -33t33 -24l-43 -62q-2 1 -16 10.5t-22 14t-26 13t-33.5 13t-39.5 8t-49 3.5
q-117 0 -187.5 -89.5t-70.5 -230.5q0 -138 71.5 -220.5t182.5 -82.5q21 0 41.5 2t37 5.5t32.5 8t27.5 9t23.5 10t18 9t14 8.5t9 5z" />
    <glyph glyph-name="ordfeminine" unicode="&#xaa;" horiz-adv-x="827" 
d="M664 641h-72v51q-111 -65 -225 -65q-105 0 -170.5 59t-65.5 156q0 49 17.5 87.5t43 63t66.5 42t74.5 26t82 13t74 5t64.5 0.5h39v35v17.5v19.5t-0.5 17.5t-1.5 19t-2.5 17.5t-4.5 18.5t-7 16t-9 16.5t-12 14q-51 51 -145 51q-110 0 -199 -64l-37 54q6 8 34.5 24
t87.5 33.5t122 17.5q119 0 186 -67q34 -34 47 -77.5t13 -125.5v-475zM592 758v258h-47q-78 0 -136.5 -8t-105.5 -27.5t-71.5 -54.5t-24.5 -86q0 -61 42.5 -104.5t131.5 -43.5q106 0 211 66z" />
    <glyph glyph-name="guillemotleft" unicode="&#xab;" horiz-adv-x="915" 
d="M782 166l-69 -47l-281 389l281 381l69 -49l-219 -332zM483 166l-69 -47l-281 389l281 381l69 -49l-219 -332z" />
    <glyph glyph-name="logicalnot" unicode="&#xac;" horiz-adv-x="1191" 
d="M1067 279h-84v274h-858v78h942v-352z" />
    <glyph glyph-name="registered" unicode="&#xae;" horiz-adv-x="1099" 
d="M997 940q0 -186 -131 -316t-317 -130t-316.5 130t-130.5 316t130.5 317.5t316.5 131.5t317 -131.5t131 -317.5zM922 940q0 157 -108 264t-265 107t-264 -107t-107 -264t107 -263t264 -106t265 106.5t108 262.5zM760 698h-78l-61 127q-28 57 -46 69.5t-75 12.5h-33v-209
h-72v494h117q61 0 99.5 -8.5t66.5 -36.5q37 -37 37 -96q0 -43 -29 -77.5t-94 -37.5q26 -1 44 -12.5t25.5 -24t20.5 -39.5zM645 1055q0 73 -129 73h-49v-159h23h26.5t25.5 1t26.5 3.5t23.5 6t22 10.5l15.5 15.5t12 21t3.5 28.5z" />
    <glyph glyph-name="macron" unicode="&#xaf;" horiz-adv-x="757" 
d="M672 1208h-584v78h584v-78z" />
    <glyph glyph-name="degree" unicode="&#xb0;" horiz-adv-x="1210" 
d="M895 1098q0 -120 -85.5 -205.5t-205.5 -85.5t-204.5 85.5t-84.5 205.5t84.5 204t204.5 84t205.5 -84t85.5 -204zM823 1098q0 91 -63 154t-154 63t-154 -63t-63 -154t63 -154t154 -63t154 63t63 154z" />
    <glyph glyph-name="plusminus" unicode="&#xb1;" 
d="M1030 606h-397v-432h-78v432h-397v78h397v442h78v-442h397v-78zM1030 0h-872v78h872v-78z" />
    <glyph glyph-name="twosuperior" unicode="&#xb2;" horiz-adv-x="759" 
d="M571 676h-403v63q23 23 77 76.5t78.5 79t64 70t57.5 73t32.5 64.5t14.5 67q0 60 -34.5 95.5t-95.5 35.5q-71 0 -149 -65l-45 45q13 17 35 35.5t69.5 38.5t98.5 20q92 0 149.5 -55t57.5 -145q0 -45 -16.5 -89.5t-51.5 -90.5t-60.5 -73.5t-72.5 -74.5l-105 -101h299v-69z
" />
    <glyph glyph-name="threesuperior" unicode="&#xb3;" horiz-adv-x="759" 
d="M584 872q0 -95 -65 -149.5t-157 -54.5q-132 0 -202 88l49 49q68 -68 143 -68q69 0 107.5 32t38.5 93q0 27 -7 48t-17.5 34t-28.5 22.5t-32 14t-37 7t-35.5 3t-35.5 0.5h-24v74h36q26 0 43 1t44 7.5t43.5 18t29 35.5t12.5 57q0 52 -33.5 86.5t-90.5 34.5q-13 0 -26 -2
t-24 -6t-21 -8t-18.5 -10t-15.5 -10.5t-13.5 -10.5t-10 -9t-7.5 -7l-4 -5l-51 47q5 11 25.5 30t67.5 39.5t102 20.5q92 0 149 -51.5t57 -136.5q0 -60 -34 -100t-92 -54q135 -26 135 -160z" />
    <glyph glyph-name="acute" unicode="&#xb4;" horiz-adv-x="757" 
d="M608 1274l-428 -158l-30 64l415 192z" />
    <glyph glyph-name="uni00B5" unicode="&#xb5;" horiz-adv-x="1017" 
d="M870 0h-84v78q-4 -2 -25.5 -14t-38 -20.5t-48.5 -21.5t-62 -21.5t-72 -14.5t-85 -6q-136 0 -224 88v-316h-84v1225h84v-600q0 -55 0.5 -75.5t5.5 -61.5t18.5 -68t35.5 -49q68 -68 176 -68q34 0 69.5 5.5t65.5 14.5t56.5 19.5t49.5 22.5t37.5 20t27.5 17l13 8v815h84v-977
z" />
    <glyph glyph-name="paragraph" unicode="&#xb6;" horiz-adv-x="1167" 
d="M1040 1288h-114v-1536h-80v1536h-103v-1536h-79v842q-28 -4 -87 -2t-119.5 7.5t-128.5 32.5t-114 73q-106 106 -106 288q0 156 104 260q71 71 177 92t312 21h338v-78z" />
    <glyph glyph-name="periodcentered" unicode="&#xb7;" horiz-adv-x="409" 
d="M276 520q0 -29 -21 -50t-50 -21t-50.5 21t-21.5 50t21.5 50.5t50.5 21.5t50 -21.5t21 -50.5z" />
    <glyph glyph-name="cedilla" unicode="&#xb8;" horiz-adv-x="757" 
d="M541 -270q0 -79 -56.5 -126.5t-128.5 -47.5q-75 0 -137 32l25 58q58 -25 96 -25q64 0 91.5 32.5t27.5 72.5q0 44 -28.5 72t-74.5 28q-48 0 -86 -27l-43 25l37 176h66l-23 -125q32 19 72 19q73 0 117.5 -45t44.5 -119z" />
    <glyph glyph-name="onesuperior" unicode="&#xb9;" horiz-adv-x="759" 
d="M461 676h-78v598l-180 -111l-43 60l233 143h68v-690z" />
    <glyph glyph-name="ordmasculine" unicode="&#xba;" horiz-adv-x="827" 
d="M733 997q0 -171 -86 -270.5t-235 -99.5q-147 0 -232.5 102t-85.5 279q0 175 86 276.5t238 101.5q147 0 231 -102.5t84 -286.5zM659 1004q0 143 -69.5 231t-175.5 88q-114 0 -180 -85t-66 -228q0 -142 70 -230t176 -88q116 0 180.5 84t64.5 228z" />
    <glyph glyph-name="guillemotright" unicode="&#xbb;" horiz-adv-x="915" 
d="M782 508l-280 -389l-70 47l219 342l-219 332l70 49zM483 508l-280 -389l-70 47l219 342l-219 332l70 49z" />
    <glyph glyph-name="onequarter" unicode="&#xbc;" horiz-adv-x="1476" 
d="M1251 1380l-983 -1448l-67 43l983 1455zM461 676h-78v598l-180 -111l-43 60l233 143h68v-690zM1346 170h-99v-170h-73v170h-345v57l351 463h67v-457h99v-63zM1174 233v349l-263 -349h263z" />
    <glyph glyph-name="onehalf" unicode="&#xbd;" horiz-adv-x="1476" 
d="M1251 1380l-983 -1448l-67 43l983 1455zM461 676h-78v598l-180 -111l-43 60l233 143h68v-690zM1288 0h-403v63q22 23 66.5 66.5t67.5 67.5t58.5 61.5t54.5 63t39 57.5t28.5 60t8.5 55q0 61 -34 96t-95 35q-70 0 -149 -66l-45 45q13 17 35 35.5t69 38.5t98 20
q92 0 149.5 -55t57.5 -145q0 -45 -16.5 -89.5t-51 -90t-60.5 -74t-72 -74.5l-105 -100h299v-70z" />
    <glyph glyph-name="threequarters" unicode="&#xbe;" horiz-adv-x="1476" 
d="M1251 1380l-983 -1448l-67 43l983 1455zM1346 170h-99v-170h-73v170h-345v57l351 463h67v-457h99v-63zM1174 233v349l-263 -349h263zM584 872q0 -95 -65 -149.5t-157 -54.5q-132 0 -202 88l49 49q68 -68 143 -68q69 0 107.5 32t38.5 93q0 27 -7 48t-17.5 34t-28.5 22.5
t-32 14t-37 7t-35.5 3t-35.5 0.5h-24v74h36q26 0 43 1t44 7.5t43.5 18t29 35.5t12.5 57q0 52 -33.5 86.5t-90.5 34.5q-13 0 -26 -2t-24 -6t-21 -8t-18.5 -10t-15.5 -10.5t-13.5 -10.5t-10 -9t-7.5 -7l-4 -5l-51 47q5 11 25.5 30t67.5 39.5t102 20.5q92 0 149 -51.5
t57 -136.5q0 -60 -34 -100t-92 -54q135 -26 135 -160z" />
    <glyph glyph-name="questiondown" unicode="&#xbf;" horiz-adv-x="980" 
d="M653 930q0 -30 -20 -51t-49 -21t-49.5 21.5t-20.5 50.5t20.5 49t49.5 20t49 -20t20 -49zM864 -295q-5 -5 -20 -15.5t-48 -28t-72 -32.5t-96 -26t-116 -11q-164 0 -262 102t-98 271q0 55 9.5 99.5t30 77.5t34 49.5t38.5 41.5q48 48 129.5 99t106.5 76q32 32 38.5 62.5
t6.5 135.5v68h78q4 -90 4 -121q0 -79 -7 -114t-36 -64q-25 -26 -113.5 -85.5t-120.5 -90.5q-58 -58 -79 -110t-21 -124q0 -127 82 -208t209 -81q139 0 278 93z" />
    <glyph glyph-name="Agrave" unicode="&#xc0;" horiz-adv-x="1161" 
d="M1135 0h-99l-151 420h-619l-151 -420h-88l497 1366h109zM856 502l-281 772l-278 -772h559zM827 1528l-30 -64l-428 158l43 98z" />
    <glyph glyph-name="Aacute" unicode="&#xc1;" horiz-adv-x="1161" 
d="M1135 0h-99l-151 420h-619l-151 -420h-88l497 1366h109zM856 502l-281 772l-278 -772h559zM811 1620l-428 -158l-31 64l416 192z" />
    <glyph glyph-name="Acircumflex" unicode="&#xc2;" horiz-adv-x="1161" 
d="M1135 0h-99l-151 420h-619l-151 -420h-88l497 1366h109zM856 502l-281 772l-278 -772h559zM877 1526l-39 -62l-260 138l-261 -138l-43 62l304 184z" />
    <glyph glyph-name="Atilde" unicode="&#xc3;" horiz-adv-x="1161" 
d="M1135 0h-99l-151 420h-619l-151 -420h-88l497 1366h109zM856 502l-281 772l-278 -772h559zM891 1554q-81 -81 -191 -81q-36 0 -112 22.5t-117 22.5q-33 0 -59.5 -7.5t-37 -14t-34.5 -23.5l-51 59q33 28 51 40.5t54 26t77 13.5q38 0 115.5 -24.5t115.5 -24.5q21 0 40.5 3
t32 7t25.5 11t18.5 11t14 11t9.5 8z" />
    <glyph glyph-name="Adieresis" unicode="&#xc4;" horiz-adv-x="1161" 
d="M1135 0h-99l-151 420h-619l-151 -420h-88l497 1366h109zM856 502l-281 772l-278 -772h559zM793 1571q0 -31 -20.5 -52.5t-51.5 -21.5t-52.5 21.5t-21.5 52.5q0 30 21.5 50.5t52.5 20.5t51.5 -20t20.5 -51zM506 1571q0 -31 -20.5 -52.5t-51.5 -21.5t-52.5 21.5t-21.5 52.5
q0 30 21.5 50.5t52.5 20.5t51.5 -20t20.5 -51z" />
    <glyph glyph-name="Aring" unicode="&#xc5;" horiz-adv-x="1161" 
d="M1135 0h-99l-151 420h-619l-151 -420h-88l497 1366h109zM856 502l-281 772l-278 -772h559zM772 1665q0 -80 -57.5 -137.5t-136.5 -57.5q-80 0 -137.5 58t-57.5 137q0 83 57.5 139t137.5 56q82 0 138 -58t56 -137zM700 1665q0 53 -36 88t-86 35q-49 0 -85 -36.5t-36 -86.5
q0 -49 35.5 -85t85.5 -36q52 0 87 35.5t35 85.5z" />
    <glyph glyph-name="AE" unicode="&#xc6;" horiz-adv-x="1697" 
d="M1577 0h-709v418h-493l-230 -418h-100l770 1366h746v-80h-605v-528h568v-76h-568v-600h621v-82zM868 498v794l-452 -794h452z" />
    <glyph glyph-name="Ccedilla" unicode="&#xc7;" horiz-adv-x="1222" 
d="M1169 98q-10 -10 -40 -27t-82.5 -39.5t-136 -38.5t-175.5 -16l-20 -106q29 16 73 16q75 0 121.5 -46t46.5 -122q0 -81 -58.5 -130.5t-131.5 -49.5q-86 0 -143 33l24 59q60 -24 101 -24q67 0 94.5 33t27.5 75q0 46 -28.5 75.5t-75.5 29.5q-46 0 -90 -29l-45 27l35 164
q-84 10 -162.5 41.5t-149 89t-123 135t-83.5 187t-31 237.5q0 167 52 305t141.5 227.5t206.5 138t249 48.5q82 0 155 -13t119.5 -32t72.5 -33t36 -23l-43 -71q-20 12 -51 27t-113 36t-166 21q-115 0 -218 -42.5t-180.5 -120t-123 -194.5t-45.5 -258q0 -285 150 -455
t403 -170q192 0 360 103z" />
    <glyph glyph-name="Egrave" unicode="&#xc8;" horiz-adv-x="999" 
d="M889 0h-709v1366h692v-80h-604v-528h568v-76h-568v-600h621v-82zM758 1528l-31 -64l-428 158l43 98z" />
    <glyph glyph-name="Eacute" unicode="&#xc9;" horiz-adv-x="999" 
d="M889 0h-709v1366h692v-80h-604v-528h568v-76h-568v-600h621v-82zM754 1622l-428 -158l-31 64l416 192z" />
    <glyph glyph-name="Ecircumflex" unicode="&#xca;" horiz-adv-x="999" 
d="M889 0h-709v1366h692v-80h-604v-528h568v-76h-568v-600h621v-82zM819 1526l-39 -62l-260 138l-260 -138l-43 62l303 184z" />
    <glyph glyph-name="Edieresis" unicode="&#xcb;" horiz-adv-x="999" 
d="M889 0h-709v1366h692v-80h-604v-528h568v-76h-568v-600h621v-82zM750 1571q0 -31 -20.5 -52.5t-51.5 -21.5t-52.5 21.5t-21.5 52.5q0 30 21.5 50.5t52.5 20.5t51.5 -20t20.5 -51zM463 1571q0 -31 -20.5 -52.5t-51.5 -21.5t-52.5 21.5t-21.5 52.5q0 30 21.5 50.5
t52.5 20.5t51.5 -20t20.5 -51z" />
    <glyph glyph-name="Igrave" unicode="&#xcc;" horiz-adv-x="448" 
d="M455 1528l-31 -64l-428 158l43 98zM264 0h-88v1366h88v-1366z" />
    <glyph glyph-name="Iacute" unicode="&#xcd;" horiz-adv-x="448" 
d="M266 0h-88v1366h88v-1366zM453 1622l-428 -158l-31 64l416 192z" />
    <glyph glyph-name="Icircumflex" unicode="&#xce;" horiz-adv-x="448" 
d="M264 0h-88v1366h88v-1366zM524 1526l-39 -62l-260 138l-260 -138l-43 62l303 184z" />
    <glyph glyph-name="Idieresis" unicode="&#xcf;" horiz-adv-x="448" 
d="M264 0h-88v1366h88v-1366zM440 1571q0 -31 -20.5 -52.5t-50.5 -21.5q-31 0 -52.5 21.5t-21.5 52.5q0 30 21.5 50.5t52.5 20.5t51 -20t20 -51zM154 1571q0 -31 -20.5 -52.5t-51.5 -21.5t-52.5 21.5t-21.5 52.5q0 30 21.5 50.5t52.5 20.5t51.5 -20t20.5 -51z" />
    <glyph glyph-name="Eth" unicode="&#xd0;" horiz-adv-x="1384" 
d="M1268 688q0 -323 -199 -522q-99 -99 -223.5 -132.5t-327.5 -33.5h-317v682h-205v76h205v608h231q248 0 390 -30.5t243 -131.5q98 -98 150.5 -230t52.5 -286zM1171 692q0 283 -170 453q-91 91 -208 118t-357 27h-147v-532h430v-76h-430v-606h196q60 0 86 0.5t78 3t80 7.5
t72 15.5t74 25.5t66 38.5t67 54.5q81 79 122 203.5t41 267.5z" />
    <glyph glyph-name="Ntilde" unicode="&#xd1;" horiz-adv-x="1269" 
d="M1090 0h-123l-705 1245l2 -1245h-84v1366h113l715 -1264l-2 1264h84v-1366zM934 1554q-81 -81 -191 -81q-36 0 -112 22.5t-117 22.5q-33 0 -59.5 -7.5t-37 -14t-34.5 -23.5l-51 59q33 28 51 40.5t54 26t77 13.5q38 0 115.5 -24.5t115.5 -24.5q21 0 40.5 3t32 7t25.5 11
t18.5 11t14 11t9.5 8z" />
    <glyph glyph-name="Ograve" unicode="&#xd2;" horiz-adv-x="1413" 
d="M1296 686q0 -204 -74.5 -365.5t-212 -252.5t-313.5 -91q-162 0 -294.5 88.5t-208.5 246.5t-76 354q0 209 76 374t213.5 258t312.5 93q123 0 230 -52.5t183.5 -144.5t120 -223.5t43.5 -284.5zM1200 696q0 273 -140.5 443t-357.5 170q-222 0 -355.5 -169t-133.5 -448
q0 -136 37.5 -254t103 -201t157 -130.5t196.5 -47.5q221 0 357 169t136 468zM944 1528l-31 -64l-428 158l43 98z" />
    <glyph glyph-name="Oacute" unicode="&#xd3;" horiz-adv-x="1413" 
d="M1296 686q0 -204 -74.5 -365.5t-212 -252.5t-313.5 -91q-162 0 -294.5 88.5t-208.5 246.5t-76 354q0 209 76 374t213.5 258t312.5 93q123 0 230 -52.5t183.5 -144.5t120 -223.5t43.5 -284.5zM1200 696q0 273 -140.5 443t-357.5 170q-222 0 -355.5 -169t-133.5 -448
q0 -136 37.5 -254t103 -201t157 -130.5t196.5 -47.5q221 0 357 169t136 468zM946 1624l-428 -158l-31 64l416 192z" />
    <glyph glyph-name="Ocircumflex" unicode="&#xd4;" horiz-adv-x="1413" 
d="M1296 686q0 -204 -74.5 -365.5t-212 -252.5t-313.5 -91q-162 0 -294.5 88.5t-208.5 246.5t-76 354q0 209 76 374t213.5 258t312.5 93q123 0 230 -52.5t183.5 -144.5t120 -223.5t43.5 -284.5zM1200 696q0 273 -140.5 443t-357.5 170q-222 0 -355.5 -169t-133.5 -448
q0 -136 37.5 -254t103 -201t157 -130.5t196.5 -47.5q221 0 357 169t136 468zM1016 1526l-39 -62l-260 138l-260 -138l-43 62l303 184z" />
    <glyph glyph-name="Otilde" unicode="&#xd5;" horiz-adv-x="1413" 
d="M1296 686q0 -204 -74.5 -365.5t-212 -252.5t-313.5 -91q-162 0 -294.5 88.5t-208.5 246.5t-76 354q0 209 76 374t213.5 258t312.5 93q123 0 230 -52.5t183.5 -144.5t120 -223.5t43.5 -284.5zM1200 696q0 273 -140.5 443t-357.5 170q-222 0 -355.5 -169t-133.5 -448
q0 -136 37.5 -254t103 -201t157 -130.5t196.5 -47.5q221 0 357 169t136 468zM1012 1554q-81 -81 -191 -81q-36 0 -112 22.5t-117 22.5q-33 0 -59.5 -7.5t-37 -14t-34.5 -23.5l-51 59q33 28 51 40.5t54 26t77 13.5q38 0 115.5 -24.5t115.5 -24.5q21 0 40.5 3t32 7t25.5 11
t18.5 11t14 11t9.5 8z" />
    <glyph glyph-name="Odieresis" unicode="&#xd6;" horiz-adv-x="1413" 
d="M1296 686q0 -204 -74.5 -365.5t-212 -252.5t-313.5 -91q-162 0 -294.5 88.5t-208.5 246.5t-76 354q0 209 76 374t213.5 258t312.5 93q123 0 230 -52.5t183.5 -144.5t120 -223.5t43.5 -284.5zM1200 696q0 273 -140.5 443t-357.5 170q-222 0 -355.5 -169t-133.5 -448
q0 -136 37.5 -254t103 -201t157 -130.5t196.5 -47.5q221 0 357 169t136 468zM932 1571q0 -31 -20.5 -52.5t-51.5 -21.5t-52.5 21.5t-21.5 52.5q0 30 21.5 50.5t52.5 20.5t51.5 -20t20.5 -51zM645 1571q0 -31 -20.5 -52.5t-51.5 -21.5t-52 21.5t-21 52.5t21 51t52 20
t51.5 -20t20.5 -51z" />
    <glyph glyph-name="multiply" unicode="&#xd7;" 
d="M1040 121l-53 -53l-395 391l-393 -391l-52 53l392 391l-392 395l52 54l393 -394l395 394l53 -54l-393 -395z" />
    <glyph glyph-name="Oslash" unicode="&#xd8;" horiz-adv-x="1413" 
d="M1296 686q0 -204 -74.5 -365.5t-212 -252.5t-313.5 -91q-70 0 -139.5 20t-102 37t-40.5 25l-111 -192l-72 41l115 205q-15 11 -35 30t-56.5 68.5t-65 108t-50.5 151t-22 195.5q0 209 76 374t213.5 258t312.5 93q52 0 101.5 -9.5t83.5 -22t62.5 -27.5t41.5 -24t18 -14
l113 201l69 -43l-118 -211q8 -7 22 -20.5t49.5 -63.5t62.5 -108.5t49.5 -156.5t22.5 -206zM1200 696q0 86 -16 165t-36.5 129.5t-46 92t-40 58t-21.5 22.5l-583 -1026l13 -9q13 -9 35 -20.5t50.5 -23t69 -19.5t82.5 -8q221 0 357 170t136 469zM979 1219q-38 35 -115.5 62.5
t-161.5 27.5q-222 0 -355.5 -169t-133.5 -448q0 -165 51.5 -295t126.5 -204z" />
    <glyph glyph-name="Ugrave" unicode="&#xd9;" horiz-adv-x="1239" 
d="M1079 596v-52.5v-56t-1 -51.5t-3.5 -55.5t-6.5 -50t-10 -52.5t-15 -46.5t-20.5 -48.5t-27 -41.5t-34.5 -41.5q-123 -123 -340 -123q-218 0 -345 127q-21 21 -38 43t-29 50.5t-20.5 47.5t-14 57t-8.5 54.5t-4.5 64t-2 62.5t0 72.5t0.5 71.5v739h88v-881q0 -57 2 -92.5
t10.5 -81t27.5 -82t50 -67.5q105 -105 289 -105q78 0 149 25.5t115 69.5q25 25 42.5 50t28.5 60.5t17 59.5t8.5 78t3 82.5t0.5 103.5v780h88v-770zM838 1528l-31 -64l-428 158l43 98z" />
    <glyph glyph-name="Uacute" unicode="&#xda;" horiz-adv-x="1239" 
d="M1079 596v-52.5v-56t-1 -51.5t-3.5 -55.5t-6.5 -50t-10 -52.5t-15 -46.5t-20.5 -48.5t-27 -41.5t-34.5 -41.5q-123 -123 -340 -123q-218 0 -345 127q-21 21 -38 43t-29 50.5t-20.5 47.5t-14 57t-8.5 54.5t-4.5 64t-2 62.5t0 72.5t0.5 71.5v739h88v-881q0 -57 2 -92.5
t10.5 -81t27.5 -82t50 -67.5q105 -105 289 -105q78 0 149 25.5t115 69.5q25 25 42.5 50t28.5 60.5t17 59.5t8.5 78t3 82.5t0.5 103.5v780h88v-770zM854 1622l-428 -158l-31 64l416 192z" />
    <glyph glyph-name="Ucircumflex" unicode="&#xdb;" horiz-adv-x="1239" 
d="M1079 596v-52.5v-56t-1 -51.5t-3.5 -55.5t-6.5 -50t-10 -52.5t-15 -46.5t-20.5 -48.5t-27 -41.5t-34.5 -41.5q-123 -123 -340 -123q-218 0 -345 127q-21 21 -38 43t-29 50.5t-20.5 47.5t-14 57t-8.5 54.5t-4.5 64t-2 62.5t0 72.5t0.5 71.5v739h88v-881q0 -57 2 -92.5
t10.5 -81t27.5 -82t50 -67.5q105 -105 289 -105q78 0 149 25.5t115 69.5q25 25 42.5 50t28.5 60.5t17 59.5t8.5 78t3 82.5t0.5 103.5v780h88v-770zM911 1526l-39 -62l-260 138l-260 -138l-43 62l303 184z" />
    <glyph glyph-name="Udieresis" unicode="&#xdc;" horiz-adv-x="1239" 
d="M1079 596v-52.5v-56t-1 -51.5t-3.5 -55.5t-6.5 -50t-10 -52.5t-15 -46.5t-20.5 -48.5t-27 -41.5t-34.5 -41.5q-123 -123 -340 -123q-218 0 -345 127q-21 21 -38 43t-29 50.5t-20.5 47.5t-14 57t-8.5 54.5t-4.5 64t-2 62.5t0 72.5t0.5 71.5v739h88v-881q0 -57 2 -92.5
t10.5 -81t27.5 -82t50 -67.5q105 -105 289 -105q78 0 149 25.5t115 69.5q25 25 42.5 50t28.5 60.5t17 59.5t8.5 78t3 82.5t0.5 103.5v780h88v-770zM836 1571q0 -31 -20.5 -52.5t-51.5 -21.5t-52.5 21.5t-21.5 52.5q0 30 21.5 50.5t52.5 20.5t51.5 -20t20.5 -51zM549 1571
q0 -31 -20.5 -52.5t-51.5 -21.5t-52.5 21.5t-21.5 52.5q0 30 21.5 50.5t52.5 20.5t51.5 -20t20.5 -51z" />
    <glyph glyph-name="Yacute" unicode="&#xdd;" horiz-adv-x="1079" 
d="M1022 1366l-438 -827v-539h-88v539l-439 827h103l385 -735l379 735h98zM770 1622l-428 -158l-31 64l416 192z" />
    <glyph glyph-name="Thorn" unicode="&#xde;" horiz-adv-x="1085" 
d="M969 707q0 -178 -117 -295q-103 -103 -336 -103h-248v-309h-88v1366h88v-272h203q141 0 231.5 -19t155.5 -84q111 -111 111 -284zM879 713q0 138 -91 229q-28 28 -59.5 44t-80 22.5t-84.5 8t-113 1.5h-183v-633h238q198 0 278 80q95 95 95 248z" />
    <glyph glyph-name="germandbls" unicode="&#xdf;" horiz-adv-x="1052" 
d="M961 309q0 -104 -52.5 -181.5t-134 -114t-178.5 -36.5q-52 0 -100.5 10t-81 24.5t-50 24t-24.5 15.5l39 68q108 -60 213 -60q121 0 198.5 64t77.5 176q0 96 -90 186q-21 21 -99 80.5t-112 93.5q-28 28 -38.5 48.5t-10.5 52.5q0 36 24 73.5t58 72t68 71t58 83.5t24 97
q0 117 -69.5 189.5t-180.5 72.5q-108 0 -181 -73q-46 -46 -67 -118.5t-21 -232.5v-995h-84v911q0 197 8 260q17 144 97 222q104 104 254 104q146 0 241 -95.5t95 -240.5q0 -61 -22.5 -116t-54 -93t-63.5 -70.5t-54.5 -61.5t-22.5 -52q0 -10 1.5 -17t6 -14.5t7 -11t12 -12.5
t12.5 -13q21 -21 65 -54.5t80 -63.5t73 -69.5t58 -91.5t21 -112z" />
    <glyph glyph-name="agrave" unicode="&#xe0;" horiz-adv-x="929" 
d="M797 0h-84v74q-1 -1 -20.5 -11.5t-35.5 -19t-47 -21.5t-61 -21t-70.5 -14.5t-81.5 -6.5q-140 0 -226.5 78t-86.5 208q0 64 23.5 115.5t57.5 84t88.5 56t101 35.5t110 18.5t100.5 7.5t88 1h60v53q0 5 0.5 31t0 34.5t-2 31t-5 34t-8.5 29t-14.5 31.5t-21.5 26
q-70 70 -205 70q-70 0 -137.5 -21t-97 -37.5t-36.5 -23.5l-43 61q3 4 17.5 13.5t44.5 24.5t66.5 28t89.5 22.5t108 9.5q160 0 250 -90q45 -45 61.5 -102.5t16.5 -169.5v-639zM713 147v363h-72q-84 0 -151.5 -6.5t-128 -23.5t-101.5 -44t-64.5 -70.5t-23.5 -101.5
q0 -85 60.5 -146t185.5 -61q28 0 56.5 3.5t53 9.5t49 14.5t43.5 16t36.5 16t28.5 14.5t19 11zM707 1180l-31 -64l-428 158l43 98z" />
    <glyph glyph-name="aacute" unicode="&#xe1;" horiz-adv-x="929" 
d="M797 0h-84v74q-1 -1 -20.5 -11.5t-35.5 -19t-47 -21.5t-61 -21t-70.5 -14.5t-81.5 -6.5q-140 0 -226.5 78t-86.5 208q0 64 23.5 115.5t57.5 84t88.5 56t101 35.5t110 18.5t100.5 7.5t88 1h60v53q0 5 0.5 31t0 34.5t-2 31t-5 34t-8.5 29t-14.5 31.5t-21.5 26
q-70 70 -205 70q-70 0 -137.5 -21t-97 -37.5t-36.5 -23.5l-43 61q3 4 17.5 13.5t44.5 24.5t66.5 28t89.5 22.5t108 9.5q160 0 250 -90q45 -45 61.5 -102.5t16.5 -169.5v-639zM713 147v363h-72q-84 0 -151.5 -6.5t-128 -23.5t-101.5 -44t-64.5 -70.5t-23.5 -101.5
q0 -85 60.5 -146t185.5 -61q28 0 56.5 3.5t53 9.5t49 14.5t43.5 16t36.5 16t28.5 14.5t19 11zM694 1274l-428 -158l-30 64l415 192z" />
    <glyph glyph-name="acircumflex" unicode="&#xe2;" horiz-adv-x="929" 
d="M797 0h-84v74q-1 -1 -20.5 -11.5t-35.5 -19t-47 -21.5t-61 -21t-70.5 -14.5t-81.5 -6.5q-140 0 -226.5 78t-86.5 208q0 64 23.5 115.5t57.5 84t88.5 56t101 35.5t110 18.5t100.5 7.5t88 1h60v53q0 5 0.5 31t0 34.5t-2 31t-5 34t-8.5 29t-14.5 31.5t-21.5 26
q-70 70 -205 70q-70 0 -137.5 -21t-97 -37.5t-36.5 -23.5l-43 61q3 4 17.5 13.5t44.5 24.5t66.5 28t89.5 22.5t108 9.5q160 0 250 -90q45 -45 61.5 -102.5t16.5 -169.5v-639zM713 147v363h-72q-84 0 -151.5 -6.5t-128 -23.5t-101.5 -44t-64.5 -70.5t-23.5 -101.5
q0 -85 60.5 -146t185.5 -61q28 0 56.5 3.5t53 9.5t49 14.5t43.5 16t36.5 16t28.5 14.5t19 11zM758 1188l-39 -62l-260 138l-260 -138l-43 62l303 184z" />
    <glyph glyph-name="atilde" unicode="&#xe3;" horiz-adv-x="929" 
d="M797 0h-84v74q-1 -1 -20.5 -11.5t-35.5 -19t-47 -21.5t-61 -21t-70.5 -14.5t-81.5 -6.5q-140 0 -226.5 78t-86.5 208q0 64 23.5 115.5t57.5 84t88.5 56t101 35.5t110 18.5t100.5 7.5t88 1h60v53q0 5 0.5 31t0 34.5t-2 31t-5 34t-8.5 29t-14.5 31.5t-21.5 26
q-70 70 -205 70q-70 0 -137.5 -21t-97 -37.5t-36.5 -23.5l-43 61q3 4 17.5 13.5t44.5 24.5t66.5 28t89.5 22.5t108 9.5q160 0 250 -90q45 -45 61.5 -102.5t16.5 -169.5v-639zM713 147v363h-72q-84 0 -151.5 -6.5t-128 -23.5t-101.5 -44t-64.5 -70.5t-23.5 -101.5
q0 -85 60.5 -146t185.5 -61q28 0 56.5 3.5t53 9.5t49 14.5t43.5 16t36.5 16t28.5 14.5t19 11zM764 1260q-15 -15 -25 -23.5t-35 -25t-58.5 -25t-72.5 -8.5q-36 0 -112 22.5t-117 22.5q-33 0 -59.5 -7.5t-37 -14t-34.5 -23.5l-51 59q33 28 51 40.5t54 26t77 13.5
q38 0 115.5 -24.5t115.5 -24.5q21 0 40.5 3t32 7t25.5 11t18.5 11t14 11t9.5 8z" />
    <glyph glyph-name="adieresis" unicode="&#xe4;" horiz-adv-x="929" 
d="M797 0h-84v74q-1 -1 -20.5 -11.5t-35.5 -19t-47 -21.5t-61 -21t-70.5 -14.5t-81.5 -6.5q-140 0 -226.5 78t-86.5 208q0 64 23.5 115.5t57.5 84t88.5 56t101 35.5t110 18.5t100.5 7.5t88 1h60v53q0 5 0.5 31t0 34.5t-2 31t-5 34t-8.5 29t-14.5 31.5t-21.5 26
q-70 70 -205 70q-70 0 -137.5 -21t-97 -37.5t-36.5 -23.5l-43 61q3 4 17.5 13.5t44.5 24.5t66.5 28t89.5 22.5t108 9.5q160 0 250 -90q45 -45 61.5 -102.5t16.5 -169.5v-639zM713 147v363h-72q-84 0 -151.5 -6.5t-128 -23.5t-101.5 -44t-64.5 -70.5t-23.5 -101.5
q0 -85 60.5 -146t185.5 -61q28 0 56.5 3.5t53 9.5t49 14.5t43.5 16t36.5 16t28.5 14.5t19 11zM684 1247q0 -31 -20.5 -52t-51.5 -21t-52 21t-21 52t21 51.5t52 20.5t51.5 -20.5t20.5 -51.5zM397 1247q0 -31 -20 -52t-51 -21t-52.5 21t-21.5 52t21.5 51.5t52.5 20.5t51 -20.5
t20 -51.5z" />
    <glyph glyph-name="aring" unicode="&#xe5;" horiz-adv-x="929" 
d="M797 0h-84v74q-1 -1 -20.5 -11.5t-35.5 -19t-47 -21.5t-61 -21t-70.5 -14.5t-81.5 -6.5q-140 0 -226.5 78t-86.5 208q0 64 23.5 115.5t57.5 84t88.5 56t101 35.5t110 18.5t100.5 7.5t88 1h60v53q0 5 0.5 31t0 34.5t-2 31t-5 34t-8.5 29t-14.5 31.5t-21.5 26
q-70 70 -205 70q-70 0 -137.5 -21t-97 -37.5t-36.5 -23.5l-43 61q3 4 17.5 13.5t44.5 24.5t66.5 28t89.5 22.5t108 9.5q160 0 250 -90q45 -45 61.5 -102.5t16.5 -169.5v-639zM713 147v363h-72q-84 0 -151.5 -6.5t-128 -23.5t-101.5 -44t-64.5 -70.5t-23.5 -101.5
q0 -85 60.5 -146t185.5 -61q28 0 56.5 3.5t53 9.5t49 14.5t43.5 16t36.5 16t28.5 14.5t19 11zM664 1280q0 -80 -58 -137.5t-137 -57.5t-137 57.5t-58 137.5q0 83 57.5 139t137.5 56q82 0 138.5 -58t56.5 -137zM592 1280q0 53 -36 88t-87 35q-49 0 -85 -36.5t-36 -86.5
t36 -85.5t85 -35.5q52 0 87.5 35.5t35.5 85.5z" />
    <glyph glyph-name="ae" unicode="&#xe6;" horiz-adv-x="1585" 
d="M1493 545q0 -16 -4 -62h-717q0 -191 95.5 -304t265.5 -113q76 0 148.5 21t106.5 42l35 21l41 -70q-10 -10 -46 -30t-119.5 -44t-172.5 -24q-66 0 -124 15t-97.5 39.5t-61.5 43t-38 37.5q-43 -43 -145.5 -88t-231.5 -45q-156 0 -246 77t-90 197q0 58 17 104t44.5 77t70 54
t86 36t101 20.5t105.5 9.5t109 2h63v76q0 5 0.5 31t0 34.5t-2 31t-5 34t-8.5 29t-14.5 31.5t-21.5 26q-70 70 -205 70q-70 0 -137.5 -21t-96.5 -37.5t-36 -23.5l-43 61q3 4 17 13.5t44 24.5t66.5 28t89.5 22.5t108 9.5q160 0 250 -90q50 -50 66 -112q9 15 19 29.5t31 40
t49.5 46t65.5 41t88 32t109 11.5q162 0 266.5 -120.5t104.5 -333.5zM1407 561q0 68 -17 131t-50.5 116.5t-89.5 85.5t-128 32q-138 0 -237.5 -100t-108.5 -265h631zM758 180q-41 74 -56.5 142.5t-15.5 160.5h-65q-46 0 -81 -1t-82.5 -6.5t-82 -14t-71.5 -25.5t-60.5 -40
t-38.5 -58.5t-15 -79.5q0 -88 62.5 -139t169.5 -51q43 0 84 6t73.5 15.5t60 20.5t49 23.5t35.5 21.5t24 17z" />
    <glyph glyph-name="ccedilla" unicode="&#xe7;" horiz-adv-x="927" 
d="M862 74q-7 -10 -47 -30t-117 -41t-155 -21h-13l-18 -107q32 19 72 19q73 0 117 -45t44 -119q0 -79 -56.5 -126.5t-127.5 -47.5q-75 0 -137 32l25 58q58 -25 96 -25q64 0 91.5 32.5t27.5 72.5q0 44 -28.5 72t-74.5 28q-49 0 -86 -27l-43 25l35 164q-170 25 -272.5 150
t-102.5 327q0 237 131 385.5t346 148.5q76 0 145.5 -22t97 -39.5t38.5 -28.5l-43 -63q-1 0 -8 5t-12.5 8.5t-17 9.5t-23 11t-26.5 11t-32 10.5t-36.5 8.5t-42 6t-46.5 2q-173 0 -278 -121.5t-105 -313.5q0 -189 102.5 -303t258.5 -114q38 0 76 5t65 12.5t54 17t42 17t29 15
t16 8.5z" />
    <glyph glyph-name="egrave" unicode="&#xe8;" horiz-adv-x="993" 
d="M901 545q0 -16 -4 -62h-717q0 -191 95.5 -304t265.5 -113q76 0 148.5 21t106.5 42l35 21l41 -70q-4 -4 -20 -14t-48.5 -25t-70.5 -27.5t-91.5 -22t-106.5 -9.5q-205 0 -324 136.5t-119 362.5q0 239 118.5 378.5t319.5 139.5q162 0 266.5 -120.5t104.5 -333.5zM815 561
q0 68 -17 131t-50.5 116.5t-89.5 85.5t-128 32q-138 0 -237.5 -100t-108.5 -265h631zM737 1180l-30 -64l-428 158l43 98z" />
    <glyph glyph-name="eacute" unicode="&#xe9;" horiz-adv-x="993" 
d="M901 545q0 -16 -4 -62h-717q0 -191 95.5 -304t265.5 -113q76 0 148.5 21t106.5 42l35 21l41 -70q-4 -4 -20 -14t-48.5 -25t-70.5 -27.5t-91.5 -22t-106.5 -9.5q-205 0 -324 136.5t-119 362.5q0 239 118.5 378.5t319.5 139.5q162 0 266.5 -120.5t104.5 -333.5zM815 561
q0 68 -17 131t-50.5 116.5t-89.5 85.5t-128 32q-138 0 -237.5 -100t-108.5 -265h631zM762 1274l-428 -158l-31 64l416 192z" />
    <glyph glyph-name="ecircumflex" unicode="&#xea;" horiz-adv-x="993" 
d="M901 545q0 -16 -4 -62h-717q0 -191 95.5 -304t265.5 -113q76 0 148.5 21t106.5 42l35 21l41 -70q-4 -4 -20 -14t-48.5 -25t-70.5 -27.5t-91.5 -22t-106.5 -9.5q-205 0 -324 136.5t-119 362.5q0 239 118.5 378.5t319.5 139.5q162 0 266.5 -120.5t104.5 -333.5zM815 561
q0 68 -17 131t-50.5 116.5t-89.5 85.5t-128 32q-138 0 -237.5 -100t-108.5 -265h631zM817 1188l-39 -62l-260 138l-260 -138l-43 62l303 184z" />
    <glyph glyph-name="edieresis" unicode="&#xeb;" horiz-adv-x="993" 
d="M901 545q0 -16 -4 -62h-717q0 -191 95.5 -304t265.5 -113q76 0 148.5 21t106.5 42l35 21l41 -70q-4 -4 -20 -14t-48.5 -25t-70.5 -27.5t-91.5 -22t-106.5 -9.5q-205 0 -324 136.5t-119 362.5q0 239 118.5 378.5t319.5 139.5q162 0 266.5 -120.5t104.5 -333.5zM815 561
q0 68 -17 131t-50.5 116.5t-89.5 85.5t-128 32q-138 0 -237.5 -100t-108.5 -265h631zM733 1247q0 -31 -20 -52t-51 -21t-52.5 21t-21.5 52t21.5 51.5t52.5 20.5t51 -20.5t20 -51.5zM446 1247q0 -31 -20 -52t-51 -21t-52.5 21t-21.5 52t21.5 51.5t52.5 20.5t51 -20.5
t20 -51.5z" />
    <glyph glyph-name="igrave" unicode="&#xec;" horiz-adv-x="378" 
d="M231 0h-84v977h84v-977zM420 1180l-31 -64l-428 158l43 98z" />
    <glyph glyph-name="iacute" unicode="&#xed;" horiz-adv-x="378" 
d="M231 0h-84v977h84v-977zM420 1274l-428 -158l-31 64l416 192z" />
    <glyph glyph-name="icircumflex" unicode="&#xee;" horiz-adv-x="378" 
d="M231 0h-84v977h84v-977zM489 1188l-38 -62l-261 138l-260 -138l-43 62l303 184z" />
    <glyph glyph-name="idieresis" unicode="&#xef;" horiz-adv-x="378" 
d="M231 0h-84v977h84v-977zM406 1247q0 -31 -20.5 -52t-51.5 -21t-52.5 21t-21.5 52t21.5 51.5t52.5 20.5t51.5 -20.5t20.5 -51.5zM119 1247q0 -31 -20.5 -52t-51.5 -21t-52.5 21t-21.5 52t21.5 51.5t52.5 20.5t51.5 -20.5t20.5 -51.5z" />
    <glyph glyph-name="eth" unicode="&#xf0;" horiz-adv-x="1017" 
d="M926 688q0 -327 -112 -516.5t-306 -198.5q-179 -8 -292.5 130.5t-123.5 377.5q-10 233 95.5 375.5t285.5 142.5q62 0 119.5 -12.5t108 -37.5t70 -36.5t56.5 -35.5q-24 271 -206 432l-252 -127l-33 57l225 113q-69 41 -177 66t-230 28l4 74q297 -3 489 -123l187 94l32 -57
l-164 -84q118 -111 171 -271.5t53 -390.5zM836 668q0 4 -2.5 48.5t-2.5 65.5q-69 65 -163.5 102.5t-188.5 37.5q-142 0 -223.5 -122.5t-73.5 -318.5q8 -197 95 -313.5t225 -110.5q150 6 242 162t92 449z" />
    <glyph glyph-name="ntilde" unicode="&#xf1;" horiz-adv-x="1003" 
d="M870 0h-84v586q0 81 -2 119.5t-16 84t-43 74.5q-58 58 -174 58q-136 0 -320 -109v-813h-84v977h84v-84q18 14 54 34t117 46t157 26q150 0 227 -77q52 -52 68 -115t16 -182v-625zM817 1260q-13 -13 -18.5 -18t-25.5 -20t-37.5 -22.5t-47 -14.5t-61.5 -7q-36 0 -112.5 22.5
t-117.5 22.5q-33 0 -59.5 -7.5t-37 -14t-34.5 -23.5l-51 59q33 28 51 40.5t54 26t77 13.5q38 0 116 -24.5t116 -24.5q21 0 40.5 3t32 7t25 11t18.5 11.5t14 11t9 7.5z" />
    <glyph glyph-name="ograve" unicode="&#xf2;" horiz-adv-x="1044" 
d="M952 475q0 -229 -116.5 -363.5t-315.5 -134.5q-196 0 -312 137.5t-116 374.5q0 235 116 372.5t320 137.5q197 0 310.5 -138.5t113.5 -385.5zM864 483q0 196 -97 319.5t-245 123.5q-157 0 -249.5 -119t-92.5 -315t97 -317.5t245 -121.5q161 0 251.5 116t90.5 314z
M739 1180l-30 -64l-428 158l43 98z" />
    <glyph glyph-name="oacute" unicode="&#xf3;" horiz-adv-x="1044" 
d="M952 475q0 -229 -116.5 -363.5t-315.5 -134.5q-196 0 -312 137.5t-116 374.5q0 235 116 372.5t320 137.5q197 0 310.5 -138.5t113.5 -385.5zM864 483q0 196 -97 319.5t-245 123.5q-157 0 -249.5 -119t-92.5 -315t97 -317.5t245 -121.5q161 0 251.5 116t90.5 314z
M760 1274l-428 -158l-31 64l416 192z" />
    <glyph glyph-name="ocircumflex" unicode="&#xf4;" horiz-adv-x="1044" 
d="M952 475q0 -229 -116.5 -363.5t-315.5 -134.5q-196 0 -312 137.5t-116 374.5q0 235 116 372.5t320 137.5q197 0 310.5 -138.5t113.5 -385.5zM864 483q0 196 -97 319.5t-245 123.5q-157 0 -249.5 -119t-92.5 -315t97 -317.5t245 -121.5q161 0 251.5 116t90.5 314z
M825 1188l-39 -62l-260 138l-260 -138l-43 62l303 184z" />
    <glyph glyph-name="otilde" unicode="&#xf5;" horiz-adv-x="1044" 
d="M952 475q0 -229 -116.5 -363.5t-315.5 -134.5q-196 0 -312 137.5t-116 374.5q0 235 116 372.5t320 137.5q197 0 310.5 -138.5t113.5 -385.5zM864 483q0 196 -97 319.5t-245 123.5q-157 0 -249.5 -119t-92.5 -315t97 -317.5t245 -121.5q161 0 251.5 116t90.5 314z
M819 1260q-13 -13 -18.5 -18t-25.5 -20t-37.5 -22.5t-47 -14.5t-61.5 -7q-36 0 -112.5 22.5t-117.5 22.5q-33 0 -59.5 -7.5t-37 -14t-34.5 -23.5l-51 59q33 28 51 40.5t54 26t77 13.5q38 0 116 -24.5t116 -24.5q21 0 40.5 3t32 7t25 11t18.5 11.5t14 11t9 7.5z" />
    <glyph glyph-name="odieresis" unicode="&#xf6;" horiz-adv-x="1044" 
d="M952 475q0 -229 -116.5 -363.5t-315.5 -134.5q-196 0 -312 137.5t-116 374.5q0 235 116 372.5t320 137.5q197 0 310.5 -138.5t113.5 -385.5zM864 483q0 196 -97 319.5t-245 123.5q-157 0 -249.5 -119t-92.5 -315t97 -317.5t245 -121.5q161 0 251.5 116t90.5 314z
M727 1247q0 -31 -20.5 -52t-51.5 -21t-52 21t-21 52t21 51.5t52 20.5t51.5 -20.5t20.5 -51.5zM440 1247q0 -31 -20 -52t-51 -21t-52.5 21t-21.5 52t21.5 51.5t52.5 20.5t51 -20.5t20 -51.5z" />
    <glyph glyph-name="divide" unicode="&#xf7;" 
d="M666 958q0 -31 -20.5 -52t-51.5 -21t-52.5 21t-21.5 52t21.5 51.5t52.5 20.5t51.5 -20.5t20.5 -51.5zM1065 475h-942v78h942v-78zM666 78q0 -31 -20.5 -52.5t-51.5 -21.5t-52.5 21.5t-21.5 52.5t21.5 51.5t52.5 20.5t51.5 -20.5t20.5 -51.5z" />
    <glyph glyph-name="oslash" unicode="&#xf8;" horiz-adv-x="1044" 
d="M952 475q0 -229 -116.5 -363.5t-315.5 -134.5q-119 0 -203 48l-69 -117l-68 41l72 121q-76 65 -118 173t-42 246q0 235 116 372.5t320 137.5q136 0 230 -63l67 117l70 -39l-76 -131q64 -67 98.5 -172t34.5 -236zM864 483q0 191 -94 316l-410 -701q63 -45 162 -45
q161 0 251.5 116t90.5 314zM713 858q-84 68 -191 68q-157 0 -249.5 -119t-92.5 -315q0 -105 33.5 -197.5t85.5 -144.5z" />
    <glyph glyph-name="ugrave" unicode="&#xf9;" horiz-adv-x="1003" 
d="M856 0h-84v84q-1 -1 -16 -10.5t-28.5 -17t-37 -19.5t-49 -21t-56 -18t-67.5 -13.5t-76 -4.5q-137 0 -225 88q-56 56 -70 124.5t-14 192.5v592h84v-600q0 -120 10 -163q14 -56 49 -91q68 -68 177 -68q34 0 69.5 5.5t65.5 14.5t56.5 19.5t49.5 22.5t37.5 20t27.5 17l13 8
v815h84v-977zM723 1180l-31 -64l-428 158l43 98z" />
    <glyph glyph-name="uacute" unicode="&#xfa;" horiz-adv-x="1003" 
d="M856 0h-84v84q-1 -1 -16 -10.5t-28.5 -17t-37 -19.5t-49 -21t-56 -18t-67.5 -13.5t-76 -4.5q-137 0 -225 88q-56 56 -70 124.5t-14 192.5v592h84v-600q0 -120 10 -163q14 -56 49 -91q68 -68 177 -68q34 0 69.5 5.5t65.5 14.5t56.5 19.5t49.5 22.5t37.5 20t27.5 17l13 8
v815h84v-977zM725 1274l-428 -158l-31 64l416 192z" />
    <glyph glyph-name="ucircumflex" unicode="&#xfb;" horiz-adv-x="1003" 
d="M856 0h-84v84q-1 -1 -16 -10.5t-28.5 -17t-37 -19.5t-49 -21t-56 -18t-67.5 -13.5t-76 -4.5q-137 0 -225 88q-56 56 -70 124.5t-14 192.5v592h84v-600q0 -120 10 -163q14 -56 49 -91q68 -68 177 -68q34 0 69.5 5.5t65.5 14.5t56.5 19.5t49.5 22.5t37.5 20t27.5 17l13 8
v815h84v-977zM797 1188l-39 -62l-260 138l-260 -138l-43 62l303 184z" />
    <glyph glyph-name="udieresis" unicode="&#xfc;" horiz-adv-x="1003" 
d="M856 0h-84v84q-1 -1 -16 -10.5t-28.5 -17t-37 -19.5t-49 -21t-56 -18t-67.5 -13.5t-76 -4.5q-137 0 -225 88q-56 56 -70 124.5t-14 192.5v592h84v-600q0 -120 10 -163q14 -56 49 -91q68 -68 177 -68q34 0 69.5 5.5t65.5 14.5t56.5 19.5t49.5 22.5t37.5 20t27.5 17l13 8
v815h84v-977zM711 1247q0 -31 -20.5 -52t-51.5 -21t-52.5 21t-21.5 52t21.5 51.5t52.5 20.5t51.5 -20.5t20.5 -51.5zM424 1247q0 -31 -20.5 -52t-51.5 -21t-52 21t-21 52t21 51.5t52 20.5t51.5 -20.5t20.5 -51.5z" />
    <glyph glyph-name="yacute" unicode="&#xfd;" horiz-adv-x="958" 
d="M903 977l-385 -1063q-75 -204 -145 -274q-101 -101 -248 -101q-40 0 -79.5 7t-57 12.5t-25.5 9.5l25 74q1 0 11.5 -3.5t20.5 -6.5t25.5 -6t35.5 -5t42 -2q110 0 178 68q19 19 36 43t35.5 62.5t25.5 53.5t28.5 68.5t22.5 56.5l-402 1006h96l353 -889l315 889h92zM715 1274
l-428 -158l-31 64l416 192z" />
    <glyph glyph-name="thorn" unicode="&#xfe;" horiz-adv-x="1036" 
d="M944 510q0 -234 -131.5 -381t-343.5 -147q-131 0 -238 61v-477h-84v1907h84v-566q9 8 29 20t57 30t92 30t113 12q188 0 305 -134.5t117 -354.5zM856 516q0 181 -93.5 294.5t-248.5 113.5q-31 0 -60.5 -4t-53 -10.5t-46.5 -15.5t-39 -17.5t-32.5 -19t-24.5 -17t-17 -14
t-10 -7.5v-688q115 -72 244 -72q172 0 276.5 126t104.5 331z" />
    <glyph glyph-name="ydieresis" unicode="&#xff;" horiz-adv-x="958" 
d="M903 977l-385 -1063q-75 -204 -145 -274q-101 -101 -248 -101q-40 0 -79.5 7t-57 12.5t-25.5 9.5l25 74q1 0 11.5 -3.5t20.5 -6.5t25.5 -6t35.5 -5t42 -2q110 0 178 68q19 19 36 43t35.5 62.5t25.5 53.5t28.5 68.5t22.5 56.5l-402 1006h96l353 -889l315 889h92zM707 1247
q0 -31 -20.5 -52t-51.5 -21t-52.5 21t-21.5 52t21.5 51.5t52.5 20.5t51.5 -20.5t20.5 -51.5zM420 1247q0 -31 -20.5 -52t-51.5 -21t-52.5 21t-21.5 52t21.5 51.5t52.5 20.5t51.5 -20.5t20.5 -51.5z" />
    <glyph glyph-name="Idotaccent" unicode="&#x130;" horiz-adv-x="444" 
d="M268 0h-88v1366h88v-1366zM295 1571q0 -31 -20.5 -52.5t-51.5 -21.5t-52 21.5t-21 52.5t21 51t52 20t51.5 -20t20.5 -51z" />
    <glyph glyph-name="dotlessi" unicode="&#x131;" horiz-adv-x="378" 
d="M231 0h-84v977h84v-977z" />
    <glyph glyph-name="Lslash" unicode="&#x141;" horiz-adv-x="983" 
d="M911 0h-692v623l-182 -136l-41 52l223 168v659h88v-612l264 194l41 -51l-305 -223v-592h604v-82z" />
    <glyph glyph-name="lslash" unicode="&#x142;" horiz-adv-x="540" 
d="M545 915l-246 -182v-733h-84v688l-180 -139l-39 51l219 164v709h84v-662l207 156z" />
    <glyph glyph-name="OE" unicode="&#x152;" horiz-adv-x="1779" 
d="M1659 0h-707q-248 0 -390 30.5t-243 131.5q-98 98 -150 230t-52 286q0 324 198 522q99 99 223.5 132.5t327.5 33.5h776v-80h-604v-528h568v-76h-568v-600h621v-82zM950 80v1208h-51q-60 0 -85.5 -0.5t-78 -3t-80.5 -7.5t-71.5 -15.5t-74 -25.5t-66 -38.5t-66.5 -54.5
q-81 -79 -122.5 -202.5t-41.5 -266.5q0 -279 170 -449q91 -91 208 -118t357 -27h2z" />
    <glyph glyph-name="oe" unicode="&#x153;" horiz-adv-x="1757" 
d="M1665 545q0 -16 -4 -62h-717q0 -191 95.5 -304t265.5 -113q76 0 148.5 21t106.5 42l35 21l41 -70q-10 -10 -46 -30t-119.5 -44t-172.5 -24q-138 0 -239.5 64.5t-151.5 180.5q-52 -120 -151 -185t-236 -65q-196 0 -312 137.5t-116 374.5q0 235 116 372.5t320 137.5
q134 0 231 -64t146 -187q53 121 153 186t236 65q162 0 266.5 -120.5t104.5 -333.5zM1579 561q0 68 -17 131t-50.5 116.5t-89.5 85.5t-128 32q-138 0 -237.5 -100t-108.5 -265h631zM864 483q0 196 -97 319.5t-245 123.5q-157 0 -249.5 -119t-92.5 -315t97 -317.5t245 -121.5
q161 0 251.5 116t90.5 314z" />
    <glyph glyph-name="Scaron" unicode="&#x160;" horiz-adv-x="1030" 
d="M901 369q0 -174 -107.5 -283t-310.5 -109q-217 0 -379 142l52 67l10 -8l22 -16t30.5 -20.5t39 -23t46 -22t53 -19.5t58 -13t62.5 -5q160 0 246 82.5t86 220.5q0 101 -78 179q-44 44 -117 83.5t-138 64t-138 64t-117 83.5q-82 82 -82 215q0 149 106 244.5t279 95.5
q224 -1 361 -144l-56 -55l-10 10q-10 10 -21.5 19.5t-30 23t-42 24.5t-52 21.5t-65.5 16.5t-76 6q-135 0 -222 -74.5t-87 -185.5q0 -92 66 -158q42 -42 114 -79t138 -61t140.5 -63t119.5 -84q100 -100 100 -239zM836 1649l-304 -185l-299 185l39 61l260 -137l261 137z" />
    <glyph glyph-name="scaron" unicode="&#x161;" horiz-adv-x="831" 
d="M725 260q0 -134 -92.5 -208.5t-251.5 -74.5q-52 0 -102.5 8.5t-86 21t-64 26t-42 23t-16.5 12.5l39 67q127 -82 264 -82q123 0 193.5 52.5t70.5 146.5q0 72 -55 127q-31 31 -88.5 57t-112 42.5t-115.5 45.5t-96 64q-64 64 -64 166q0 112 89 178.5t221 66.5
q75 0 144.5 -20t93.5 -33.5t38 -23.5l-39 -66q-17 12 -41.5 24.5t-79.5 29t-108 16.5q-97 0 -164 -45.5t-67 -124.5q0 -66 45 -111q30 -30 88 -56.5t112.5 -43t116 -46.5t98.5 -67q72 -72 72 -172zM715 1311l-303 -185l-299 185l39 61l260 -137l260 137z" />
    <glyph glyph-name="Ydieresis" unicode="&#x178;" horiz-adv-x="1079" 
d="M1022 1366l-438 -827v-539h-88v539l-439 827h103l385 -735l379 735h98zM760 1571q0 -31 -20.5 -52.5t-51.5 -21.5t-52.5 21.5t-21.5 52.5q0 30 21.5 50.5t52.5 20.5t51.5 -20t20.5 -51zM473 1571q0 -31 -20.5 -52.5t-51.5 -21.5t-52 21.5t-21 52.5t21 51t52 20t51.5 -20
t20.5 -51z" />
    <glyph glyph-name="Zcaron" unicode="&#x17d;" horiz-adv-x="1101" 
d="M1001 0h-903v72l787 1214h-744v80h844v-72l-780 -1212h796v-82zM854 1649l-303 -185l-299 185l39 61l260 -137l260 137z" />
    <glyph glyph-name="zcaron" unicode="&#x17e;" horiz-adv-x="925" 
d="M809 0h-719v70l598 835h-565v72h663v-68l-589 -833h612v-76zM762 1311l-303 -185l-299 185l39 61l260 -137l260 137z" />
    <glyph glyph-name="florin" unicode="&#x192;" 
d="M1118 1350l-31 -70q-56 31 -137 31q-95 0 -150.5 -58.5t-86.5 -205.5l-76 -353h319l-16 -80h-322l-133 -645q-1 -3 -10 -48.5t-12.5 -59.5t-13.5 -54.5t-17.5 -60.5t-19 -50t-24.5 -50t-28 -35q-72 -72 -190 -72q-26 0 -50.5 2.5t-42 6.5t-34 9t-25 9t-17.5 8l-9 4l31 70
q77 -29 145 -29q86 0 125 39q13 13 24.5 30.5t21 43t16.5 44.5t15.5 54t12 52t12 59t11.5 55l131 618h-269l17 80h266l70 324q0 2 4 23t6 29.5t7 31t9.5 36t11.5 35.5t15 37.5t17.5 34.5t21.5 34.5t26 29.5q82 82 207 82q90 0 172 -41z" />
    <glyph glyph-name="circumflex" unicode="&#x2c6;" horiz-adv-x="757" 
d="M680 1188l-39 -62l-260 138l-260 -138l-43 62l303 184z" />
    <glyph glyph-name="caron" unicode="&#x2c7;" horiz-adv-x="757" 
d="M680 1311l-303 -185l-299 185l39 61l260 -137l260 137z" />
    <glyph glyph-name="breve" unicode="&#x2d8;" horiz-adv-x="757" 
d="M641 1366q-11 -108 -80.5 -170.5t-183.5 -62.5t-182.5 62t-79.5 171h82q9 -64 56 -100.5t124 -36.5t124 36.5t58 100.5h82z" />
    <glyph glyph-name="dotaccent" unicode="&#x2d9;" horiz-adv-x="757" 
d="M451 1247q0 -31 -20.5 -52t-51.5 -21t-52.5 21t-21.5 52t21.5 51.5t52.5 20.5t51.5 -20.5t20.5 -51.5z" />
    <glyph glyph-name="ring" unicode="&#x2da;" horiz-adv-x="757" 
d="M573 1280q0 -80 -57.5 -137.5t-136.5 -57.5t-137 57.5t-58 137.5q0 83 57.5 139t137.5 56q82 0 138 -58t56 -137zM502 1280q0 53 -36 88t-87 35q-49 0 -85 -36.5t-36 -86.5t36 -85.5t85 -35.5q52 0 87.5 35.5t35.5 85.5z" />
    <glyph glyph-name="ogonek" unicode="&#x2db;" horiz-adv-x="757" 
d="M578 -387q-5 -5 -26.5 -17t-70.5 -26t-100 -14q-94 0 -148.5 57.5t-54.5 155.5q0 69 28.5 115t92.5 91l88 -26q-6 -5 -23 -18.5t-23 -18.5t-20 -18t-19.5 -20t-14.5 -20.5t-13 -25t-7 -27t-3 -32.5q0 -63 36.5 -98.5t98.5 -35.5q25 0 52 5.5t42.5 11.5t34.5 14l19 8z" />
    <glyph glyph-name="tilde" unicode="&#x2dc;" horiz-adv-x="757" 
d="M680 1260q-15 -15 -25 -23.5t-35 -25t-58.5 -25t-72.5 -8.5q-36 0 -112 22.5t-117 22.5q-33 0 -59.5 -7.5t-37 -14t-34.5 -23.5l-51 59q33 28 51 40.5t54 26t77 13.5q38 0 116 -24.5t116 -24.5q21 0 40.5 3t32 7t25 11t18.5 11.5t14 11t9 7.5z" />
    <glyph glyph-name="hungarumlaut" unicode="&#x2dd;" horiz-adv-x="757" 
d="M610 1372l-135 -342l-78 25l105 352zM360 1372l-131 -342l-79 25l104 352z" />
    <glyph glyph-name="Delta" unicode="&#x394;" horiz-adv-x="1406" 
d="M1210 0h-1013l479 1366h65zM1096 78l-389 1132l-396 -1132h785z" />
    <glyph glyph-name="Omega" unicode="&#x3a9;" horiz-adv-x="1656" 
d="M1460 0h-475v80q87 37 151.5 93.5t100 116.5t57 136t27.5 138t6 136q0 274 -138.5 444.5t-361.5 170.5t-362 -170.5t-139 -444.5q0 -60 5 -112.5t17 -114.5t37 -116t61.5 -105.5t93.5 -95.5t130 -76v-80h-473v80h350q-87 46 -151 116.5t-99.5 155.5t-51.5 172.5
t-16 182.5q0 196 76.5 352.5t213 244t308.5 87.5q171 0 307 -87.5t212.5 -244t76.5 -352.5q0 -461 -313 -627h350v-80z" />
    <glyph glyph-name="mu" unicode="&#x3bc;" horiz-adv-x="1017" 
d="M870 0h-84v78q-4 -2 -25.5 -14t-38 -20.5t-48.5 -21.5t-62 -21.5t-72 -14.5t-85 -6q-136 0 -224 88v-316h-84v1225h84v-600q0 -55 0.5 -75.5t5.5 -61.5t18.5 -68t35.5 -49q68 -68 176 -68q34 0 69.5 5.5t65.5 14.5t56.5 19.5t49.5 22.5t37.5 20t27.5 17l13 8v815h84v-977
z" />
    <glyph glyph-name="pi" unicode="&#x3c0;" horiz-adv-x="1345" 
d="M1149 8q-30 -10 -70 -10q-80 0 -135 55q-31 31 -40 77t-9 146v623h-465v-899h-84v899h-149v78h940v-78h-158v-600q0 -94 5.5 -132t25.5 -58q33 -33 88 -33q31 0 51 4v-72z" />
    <glyph glyph-name="figuredash" unicode="&#x2012;" horiz-adv-x="1163" 
d="M1053 475h-942v78h942v-78z" />
    <glyph glyph-name="endash" unicode="&#x2013;" horiz-adv-x="1300" 
d="M1122 475h-944v78h944v-78z" />
    <glyph glyph-name="emdash" unicode="&#x2014;" horiz-adv-x="2033" 
d="M1855 475h-1677v78h1677v-78z" />
    <glyph glyph-name="quoteleft" unicode="&#x2018;" horiz-adv-x="360" 
d="M285 1343q-8 -10 -20.5 -30t-32 -60.5t-33 -101t-13.5 -125.5h-110q0 64 17.5 128t44 111t47 76t36.5 45z" />
    <glyph glyph-name="quoteright" unicode="&#x2019;" horiz-adv-x="360" 
d="M285 1366q0 -64 -18 -128t-44.5 -111t-47 -76t-36.5 -45l-63 43q13 16 31 45.5t42.5 108.5t24.5 163h111z" />
    <glyph glyph-name="quotesinglbase" unicode="&#x201a;" horiz-adv-x="360" 
d="M285 125q0 -64 -18 -128t-44.5 -111t-47 -76.5t-36.5 -45.5l-63 43q8 10 20 30.5t32 61t33 101t13 125.5h111z" />
    <glyph glyph-name="quotedblleft" unicode="&#x201c;" horiz-adv-x="598" 
d="M522 1343q-13 -16 -31 -45.5t-42.5 -108.5t-24.5 -163h-111q0 64 18 128t44.5 111t47 76t36.5 45zM285 1343q-8 -10 -20.5 -30t-32 -60.5t-33 -101t-13.5 -125.5h-110q0 64 17.5 128t44 111t47 76t36.5 45z" />
    <glyph glyph-name="quotedblright" unicode="&#x201d;" horiz-adv-x="598" 
d="M522 1366q0 -64 -17.5 -128t-44 -111t-47 -76t-36.5 -45l-64 43q8 10 20.5 30t32 60.5t33 101t13.5 125.5h110zM285 1366q0 -64 -18 -128t-44.5 -111t-47 -76t-36.5 -45l-63 43q13 16 31 45.5t42.5 108.5t24.5 163h111z" />
    <glyph glyph-name="quotedblbase" unicode="&#x201e;" horiz-adv-x="598" 
d="M522 125q0 -64 -17.5 -128t-44 -111t-47 -76.5t-36.5 -45.5l-64 43q8 10 20.5 30t32 61t33 101.5t13.5 125.5h110zM285 125q0 -64 -18 -128t-44.5 -111t-47 -76.5t-36.5 -45.5l-63 43q8 10 20 30.5t32 61t33 101t13 125.5h111z" />
    <glyph glyph-name="dagger" unicode="&#x2020;" horiz-adv-x="1105" 
d="M958 760h-358l-10 -1008h-70l-12 1008h-361v86h359l-6 520h106l-4 -520h356v-86z" />
    <glyph glyph-name="daggerdbl" unicode="&#x2021;" horiz-adv-x="1105" 
d="M958 358h-362l-6 -606h-70l-8 606h-365v86h365l-4 316h-361v86h359l-6 520h106l-4 -520h356v-86h-358l-4 -316h362v-86z" />
    <glyph glyph-name="bullet" unicode="&#x2022;" horiz-adv-x="1093" 
d="M696 504q0 -62 -44 -106t-105 -44t-105.5 44t-44.5 106q0 61 44 105t106 44q61 0 105 -43.5t44 -105.5z" />
    <glyph glyph-name="ellipsis" unicode="&#x2026;" horiz-adv-x="1228" 
d="M1096 55q0 -29 -21.5 -50t-50.5 -21t-50.5 21t-21.5 50t21.5 50.5t50.5 21.5t50.5 -21.5t21.5 -50.5zM686 55q0 -29 -21.5 -50t-50.5 -21t-50 21t-21 50t21 50.5t50 21.5t50.5 -21.5t21.5 -50.5zM276 55q0 -29 -21 -50t-50 -21t-50.5 21t-21.5 50t21.5 50.5t50.5 21.5
t50 -21.5t21 -50.5z" />
    <glyph glyph-name="perthousand" unicode="&#x2030;" horiz-adv-x="2131" 
d="M668 1028q0 -170 -76 -265t-215 -95q-132 0 -208.5 88.5t-76.5 242.5q0 179 76.5 277t218.5 98q130 0 205.5 -93.5t75.5 -252.5zM578 1030q0 127 -49.5 201t-141.5 74q-100 0 -152.5 -78.5t-52.5 -220.5q0 -126 50 -197.5t145 -71.5t148 74t53 219zM1251 1380l-983 -1448
l-67 43l983 1455zM1384 352q0 -170 -75.5 -265t-214.5 -95q-132 0 -208.5 89t-76.5 243q0 179 76.5 276.5t218.5 97.5q130 0 205 -93.5t75 -252.5zM1294 354q0 127 -49 201t-141 74q-100 0 -152.5 -78.5t-52.5 -220.5q0 -126 50 -197.5t145 -71.5q94 0 147 74t53 219z
M2040 352q0 -170 -76 -265t-215 -95q-132 0 -208.5 89t-76.5 243q0 179 76.5 276.5t218.5 97.5q130 0 205.5 -93.5t75.5 -252.5zM1950 354q0 127 -49.5 201t-141.5 74q-100 0 -152.5 -78.5t-52.5 -220.5q0 -126 50 -197.5t145 -71.5t148 74t53 219z" />
    <glyph glyph-name="guilsinglleft" unicode="&#x2039;" horiz-adv-x="616" 
d="M483 166l-69 -47l-281 389l281 381l69 -49l-219 -332z" />
    <glyph glyph-name="guilsinglright" unicode="&#x203a;" horiz-adv-x="616" 
d="M483 508l-280 -389l-70 47l219 342l-219 332l70 49z" />
    <glyph glyph-name="fraction" unicode="&#x2044;" horiz-adv-x="0" 
d="M487 1380l-983 -1448l-67 43l983 1455z" />
    <glyph glyph-name="zerosuperior" unicode="&#x2070;" horiz-adv-x="759" 
d="M668 1028q0 -170 -76 -265t-215 -95q-132 0 -208.5 88.5t-76.5 242.5q0 179 76.5 277t218.5 98q130 0 205.5 -93.5t75.5 -252.5zM578 1030q0 127 -49.5 201t-141.5 74q-100 0 -152.5 -78.5t-52.5 -220.5q0 -126 50 -197.5t145 -71.5t148 74t53 219z" />
    <glyph glyph-name="foursuperior" unicode="&#x2074;" horiz-adv-x="759" 
d="M629 846h-99v-170h-73v170h-344v57l350 463h67v-457h99v-63zM457 909v348l-262 -348h262z" />
    <glyph glyph-name="fivesuperior" unicode="&#x2075;" horiz-adv-x="759" 
d="M598 895q0 -101 -69 -164t-173 -63q-53 0 -100.5 16.5t-66.5 29.5t-29 23l41 56q81 -56 149 -56q76 0 119 41t43 113q0 65 -42 110.5t-118 45.5q-69 0 -121 -39l-41 18v340h373v-72h-295v-204q36 26 101 26q106 0 167.5 -61.5t61.5 -159.5z" />
    <glyph glyph-name="sixsuperior" unicode="&#x2076;" horiz-adv-x="759" 
d="M616 903q0 -102 -63.5 -168.5t-165.5 -66.5q-122 0 -183 94.5t-61 234.5q0 71 13.5 134t42.5 119.5t82.5 90t126.5 33.5q47 0 91 -15.5t64 -29t31 -24.5l-39 -52q-67 54 -139 54q-49 0 -85.5 -23t-56.5 -64t-30.5 -87.5t-12.5 -102.5q24 42 69.5 68t102.5 26
q98 0 155.5 -62t57.5 -159zM539 899q0 70 -37 115t-105 45q-72 0 -111.5 -49.5t-39.5 -120.5q0 -66 40 -110t103 -44q69 0 109.5 48t40.5 116z" />
    <glyph glyph-name="sevensuperior" unicode="&#x2077;" horiz-adv-x="759" 
d="M606 1307l-274 -631h-86l278 618h-370v72h452v-59z" />
    <glyph glyph-name="eightsuperior" unicode="&#x2078;" horiz-adv-x="759" 
d="M618 864q0 -86 -66.5 -141t-170.5 -55q-107 0 -174.5 54t-67.5 140q0 65 34 109.5t85 60.5q-98 39 -98 154q0 85 63.5 136.5t159.5 51.5t156.5 -51.5t60.5 -134.5q0 -50 -28 -94.5t-76 -61.5q54 -15 88 -57t34 -111zM520 1186q0 56 -38 90.5t-99 34.5q-64 0 -103.5 -34.5
t-39.5 -90.5q0 -62 42.5 -94.5t100.5 -32.5q56 0 96.5 31.5t40.5 95.5zM537 864q0 62 -43 97.5t-113 35.5q-72 0 -116 -35.5t-44 -97.5q0 -61 43.5 -96t118.5 -35q70 0 112 35t42 96z" />
    <glyph glyph-name="ninesuperior" unicode="&#x2079;" horiz-adv-x="759" 
d="M616 1047q0 -56 -7.5 -107.5t-27 -102t-49 -87t-76.5 -59.5t-106 -23q-69 0 -120.5 26t-67.5 47l41 52q19 -19 59 -37.5t82 -18.5q169 0 188 277q-25 -42 -74.5 -67t-99.5 -25q-99 0 -157 62.5t-58 158.5q0 98 64.5 164.5t163.5 66.5q67 0 116.5 -29t76.5 -77.5
t39.5 -103.5t12.5 -117zM516 1151q0 67 -41.5 112.5t-105.5 45.5q-69 0 -108.5 -47.5t-39.5 -116.5q0 -71 35.5 -115.5t103.5 -44.5q70 0 113 46t43 120z" />
    <glyph glyph-name="parenleftsuperior" unicode="&#x207d;" horiz-adv-x="374" 
d="M92 1008q0 294 203 440l39 -45q-152 -133 -152 -391q0 -262 158 -402l-41 -47q-105 70 -156 188.5t-51 256.5z" />
    <glyph glyph-name="parenrightsuperior" unicode="&#x207e;" horiz-adv-x="374" 
d="M283 1004q0 -295 -203 -441l-39 45q152 133 152 391q0 262 -158 402l41 47q105 -70 156 -188t51 -256z" />
    <glyph glyph-name="zeroinferior" unicode="&#x2080;" horiz-adv-x="759" 
d="M668 352q0 -170 -76 -265t-215 -95q-132 0 -208.5 89t-76.5 243q0 179 76.5 276.5t218.5 97.5q130 0 205.5 -93.5t75.5 -252.5zM578 354q0 127 -49.5 201t-141.5 74q-100 0 -152.5 -78.5t-52.5 -220.5q0 -126 50 -197.5t145 -71.5t148 74t53 219z" />
    <glyph glyph-name="oneinferior" unicode="&#x2081;" horiz-adv-x="759" 
d="M461 0h-78v598l-180 -111l-43 60l233 143h68v-690z" />
    <glyph glyph-name="twoinferior" unicode="&#x2082;" horiz-adv-x="759" 
d="M571 0h-403v63l66.5 66.5l67.5 67.5t59 61t54 63.5t39.5 58t29 59.5t8.5 55q0 60 -34.5 95.5t-95.5 35.5q-70 0 -149 -66l-45 45q13 17 35 35.5t69.5 38.5t98.5 20q92 0 149.5 -55t57.5 -145q0 -45 -16.5 -89.5t-51.5 -90.5t-60.5 -73.5t-72.5 -74.5l-105 -100h299v-70z
" />
    <glyph glyph-name="threeinferior" unicode="&#x2083;" horiz-adv-x="759" 
d="M584 197q0 -95 -65 -150t-157 -55q-132 0 -202 88l49 49q68 -68 143 -68q69 0 107.5 32t38.5 93q0 27 -7 48t-17.5 34t-28.5 22.5t-32 14t-37 7t-35.5 3t-35.5 0.5h-24v74h36q26 0 43 1t44 7.5t43.5 18t29 35.5t12.5 57q0 52 -33.5 86.5t-90.5 34.5q-13 0 -26 -2t-24 -6
t-21 -8t-18.5 -10t-15.5 -10.5t-13.5 -10.5t-10 -9t-7.5 -7l-4 -5l-51 47q5 11 25.5 30t67.5 39.5t102 20.5q92 0 149 -51.5t57 -136.5q0 -60 -34 -100t-92 -54q135 -26 135 -159z" />
    <glyph glyph-name="fourinferior" unicode="&#x2084;" horiz-adv-x="759" 
d="M629 170h-99v-170h-73v170h-344v57l350 463h67v-457h99v-63zM457 233v349l-262 -349h262z" />
    <glyph glyph-name="fiveinferior" unicode="&#x2085;" horiz-adv-x="759" 
d="M598 219q0 -101 -69 -164t-173 -63q-53 0 -100.5 16.5t-66.5 29.5t-29 23l41 56q81 -56 149 -56q76 0 119 41t43 113q0 65 -42 110.5t-118 45.5q-69 0 -121 -39l-41 18v340h373v-72h-295v-204q36 26 101 26q106 0 167.5 -61.5t61.5 -159.5z" />
    <glyph glyph-name="sixinferior" unicode="&#x2086;" horiz-adv-x="759" 
d="M616 227q0 -102 -63.5 -168.5t-165.5 -66.5q-83 0 -139.5 48t-80.5 120t-24 162q0 71 13.5 134t42.5 119.5t82.5 89.5t126.5 33q47 0 91 -15.5t64 -29t31 -24.5l-39 -51q-66 53 -139 53q-49 0 -85.5 -23t-56.5 -64t-30.5 -87.5t-12.5 -102.5q24 43 69.5 69t102.5 26
q98 0 155.5 -62.5t57.5 -159.5zM539 223q0 70 -37 115t-105 45q-72 0 -111.5 -49.5t-39.5 -120.5q0 -66 40 -110t103 -44q69 0 109.5 48t40.5 116z" />
    <glyph glyph-name="seveninferior" unicode="&#x2087;" horiz-adv-x="759" 
d="M606 625l-274 -625h-86l278 612h-370v72h452v-59z" />
    <glyph glyph-name="eightinferior" unicode="&#x2088;" horiz-adv-x="759" 
d="M618 188q0 -86 -66.5 -141t-170.5 -55q-107 0 -174.5 54t-67.5 140q0 65 34 109.5t85 60.5q-98 39 -98 154q0 85 63.5 136.5t159.5 51.5t156.5 -51.5t60.5 -134.5q0 -50 -28 -94.5t-76 -61.5q54 -15 88 -57t34 -111zM520 510q0 56 -38 90.5t-99 34.5q-64 0 -103.5 -34.5
t-39.5 -90.5q0 -62 42.5 -94.5t100.5 -32.5q56 0 96.5 31.5t40.5 95.5zM537 188q0 62 -43 98t-113 36q-72 0 -116 -36t-44 -98q0 -61 43.5 -96t118.5 -35q70 0 112 35t42 96z" />
    <glyph glyph-name="nineinferior" unicode="&#x2089;" horiz-adv-x="759" 
d="M616 371q0 -56 -7.5 -107.5t-27 -102t-49 -87t-76.5 -59.5t-106 -23q-69 0 -120.5 26.5t-67.5 47.5l41 51q19 -19 59 -37.5t82 -18.5q169 0 188 277q-25 -42 -74.5 -67t-99.5 -25q-99 0 -157 62.5t-58 158.5q0 98 64.5 164.5t163.5 66.5q67 0 116.5 -29t76.5 -77.5
t39.5 -103.5t12.5 -117zM516 475q0 67 -41.5 112.5t-105.5 45.5q-69 0 -108.5 -47.5t-39.5 -116.5q0 -71 35.5 -115.5t103.5 -44.5q70 0 113 46t43 120z" />
    <glyph glyph-name="parenleftinferior" unicode="&#x208d;" horiz-adv-x="374" 
d="M92 344q0 294 203 440l39 -45q-152 -133 -152 -391q0 -261 158 -401l-41 -47q-105 70 -156 188t-51 256z" />
    <glyph glyph-name="parenrightinferior" unicode="&#x208e;" horiz-adv-x="374" 
d="M283 340q0 -294 -203 -440l-39 45q152 133 152 391q0 261 -158 401l41 47q105 -70 156 -188t51 -256z" />
    <glyph glyph-name="franc" unicode="&#x20a3;" horiz-adv-x="1384" 
d="M852 1286h-584v-452h525v-76h-525v-758h-88v1366h672v-80zM1343 846l-20 -74q-48 6 -84 6q-43 0 -82 -10t-68 -27t-53.5 -36t-42.5 -41.5t-29 -38t-20 -30.5l-8 -15v-580h-84v834h84v-150q39 55 71 85q100 91 236 91q58 0 100 -14z" />
    <glyph glyph-name="lira" unicode="&#x20a4;" 
d="M842 532h-383q2 -20 2 -61q0 -297 -150 -393h748v-78h-885v74q38 15 62 27.5t52.5 38.5t44.5 59.5t27 88t11 126.5q0 78 -4 118h-189v78h182q-5 66 -16 146h-166v78h160q-4 40 -4 84q0 219 114 345t308 126q88 0 163.5 -24t108 -46t45.5 -39l-49 -55l-8 7
q-9 7 -15.5 11.5t-21 13.5t-28.5 15.5t-35 14.5t-43 12.5t-50.5 8t-58.5 3.5q-159 0 -248.5 -101.5t-89.5 -291.5q0 -34 4 -84h412v-78h-406q0 -5 3 -31t6.5 -61t5.5 -54h391v-78z" />
    <glyph glyph-name="peseta" unicode="&#x20a7;" horiz-adv-x="2467" 
d="M969 979q0 -178 -117 -295q-102 -102 -336 -102h-248v-582h-88v1366h291q142 0 232 -18.5t155 -83.5q111 -111 111 -285zM879 985q0 138 -91 229q-28 28 -59.5 44t-80 22.5t-84.5 8t-113 1.5h-183v-633h238q198 0 278 80q95 95 95 248zM1628 20q-1 -1 -9.5 -5t-15.5 -6.5
t-19 -7.5t-25.5 -8t-30 -6.5t-36.5 -5t-42 -1.5q-123 0 -186 63q-11 11 -19.5 25t-14 26.5t-9 33t-5.5 32t-3 37t-1 34.5v38v36v600h-170v72h170v278h84v-278h322v-72h-322v-596q0 -119 9 -155q18 -74 92 -91q26 -6 61 -6q61 0 144 31zM2361 260q0 -134 -92.5 -208.5
t-251.5 -74.5q-52 0 -102.5 8.5t-86 21t-64 26t-42 23t-16.5 12.5l39 67q127 -82 264 -82q123 0 193.5 52.5t70.5 146.5q0 72 -55 127q-31 31 -88.5 57t-112 42.5t-115.5 45.5t-96 64q-63 63 -63 166q0 112 88.5 178.5t220.5 66.5q47 0 92.5 -7.5t75.5 -17.5t56.5 -22.5
t36.5 -19t16 -10.5l-39 -66q-17 11 -42 24t-80 29.5t-108 16.5q-97 0 -164 -45.5t-67 -124.5q0 -66 45 -111q30 -30 88 -56.5t113 -43t116.5 -46.5t98.5 -67q71 -71 71 -172z" />
    <glyph glyph-name="Euro" unicode="&#x20ac;" 
d="M1051 102q-51 -38 -82 -55q-129 -70 -273 -70q-89 0 -163.5 26t-123.5 66t-87.5 95.5t-60 106.5t-35.5 108t-18.5 90.5t-6.5 62.5h-133v78h127q-2 49 -2 84q0 21 2 62h-127v78h133q1 23 6 56t20 88t37.5 108t62.5 110t90.5 99t126 69t165.5 27q57 0 113 -13.5t93.5 -32.5
t60 -33t28.5 -20l-48 -65q-118 84 -243 84q-78 0 -142 -24.5t-105.5 -60t-74 -88t-48.5 -94.5t-27.5 -94t-14 -73t-4.5 -43h561v-78h-567q-2 -27 -2 -82q0 -19 2 -64h567v-78h-561q41 -359 258 -446q63 -25 139 -25q32 0 63 4t56.5 10.5t50.5 16t42.5 18.5t35.5 19t28 17
l20 14t11 8z" />
    <glyph glyph-name="afii61289" unicode="&#x2113;" horiz-adv-x="1024" 
d="M510 551q-46 -242 -57 -308t-11 -118q0 -51 37 -51q53 0 105 110q15 37 39 37q26 0 26 -31q0 -47 -53 -122q-75 -97 -156 -97q-64 0 -100.5 48t-36.5 133q0 64 21 260q-83 -78 -101 -78q-10 0 -19 10.5t-9 22.5q0 19 41 55q12 11 48.5 48.5t53.5 57.5q85 442 182.5 651.5
t220.5 209.5q58 0 93.5 -45.5t35.5 -120.5q0 -83 -35.5 -189t-95.5 -205q-73 -117 -229 -278zM532 682q256 287 256 532q0 40 -13 65.5t-34 25.5q-23 0 -46.5 -25.5t-37.5 -65.5q-63 -177 -125 -532z" />
    <glyph glyph-name="afii61352" unicode="&#x2116;" horiz-adv-x="1984" 
d="M1090 0h-123l-705 1245l2 -1245h-84v1366h113l715 -1264l-2 1264h84v-1366zM1890 997q0 -171 -86 -270.5t-235 -99.5q-147 0 -232.5 102t-85.5 279q0 175 86 276.5t238 101.5q147 0 231 -102.5t84 -286.5zM1817 1004q0 143 -70 231t-176 88q-114 0 -180 -85t-66 -228
q0 -142 70 -230t176 -88q116 0 181 84t65 228z" />
    <glyph glyph-name="trademark" unicode="&#x2122;" horiz-adv-x="1464" 
d="M1343 641h-83l-66 571l-209 -571h-61l-207 571l-64 -571h-80l86 725h80l222 -590l213 590h81zM557 1300h-207v-659h-78v659h-206v66h491v-66z" />
    <glyph glyph-name="uni2126" unicode="&#x2126;" horiz-adv-x="1656" 
d="M1460 0h-475v80q87 37 151.5 93.5t100 116.5t57 136t27.5 138t6 136q0 274 -138.5 444.5t-361.5 170.5t-362 -170.5t-139 -444.5q0 -60 5 -112.5t17 -114.5t37 -116t61.5 -105.5t93.5 -95.5t130 -76v-80h-473v80h350q-87 46 -151 116.5t-99.5 155.5t-51.5 172.5
t-16 182.5q0 196 76.5 352.5t213 244t308.5 87.5q171 0 307 -87.5t212.5 -244t76.5 -352.5q0 -461 -313 -627h350v-80z" />
    <glyph glyph-name="estimated" unicode="&#x212e;" horiz-adv-x="1634" 
d="M1575 637h-1227q-12 0 -12 -8v-371q0 -21 18 -43q90 -95 210 -148t255 -53q143 0 269.5 60.5t218.5 165.5h110q-105 -123 -263 -195t-337 -72q-154 0 -294.5 54t-242 145t-161.5 217.5t-60 265.5q0 138 60 264t161.5 217t242 145t294.5 54t294.5 -54t242 -145t161.5 -217
t60 -264v-18zM1298 686v371q0 25 -20 45q-89 91 -208 141.5t-251 50.5q-134 0 -253.5 -52.5t-209.5 -145.5q-20 -20 -20 -47v-363q0 -10 12 -10h940q10 0 10 10z" />
    <glyph glyph-name="onethird" unicode="&#x2153;" horiz-adv-x="1476" 
d="M1251 1380l-983 -1448l-67 43l983 1455zM461 676h-78v598l-180 -111l-43 60l233 143h68v-690zM1300 197q0 -95 -64.5 -150t-156.5 -55q-132 0 -202 88l49 49q68 -68 143 -68q68 0 106.5 32t38.5 93q0 27 -7 48t-17 34t-28 22.5t-32 14t-37 7t-35.5 3t-35.5 0.5h-25v74h37
q26 0 43 1t44 7.5t43.5 18t29 35.5t12.5 57q0 52 -34 86.5t-91 34.5q-13 0 -26 -2t-24 -5.5t-20.5 -8t-18.5 -10t-15.5 -10.5t-13 -11t-10 -9.5l-7.5 -7.5l-4 -4l-51 47q3 7 16.5 20t36.5 29.5t61 28.5t80 12q93 0 150 -51.5t57 -136.5q0 -60 -34 -100t-93 -54
q135 -26 135 -159z" />
    <glyph glyph-name="twothirds" unicode="&#x2154;" horiz-adv-x="1476" 
d="M1251 1380l-983 -1448l-67 43l983 1455zM571 676h-403v63q23 23 77 76.5t78.5 79t64 70t57.5 73t32.5 64.5t14.5 67q0 60 -34.5 95.5t-95.5 35.5q-71 0 -149 -65l-45 45q13 17 35 35.5t69.5 38.5t98.5 20q92 0 149.5 -55t57.5 -145q0 -45 -16.5 -89.5t-51.5 -90.5
t-60.5 -73.5t-72.5 -74.5l-105 -101h299v-69zM1300 197q0 -95 -64.5 -150t-156.5 -55q-132 0 -202 88l49 49q68 -68 143 -68q68 0 106.5 32t38.5 93q0 27 -7 48t-17 34t-28 22.5t-32 14t-37 7t-35.5 3t-35.5 0.5h-25v74h37q26 0 43 1t44 7.5t43.5 18t29 35.5t12.5 57
q0 52 -34 86.5t-91 34.5q-13 0 -26 -2t-24 -5.5t-20.5 -8t-18.5 -10t-15.5 -10.5t-13 -11t-10 -9.5l-7.5 -7.5l-4 -4l-51 47q3 7 16.5 20t36.5 29.5t61 28.5t80 12q93 0 150 -51.5t57 -136.5q0 -60 -34 -100t-93 -54q135 -26 135 -159z" />
    <glyph glyph-name="oneeighth" unicode="&#x215b;" horiz-adv-x="1476" 
d="M1251 1380l-983 -1448l-67 43l983 1455zM461 676h-78v598l-180 -111l-43 60l233 143h68v-690zM1329 188q0 -86 -66.5 -141t-170.5 -55q-107 0 -174.5 54t-67.5 140q0 65 34 109.5t85 60.5q-47 19 -73 59t-26 95q0 85 64 136.5t160 51.5t156.5 -51.5t60.5 -134.5
q0 -49 -28.5 -94t-76.5 -62q54 -15 88.5 -57t34.5 -111zM1231 510q0 56 -38 90.5t-99 34.5q-64 0 -104 -34.5t-40 -90.5q0 -62 43 -94.5t101 -32.5q56 0 96.5 31.5t40.5 95.5zM1247 188q0 62 -42.5 98t-112.5 36q-72 0 -116 -36t-44 -98q0 -61 43.5 -96t118.5 -35
q70 0 111.5 35t41.5 96z" />
    <glyph glyph-name="threeeighths" unicode="&#x215c;" horiz-adv-x="1476" 
d="M1251 1380l-983 -1448l-67 43l983 1455zM584 872q0 -95 -65 -149.5t-157 -54.5q-132 0 -202 88l49 49q68 -68 143 -68q69 0 107.5 32t38.5 93q0 27 -7 48t-17.5 34t-28.5 22.5t-32 14t-37 7t-35.5 3t-35.5 0.5h-24v74h36q26 0 43 1t44 7.5t43.5 18t29 35.5t12.5 57
q0 52 -33.5 86.5t-90.5 34.5q-13 0 -26 -2t-24 -6t-21 -8t-18.5 -10t-15.5 -10.5t-13.5 -10.5t-10 -9t-7.5 -7l-4 -5l-51 47q5 11 25.5 30t67.5 39.5t102 20.5q92 0 149 -51.5t57 -136.5q0 -60 -34 -100t-92 -54q135 -26 135 -160zM1329 188q0 -86 -66.5 -141t-170.5 -55
q-107 0 -174.5 54t-67.5 140q0 65 34 109.5t85 60.5q-47 19 -73 59t-26 95q0 85 64 136.5t160 51.5t156.5 -51.5t60.5 -134.5q0 -49 -28.5 -94t-76.5 -62q54 -15 88.5 -57t34.5 -111zM1231 510q0 56 -38 90.5t-99 34.5q-64 0 -104 -34.5t-40 -90.5q0 -62 43 -94.5t101 -32.5
q56 0 96.5 31.5t40.5 95.5zM1247 188q0 62 -42.5 98t-112.5 36q-72 0 -116 -36t-44 -98q0 -61 43.5 -96t118.5 -35q70 0 111.5 35t41.5 96z" />
    <glyph glyph-name="fiveeighths" unicode="&#x215d;" horiz-adv-x="1476" 
d="M1251 1380l-983 -1448l-67 43l983 1455zM1329 188q0 -86 -66.5 -141t-170.5 -55q-107 0 -174.5 54t-67.5 140q0 65 34 109.5t85 60.5q-47 19 -73 59t-26 95q0 85 64 136.5t160 51.5t156.5 -51.5t60.5 -134.5q0 -49 -28.5 -94t-76.5 -62q54 -15 88.5 -57t34.5 -111z
M1231 510q0 56 -38 90.5t-99 34.5q-64 0 -104 -34.5t-40 -90.5q0 -62 43 -94.5t101 -32.5q56 0 96.5 31.5t40.5 95.5zM1247 188q0 62 -42.5 98t-112.5 36q-72 0 -116 -36t-44 -98q0 -61 43.5 -96t118.5 -35q70 0 111.5 35t41.5 96zM598 895q0 -101 -69 -164t-173 -63
q-53 0 -100.5 16.5t-66.5 29.5t-29 23l41 56q81 -56 149 -56q76 0 119 41t43 113q0 65 -42 110.5t-118 45.5q-69 0 -121 -39l-41 18v340h373v-72h-295v-204q36 26 101 26q106 0 167.5 -61.5t61.5 -159.5z" />
    <glyph glyph-name="seveneighths" unicode="&#x215e;" horiz-adv-x="1476" 
d="M606 1307l-274 -631h-86l278 618h-370v72h452v-59zM1251 1380l-983 -1448l-67 43l983 1455zM1329 188q0 -86 -66.5 -141t-170.5 -55q-107 0 -174.5 54t-67.5 140q0 65 34 109.5t85 60.5q-47 19 -73 59t-26 95q0 85 64 136.5t160 51.5t156.5 -51.5t60.5 -134.5
q0 -49 -28.5 -94t-76.5 -62q54 -15 88.5 -57t34.5 -111zM1231 510q0 56 -38 90.5t-99 34.5q-64 0 -104 -34.5t-40 -90.5q0 -62 43 -94.5t101 -32.5q56 0 96.5 31.5t40.5 95.5zM1247 188q0 62 -42.5 98t-112.5 36q-72 0 -116 -36t-44 -98q0 -61 43.5 -96t118.5 -35
q70 0 111.5 35t41.5 96z" />
    <glyph glyph-name="partialdiff" unicode="&#x2202;" horiz-adv-x="1226" 
d="M1030 737q0 -357 -118 -559.5t-324 -202.5q-179 0 -285 143t-106 384q0 233 108 365t299 132q165 0 326 -129q-24 261 -140.5 402t-281.5 141q-27 0 -52.5 -2.5t-47 -8t-38.5 -10.5t-34 -12.5t-26.5 -12t-21.5 -11.5t-14 -8l-43 65q22 16 53.5 32.5t96.5 34t133 17.5
q153 0 270.5 -94.5t181.5 -267.5t64 -398zM938 723l-2 37q-158 158 -342 158q-142 0 -224.5 -114.5t-82.5 -311.5q0 -196 82 -314.5t219 -118.5q165 0 257.5 177.5t92.5 486.5z" />
    <glyph glyph-name="uni2206" unicode="&#x2206;" horiz-adv-x="1406" 
d="M1210 0h-1013l479 1366h65zM1096 78l-389 1132l-396 -1132h785z" />
    <glyph glyph-name="product" unicode="&#x220f;" horiz-adv-x="1646" 
d="M1450 1290h-156v-1290h-92v1290h-758v-1290h-92v1290h-155v76h1253v-76z" />
    <glyph glyph-name="summation" unicode="&#x2211;" horiz-adv-x="1099" 
d="M903 0h-706v49l381 651l-381 605v61h706v-76h-600l363 -590l-373 -624h610v-76z" />
    <glyph glyph-name="minus" unicode="&#x2212;" horiz-adv-x="1163" 
d="M1053 475h-942v78h942v-78z" />
    <glyph glyph-name="radical" unicode="&#x221a;" horiz-adv-x="1613" 
d="M1417 1464l-547 -1464h-73l-332 870l-242 -82l-26 74l313 111l328 -850l501 1370z" />
    <glyph glyph-name="infinity" unicode="&#x221e;" horiz-adv-x="1730" 
d="M1534 565q0 -113 -82.5 -195.5t-194.5 -82.5q-80 0 -165.5 45t-227.5 182q-142 -137 -227.5 -182t-163.5 -45q-114 0 -195 82t-81 196q0 118 77.5 199.5t190.5 81.5q93 0 184.5 -48t214.5 -177q122 128 216 176.5t184 48.5q114 0 192 -82t78 -199zM1460 575
q0 81 -57.5 140t-140.5 59q-51 0 -95.5 -14t-90.5 -47t-77.5 -61.5t-87.5 -84.5q4 -4 13 -12q39 -36 60.5 -55t60.5 -49t68 -45t68 -27t76 -12q82 0 142.5 62.5t60.5 145.5zM819 567q-46 46 -69 68t-62.5 54t-68 47t-68 26.5t-80.5 11.5q-83 0 -141 -59.5t-58 -139.5
q0 -84 59 -146t142 -62q47 0 93.5 16t94.5 51t77.5 60t80.5 73z" />
    <glyph glyph-name="integral" unicode="&#x222b;" horiz-adv-x="1292" 
d="M1096 1442l-37 -72q-77 43 -162 43q-94 0 -141 -47q-68 -68 -68 -219v-1264q0 -180 -90 -270q-74 -74 -197 -74q-51 0 -101 13t-74 25t-29 17l36 72q77 -43 162 -43q95 0 142 47q67 67 67 219v1264q0 180 90 270q74 74 197 74q51 0 101 -13t74.5 -25t29.5 -17z" />
    <glyph glyph-name="approxequal" unicode="&#x2248;" 
d="M1028 664q-97 -123 -221 -123q-66 0 -141.5 29t-147 58t-127.5 29q-17 0 -32.5 -2.5t-26.5 -5t-23.5 -9t-19.5 -10t-17 -12.5t-14 -12.5t-13.5 -13.5t-11.5 -12l-73 53q49 68 103.5 95.5t127.5 27.5q54 0 113 -18.5t102.5 -40t98.5 -40t102 -18.5q34 0 64 13.5t46.5 28.5
t38.5 40zM1028 397q-97 -123 -221 -123q-52 0 -111.5 18.5t-104.5 40t-100 40t-100 18.5q-19 0 -35.5 -2t-31 -8.5t-24 -10t-22 -14t-16.5 -14t-16 -16t-13 -13.5l-73 54q49 68 103 95t128 27q67 0 141.5 -29t145.5 -58t129 -29q34 0 64 13.5t46.5 28.5t38.5 40z" />
    <glyph glyph-name="notequal" unicode="&#x2260;" horiz-adv-x="1196" 
d="M1069 358h-514l-190 -292l-70 43l160 249h-328v78h375l96 156h-471v78h522l176 276l68 -43l-148 -233h324v-78h-375l-94 -156h469v-78z" />
    <glyph glyph-name="lessequal" unicode="&#x2264;" 
d="M1065 248l-33 -70l-909 447v55l907 446l35 -67l-844 -410zM1063 0h-940v78h940v-78z" />
    <glyph glyph-name="greaterequal" unicode="&#x2265;" 
d="M1065 625l-909 -447l-33 70l844 401l-844 410l35 67l907 -446v-55zM1063 0h-940v78h940v-78z" />
    <glyph glyph-name="lozenge" unicode="&#x25ca;" horiz-adv-x="1349" 
d="M1153 690l-438 -690h-76l-442 690l442 676h70zM1051 690l-377 574l-371 -574l375 -608z" />
    <glyph glyph-name="Euro.fitted" unicode="&#xe002;" horiz-adv-x="1105" 
d="M1053 102q-51 -38 -82 -55q-129 -70 -273 -70q-89 0 -163.5 26t-123.5 66t-87.5 95.5t-60 106.5t-35.5 108t-18.5 90.5t-6.5 62.5h-133v78h127q-2 49 -2 84q0 21 2 62h-127v78h133q1 23 6 56t20 88t37.5 108t62.5 110t90.5 99t126 69t165.5 27q57 0 113 -13.5t93.5 -32.5
t60 -33t28.5 -20l-48 -65q-118 84 -243 84q-78 0 -142 -24.5t-105.5 -60t-74 -88t-48.5 -94.5t-27.5 -94t-14 -73t-4.5 -43h561v-78h-567q-2 -27 -2 -82q0 -19 2 -64h567v-78h-561q41 -359 258 -446q63 -25 139 -25q32 0 63.5 4t56.5 10.5t50 16t43 18t36 19.5t28 17.5
t20 14t11 7.5z" />
    <glyph glyph-name="Dotaccent" unicode="&#xefed;" horiz-adv-x="757" 
d="M451 1571q0 -31 -20.5 -52.5t-51.5 -21.5t-52.5 21.5t-21.5 52.5q0 30 21.5 50.5t52.5 20.5t51.5 -20t20.5 -51z" />
    <glyph glyph-name="Breve" unicode="&#xefee;" horiz-adv-x="757" 
d="M559 1710h82q-35 -233 -264 -233q-114 0 -180.5 59t-81.5 174h82q24 -137 180 -137q152 0 182 137z" />
    <glyph glyph-name="Ogonek" unicode="&#xeff1;" horiz-adv-x="757" 
d="M578 -387q-5 -5 -26.5 -17t-70.5 -26t-100 -14q-94 0 -148.5 57.5t-54.5 155.5q0 69 28.5 115t92.5 91l88 -26q-6 -5 -23 -18.5t-23 -18.5t-20 -18t-19.5 -20t-14.5 -20.5t-13 -25t-7 -27t-3 -32.5q0 -63 36.5 -98.5t98.5 -35.5q25 0 52 5.5t42.5 11.5t34.5 14l19 8z" />
    <glyph glyph-name="Cedilla" unicode="&#xeff2;" horiz-adv-x="757" 
d="M541 -270q0 -79 -56.5 -126.5t-128.5 -47.5q-75 0 -137 32l25 58q58 -25 96 -25q64 0 91.5 32.5t27.5 72.5q0 44 -28.5 72t-74.5 28q-48 0 -86 -27l-43 25l37 176h66l-23 -125q32 19 72 19q73 0 117.5 -45t44.5 -119z" />
    <glyph glyph-name="Tilde" unicode="&#xeff5;" horiz-adv-x="757" 
d="M680 1554q-81 -81 -191 -81q-36 0 -112 22.5t-117 22.5q-33 0 -59.5 -7.5t-37 -14t-34.5 -23.5l-51 59q33 28 51 40.5t54 26t77 13.5q38 0 116 -24.5t116 -24.5q21 0 40.5 3t32 7t25 11t18.5 11.5t14 11t9 7.5z" />
    <glyph glyph-name="Circumflex" unicode="&#xeff7;" horiz-adv-x="757" 
d="M680 1526l-39 -62l-260 138l-260 -138l-43 62l303 184z" />
    <glyph glyph-name="parenleft.dnom" unicode="&#xf62c;" horiz-adv-x="374" 
d="M92 344q0 294 203 440l39 -45q-152 -133 -152 -391q0 -261 158 -401l-41 -47q-105 70 -156 188t-51 256z" />
    <glyph glyph-name="parenright.dnom" unicode="&#xf62d;" horiz-adv-x="374" 
d="M283 340q0 -294 -203 -440l-39 45q152 133 152 391q0 261 -158 401l41 47q105 -70 156 -188t51 -256z" />
    <glyph glyph-name="parenleft.numr" unicode="&#xf631;" horiz-adv-x="374" 
d="M92 1008q0 294 203 440l39 -45q-152 -133 -152 -391q0 -262 158 -402l-41 -47q-105 70 -156 188.5t-51 256.5z" />
    <glyph glyph-name="parenright.numr" unicode="&#xf632;" horiz-adv-x="374" 
d="M283 1004q0 -295 -203 -441l-39 45q152 133 152 391q0 262 -158 402l41 47q105 -70 156 -188t51 -256z" />
    <glyph glyph-name="zero.fitted" unicode="&#xf639;" horiz-adv-x="1204" 
d="M1087 682q0 -334 -126.5 -519.5t-360.5 -185.5q-237 0 -360 186t-123 529q0 327 124.5 513t352.5 186q239 0 366 -186t127 -523zM991 682q0 302 -98 466.5t-291 164.5q-199 0 -294 -161t-95 -480q0 -294 98.5 -455.5t288.5 -161.5q194 0 292.5 162.5t98.5 464.5z" />
    <glyph glyph-name="two.fitted" unicode="&#xf63a;" horiz-adv-x="970" 
d="M854 0h-795v82q130 127 230 227q132 132 212 220.5t140 173t84.5 154t24.5 142.5q0 149 -81 228.5t-229 79.5q-50 0 -100.5 -12t-86.5 -28.5t-67 -35.5t-45 -30t-18 -15l-53 57q4 6 22 21.5t54 37.5t79.5 41.5t105 33.5t124.5 14q183 0 287 -101t104 -278
q0 -51 -13 -103.5t-32 -97.5t-54.5 -98.5t-65 -92.5t-79.5 -93.5t-83 -88.5t-89 -90l-266 -266h690v-82z" />
    <glyph glyph-name="three.fitted" unicode="&#xf63b;" horiz-adv-x="997" 
d="M881 371q0 -181 -125.5 -287.5t-309.5 -106.5q-247 0 -387 140l54 59l7 -7q8 -7 21.5 -17t32.5 -22t45 -24t56.5 -22.5t70 -16.5t80.5 -6q163 0 262.5 79.5t99.5 219.5q0 122 -83 205q-54 54 -132.5 75.5t-228.5 21.5h-31v81h37q124 0 205 19.5t145 83.5q72 72 72 186
q0 123 -84.5 199t-228.5 76q-179 0 -317 -124l-3 -3l-55 57q3 6 20 21.5t51.5 38.5t77 43.5t104 35.5t124.5 15q187 0 294 -99t107 -260q0 -125 -75 -220t-207 -112q137 -10 219 -102.5t82 -226.5z" />
    <glyph glyph-name="four.fitted" unicode="&#xf63c;" horiz-adv-x="1101" 
d="M1012 350h-193v-350h-86v350h-657v78l653 938h90v-938h193v-78zM733 428v799l-561 -799h561z" />
    <glyph glyph-name="five.fitted" unicode="&#xf63d;" horiz-adv-x="1021" 
d="M905 422q0 -202 -126 -323.5t-320 -121.5q-69 0 -131.5 12.5t-102 29.5t-72 37.5t-45.5 32t-18 17.5l47 64q4 -4 17 -14t43 -27t64.5 -31.5t84 -25.5t98.5 -11q170 0 269.5 95.5t99.5 259.5q0 96 -38 174.5t-121.5 129t-200.5 50.5q-146 0 -254 -72l-56 35v633h707v-80
h-619v-487q10 7 32.5 18.5t80 26t119.5 14.5q211 0 326.5 -120.5t115.5 -315.5z" />
    <glyph glyph-name="six.fitted" unicode="&#xf63e;" horiz-adv-x="1083" 
d="M1006 440q0 -197 -119 -330t-309 -133q-110 0 -194.5 43t-133.5 109t-80.5 157.5t-42 175t-10.5 175.5q0 76 5.5 145.5t20.5 147t38.5 142.5t62.5 125t90 102t123 67t159 25q63 0 121.5 -12.5t97 -30t69.5 -37.5t45 -33.5t18 -20.5l-54 -59q-1 1 -12 10t-19.5 15.5
t-25.5 18t-32.5 20t-38.5 18.5t-45.5 16t-51 10.5t-57.5 4.5q-75 0 -136.5 -22t-105.5 -59.5t-78 -91.5t-54.5 -113t-33 -129.5t-17 -136.5t-3.5 -138q0 -30 1 -40.5t1 -19.5q15 98 73.5 169.5t142.5 106.5t183 35q191 0 296.5 -120.5t105.5 -311.5zM918 434
q0 159 -81.5 262t-236.5 103q-104 0 -185.5 -54.5t-124 -142.5t-42.5 -192q0 -149 94 -254t242 -105q104 0 182 56t115 141.5t37 185.5z" />
    <glyph glyph-name="seven.fitted" unicode="&#xf63f;" horiz-adv-x="1003" 
d="M934 1294l-572 -1294h-106l584 1282h-781v84h875v-72z" />
    <glyph glyph-name="eight.fitted" unicode="&#xf640;" horiz-adv-x="1134" 
d="M1018 352q0 -169 -121 -272t-319 -103q-212 0 -336.5 99.5t-124.5 269.5q0 155 90.5 259.5t234.5 101.5q-135 23 -211.5 111.5t-76.5 215.5q0 158 114.5 257.5t294.5 99.5q186 0 301 -95.5t115 -251.5q0 -128 -72.5 -219.5t-204.5 -117.5q152 -12 234 -106.5t82 -248.5z
M885 1034q0 132 -89.5 209.5t-226.5 77.5q-142 0 -231.5 -77t-89.5 -208q0 -130 92.5 -212.5t228.5 -82.5q137 0 226.5 81.5t89.5 211.5zM922 358q0 147 -97.5 230.5t-257.5 83.5q-156 0 -255 -85.5t-99 -226.5q0 -150 98 -231.5t269 -81.5q157 0 249.5 81.5t92.5 229.5z
" />
    <glyph glyph-name="nine.fitted" unicode="&#xf641;" horiz-adv-x="1083" 
d="M967 731q0 -76 -5.5 -145.5t-20.5 -147t-39 -142.5t-63 -125t-90 -102t-123 -67t-159 -25q-63 0 -121.5 12.5t-96.5 30t-69 37.5t-45 33.5t-18 20.5l53 59q1 0 12.5 -9.5t19.5 -16t25.5 -18t33 -20t38.5 -18.5t45.5 -16t51 -10.5t57.5 -4.5q103 0 182 42.5t125 109.5
t74.5 160.5t38 184.5t8.5 194q0 30 -1 40t-1 19q-15 -98 -74 -169.5t-143 -106.5t-183 -35q-191 0 -296 120.5t-105 311.5q0 197 119 330t309 133q110 0 194.5 -43t133.5 -109t80.5 -157.5t42 -175t10.5 -175.5zM836 958q0 149 -94 254t-242 105q-104 0 -182 -56
t-115 -141.5t-37 -185.5q0 -159 81 -262t236 -103q104 0 186 54.5t124.5 142.5t42.5 192z" />
    <glyph glyph-name="zero.taboldstyle" unicode="&#xf643;" 
d="M1075 526q0 -238 -134.5 -391t-352.5 -153q-201 0 -337 150.5t-136 377.5q0 244 136.5 400.5t352.5 156.5q204 0 337.5 -152t133.5 -389zM981 537q0 203 -110.5 328.5t-280.5 125.5q-174 0 -277.5 -124.5t-103.5 -334.5q0 -208 109.5 -340.5t275.5 -132.5q173 0 280 128
t107 350z" />
    <glyph glyph-name="one.taboldstyle" unicode="&#xf644;" 
d="M647 0h-84v946l-256 -166l-51 68l324 205h67v-1053z" />
    <glyph glyph-name="two.taboldstyle" unicode="&#xf645;" 
d="M922 0h-672v70q2 2 54 49t123.5 113.5t123.5 119.5q72 74 113.5 121t78.5 99.5t52.5 99.5t15.5 98q0 39 -14.5 76.5t-42 70t-75.5 52.5t-108 20q-55 0 -105.5 -13.5t-85 -34.5t-51 -33.5t-26.5 -22.5l-49 51q4 6 17 19.5t42.5 34t66 38t92 30.5t114.5 13q71 0 128 -20
t91.5 -51t57 -71t31.5 -77t9 -72q0 -104 -48.5 -191t-195.5 -237q-36 -37 -78 -78t-77.5 -73.5t-65 -59.5t-48.5 -44t-21 -19h553v-78z" />
    <glyph glyph-name="three.taboldstyle" unicode="&#xf646;" 
d="M903 121q0 -156 -116 -265.5t-275 -109.5q-68 0 -127.5 13t-96.5 30t-68 39.5t-42 34t-18 20.5l49 56l7 -6q7 -6 15.5 -13.5t23.5 -17.5t31 -19.5t38.5 -19.5t46 -17t53 -11.5t59.5 -4.5q149 0 238.5 76.5t89.5 197.5q0 57 -21.5 107.5t-52.5 83.5q-54 56 -126.5 74
t-209.5 18h-10v78h17q131 0 203.5 24.5t115.5 69.5q68 71 68 176q0 107 -74.5 181.5t-206.5 74.5q-55 0 -108 -15.5t-90.5 -38.5t-56.5 -37t-28 -23l-49 55q2 4 17 18.5t46 35.5t69 40.5t92.5 33t109.5 13.5q169 0 269 -98t100 -240q0 -119 -68 -208t-182 -101
q119 -7 193.5 -93t74.5 -212z" />
    <glyph glyph-name="four.taboldstyle" unicode="&#xf647;" 
d="M1036 20h-164v-268h-84v268h-641v70l627 963h98v-957h164v-76zM788 96v840l-546 -840h546z" />
    <glyph glyph-name="five.taboldstyle" unicode="&#xf648;" 
d="M967 158q0 -179 -114 -293.5t-296 -114.5q-63 0 -120.5 12t-94.5 28.5t-67 36t-42 30.5t-16 16l45 61l8 -6q8 -7 15 -12t20.5 -14t27 -16.5t31.5 -16t38 -15t42 -12.5t47.5 -9t51.5 -3q158 0 246 94.5t88 225.5q0 150 -93.5 242.5t-248.5 92.5q-117 0 -220 -63l-45 31
v600h645v-76h-565v-461q12 8 31 17t69 20.5t105 11.5q198 0 305 -111t107 -296z" />
    <glyph glyph-name="six.taboldstyle" unicode="&#xf649;" 
d="M1001 414q0 -185 -108 -308.5t-283 -123.5q-73 0 -134 21t-104 56t-76 84.5t-53 103.5t-33 116.5t-17.5 119t-4.5 115.5q0 100 11 190.5t42 187.5t80 167t132.5 115t191.5 45q197 0 324 -127l-54 -56l-12 10q-12 10 -18.5 15t-23 16t-30 18t-34.5 16.5t-40.5 14.5
t-45.5 9t-52 4q-93 0 -163.5 -39t-112 -100t-67.5 -148t-35 -170.5t-9 -179.5q0 -14 4 -54q21 127 116.5 208t244.5 81q174 0 269 -113.5t95 -293.5zM918 408q0 71 -17 130.5t-50.5 106.5t-89.5 73.5t-128 26.5q-143 0 -233.5 -106t-90.5 -254q0 -137 86 -232.5t221 -95.5
q95 0 165 51t103.5 129.5t33.5 170.5z" />
    <glyph glyph-name="seven.taboldstyle" unicode="&#xf64a;" 
d="M969 979l-525 -1227h-96l531 1219h-715v82h805v-74z" />
    <glyph glyph-name="eight.taboldstyle" unicode="&#xf64b;" 
d="M997 338q0 -161 -110.5 -258.5t-292.5 -97.5q-176 0 -291 96.5t-115 257.5q0 59 14 109t36 82.5t50.5 57.5t54.5 38.5t52 22t40 11t20 2.5q-12 0 -35.5 7t-59.5 29t-67 54t-53.5 90t-22.5 130q0 147 106 240.5t271 93.5q170 0 272.5 -89.5t102.5 -236.5q0 -54 -12 -100
t-30 -77t-43.5 -57t-46 -40t-45 -25t-33.5 -14t-18 -5q168 -34 228 -172q28 -65 28 -149zM883 971q0 119 -80 188.5t-207 69.5q-130 0 -211.5 -70t-81.5 -188q0 -116 81.5 -195.5t211.5 -79.5q127 0 207 78t80 197zM907 340q0 134 -83.5 208.5t-229.5 74.5
q-142 0 -228.5 -76.5t-86.5 -204.5q0 -135 88.5 -211t228.5 -76q142 0 226.5 75.5t84.5 209.5z" />
    <glyph glyph-name="nine.taboldstyle" unicode="&#xf64c;" 
d="M999 455q0 -69 -5.5 -134.5t-19.5 -137.5t-36 -133t-57.5 -117.5t-82 -96t-112 -63t-143.5 -23.5q-197 0 -324 127l53 55q1 -1 10.5 -8.5t15.5 -12.5t19 -14.5t24.5 -15.5t28 -14.5t33.5 -14.5t37 -11.5t42.5 -8t45.5 -2.5q93 0 163.5 39t112 100t67.5 148t35 170.5
t9 179.5q0 13 -4 53q-21 -127 -116 -208t-244 -81q-174 0 -269.5 114t-95.5 294q0 185 108.5 308.5t283.5 123.5q85 0 153 -27t113 -76t76.5 -108t48 -131.5t23.5 -138t7 -135.5zM879 668q0 137 -86.5 232t-221.5 95q-95 0 -165 -50.5t-103 -129t-33 -170.5q0 -96 29 -170
t94.5 -121t161.5 -47q143 0 233.5 106.5t90.5 254.5z" />
    <glyph glyph-name="Euro.taboldstyle" unicode="&#xf64e;" 
d="M1085 102q-48 -36 -72 -50q-132 -75 -280 -75q-88 0 -162 26t-122.5 66t-86.5 95.5t-58.5 106.5t-34.5 108t-18.5 90.5t-6.5 62.5h-133v78h127q-2 49 -2 84q0 21 2 62h-127v78h133q1 23 6 56t19.5 88.5t36.5 108t61.5 109.5t89 99t124.5 69t164 27q56 0 111.5 -13.5
t93.5 -32.5t60 -33t28 -20l-47 -65q-118 84 -241 84q-77 0 -140.5 -24.5t-104.5 -60t-73 -88t-48.5 -94.5t-27.5 -94t-13.5 -73t-4.5 -43h557v-78h-563q-2 -27 -2 -82q0 -19 2 -64h563v-78h-557q41 -361 257 -447q62 -24 136 -24q31 0 62 4t56 10.5t50 16t43 18.5t35.5 19
t27.5 17l20 14t11 8z" />
    <glyph glyph-name="florin.taboldstyle" unicode="&#xf64f;" 
d="M1157 1350l-31 -70q-56 31 -137 31q-95 0 -150.5 -58.5t-86.5 -205.5l-76 -353h319l-16 -80h-322l-133 -645q-1 -3 -10 -48.5t-12.5 -59.5t-13.5 -54.5t-17.5 -60.5t-19 -50t-24.5 -50t-28 -35q-72 -72 -190 -72q-26 0 -50.5 2.5t-42 6.5t-34 9t-25 9t-17.5 8l-9 4l30 70
q77 -29 146 -29q86 0 125 39q13 13 24.5 30.5t21 42.5t16.5 45t15 53.5t12 53l12 58.5t11 55l131 618h-268l17 80h266l69 324q0 1 4 20.5t5 25.5t6 27.5t8 32t9.5 31t12 33.5t14 32t17 33t20 29t23.5 27q82 82 207 82q90 0 172 -41z" />
    <glyph glyph-name="sterling.taboldstyle" unicode="&#xf651;" 
d="M1036 1280l-49 -55q-100 86 -254 86q-156 0 -243 -101.5t-87 -291.5q0 -50 3 -92.5t8 -81.5t6 -48h389v-80h-381q0 -5 5 -58.5t5 -86.5q0 -297 -147 -393h731v-78h-868v74q37 15 60.5 27.5t51 38.5t43.5 59.5t26.5 88t10.5 126.5q0 86 -8 202h-180v80h172
q-19 152 -19 222q0 219 111.5 345t302.5 126q66 0 125.5 -13.5t96.5 -33t59 -35.5t30 -27z" />
    <glyph glyph-name="yen.taboldstyle" unicode="&#xf652;" 
d="M1061 1366l-399 -674h270v-78h-299v-108h299v-78h-299v-428h-86v428h-295v78h295v108h-295v78h264l-389 674h104l357 -653l373 653h100z" />
    <glyph glyph-name="dollar.taboldstyle" unicode="&#xf653;" 
d="M1004 373q0 -155 -94.5 -259.5t-268.5 -119.5v-187h-78v183q-34 1 -67.5 4.5t-61 9.5t-54 14.5t-47.5 17t-41.5 19t-34.5 19t-28 18.5t-21.5 15.5t-15 12.5t-8.5 7l52 68l14 -10q14 -10 28 -19.5t37.5 -23.5t50 -25t57.5 -21.5t67.5 -17t72.5 -6.5v612q-70 30 -99 43
t-78.5 42.5t-82.5 61.5q-84 81 -84 213t94 223.5t250 104.5v139h78v-137q217 -8 340 -135l4 -4l-55 -55l-8 7q-7 7 -12 11t-16.5 13t-21.5 15.5t-26 16t-31 16t-35.5 14t-41 12.5t-46 8.5t-51.5 4.5v-548q179 -69 258 -142q105 -98 105 -235zM563 778v516q-116 -15 -187 -85
t-71 -169q0 -83 64 -147q16 -16 34.5 -30t32.5 -23.5t35.5 -20.5t31.5 -15.5t33 -14t27 -11.5zM907 367q0 97 -80 174q-62 57 -186 112v-579q130 20 198 97.5t68 195.5z" />
    <glyph glyph-name="cent.taboldstyle" unicode="&#xf654;" 
d="M993 92q-25 -22 -102 -53.5t-174 -36.5v-195h-78v195q-188 12 -302 139t-114 342q0 219 112.5 364t303.5 167v164h78v-160q73 -2 137.5 -23.5t91.5 -39t35 -27.5l-43 -64l-8 6q-9 5 -15 8.5t-19.5 11t-25 12.5t-30 11.5t-36 10.5t-40.5 7.5t-47 4.5v-850q141 10 237 74z
M639 86v846q-152 -20 -240 -137t-88 -293q0 -179 91 -290.5t237 -125.5z" />
    <glyph glyph-name="zero.dnom" unicode="&#xf655;" horiz-adv-x="759" 
d="M668 352q0 -170 -76 -265t-215 -95q-132 0 -208.5 89t-76.5 243q0 179 76.5 276.5t218.5 97.5q130 0 205.5 -93.5t75.5 -252.5zM578 354q0 127 -49.5 201t-141.5 74q-100 0 -152.5 -78.5t-52.5 -220.5q0 -126 50 -197.5t145 -71.5t148 74t53 219z" />
    <glyph glyph-name="one.dnom" unicode="&#xf656;" horiz-adv-x="759" 
d="M461 0h-78v598l-180 -111l-43 60l233 143h68v-690z" />
    <glyph glyph-name="two.dnom" unicode="&#xf657;" horiz-adv-x="759" 
d="M571 0h-403v63l66.5 66.5l67.5 67.5t59 61t54 63.5t39.5 58t29 59.5t8.5 55q0 60 -34.5 95.5t-95.5 35.5q-70 0 -149 -66l-45 45q13 17 35 35.5t69.5 38.5t98.5 20q92 0 149.5 -55t57.5 -145q0 -45 -16.5 -89.5t-51.5 -90.5t-60.5 -73.5t-72.5 -74.5l-105 -100h299v-70z
" />
    <glyph glyph-name="three.dnom" unicode="&#xf658;" horiz-adv-x="759" 
d="M584 197q0 -95 -65 -150t-157 -55q-132 0 -202 88l49 49q68 -68 143 -68q69 0 107.5 32t38.5 93q0 27 -7 48t-17.5 34t-28.5 22.5t-32 14t-37 7t-35.5 3t-35.5 0.5h-24v74h36q26 0 43 1t44 7.5t43.5 18t29 35.5t12.5 57q0 52 -33.5 86.5t-90.5 34.5q-13 0 -26 -2t-24 -6
t-21 -8t-18.5 -10t-15.5 -10.5t-13.5 -10.5t-10 -9t-7.5 -7l-4 -5l-51 47q5 11 25.5 30t67.5 39.5t102 20.5q92 0 149 -51.5t57 -136.5q0 -60 -34 -100t-92 -54q135 -26 135 -159z" />
    <glyph glyph-name="four.dnom" unicode="&#xf659;" horiz-adv-x="759" 
d="M629 170h-99v-170h-73v170h-344v57l350 463h67v-457h99v-63zM457 233v349l-262 -349h262z" />
    <glyph glyph-name="five.dnom" unicode="&#xf65a;" horiz-adv-x="759" 
d="M598 219q0 -101 -69 -164t-173 -63q-53 0 -100.5 16.5t-66.5 29.5t-29 23l41 56q81 -56 149 -56q76 0 119 41t43 113q0 65 -42 110.5t-118 45.5q-69 0 -121 -39l-41 18v340h373v-72h-295v-204q36 26 101 26q106 0 167.5 -61.5t61.5 -159.5z" />
    <glyph glyph-name="six.dnom" unicode="&#xf65b;" horiz-adv-x="759" 
d="M616 227q0 -102 -63.5 -168.5t-165.5 -66.5q-83 0 -139.5 48t-80.5 120t-24 162q0 71 13.5 134t42.5 119.5t82.5 89.5t126.5 33q47 0 91 -15.5t64 -29t31 -24.5l-39 -51q-66 53 -139 53q-49 0 -85.5 -23t-56.5 -64t-30.5 -87.5t-12.5 -102.5q24 43 69.5 69t102.5 26
q98 0 155.5 -62.5t57.5 -159.5zM539 223q0 70 -37 115t-105 45q-72 0 -111.5 -49.5t-39.5 -120.5q0 -66 40 -110t103 -44q69 0 109.5 48t40.5 116z" />
    <glyph glyph-name="seven.dnom" unicode="&#xf65c;" horiz-adv-x="759" 
d="M606 625l-274 -625h-86l278 612h-370v72h452v-59z" />
    <glyph glyph-name="eight.dnom" unicode="&#xf65d;" horiz-adv-x="759" 
d="M618 188q0 -86 -66.5 -141t-170.5 -55q-107 0 -174.5 54t-67.5 140q0 65 34 109.5t85 60.5q-98 39 -98 154q0 85 63.5 136.5t159.5 51.5t156.5 -51.5t60.5 -134.5q0 -50 -28 -94.5t-76 -61.5q54 -15 88 -57t34 -111zM520 510q0 56 -38 90.5t-99 34.5q-64 0 -103.5 -34.5
t-39.5 -90.5q0 -62 42.5 -94.5t100.5 -32.5q56 0 96.5 31.5t40.5 95.5zM537 188q0 62 -43 98t-113 36q-72 0 -116 -36t-44 -98q0 -61 43.5 -96t118.5 -35q70 0 112 35t42 96z" />
    <glyph glyph-name="nine.dnom" unicode="&#xf65e;" horiz-adv-x="759" 
d="M616 371q0 -56 -7.5 -107.5t-27 -102t-49 -87t-76.5 -59.5t-106 -23q-69 0 -120.5 26.5t-67.5 47.5l41 51q19 -19 59 -37.5t82 -18.5q169 0 188 277q-25 -42 -74.5 -67t-99.5 -25q-99 0 -157 62.5t-58 158.5q0 98 64.5 164.5t163.5 66.5q67 0 116.5 -29t76.5 -77.5
t39.5 -103.5t12.5 -117zM516 475q0 67 -41.5 112.5t-105.5 45.5q-69 0 -108.5 -47.5t-39.5 -116.5q0 -71 35.5 -115.5t103.5 -44.5q70 0 113 46t43 120z" />
    <glyph glyph-name="zero.numr" unicode="&#xf661;" horiz-adv-x="759" 
d="M668 1028q0 -170 -76 -265t-215 -95q-132 0 -208.5 88.5t-76.5 242.5q0 179 76.5 277t218.5 98q130 0 205.5 -93.5t75.5 -252.5zM578 1030q0 127 -49.5 201t-141.5 74q-100 0 -152.5 -78.5t-52.5 -220.5q0 -126 50 -197.5t145 -71.5t148 74t53 219z" />
    <glyph glyph-name="one.numr" unicode="&#xf662;" horiz-adv-x="759" 
d="M461 676h-78v598l-180 -111l-43 60l233 143h68v-690z" />
    <glyph glyph-name="two.numr" unicode="&#xf663;" horiz-adv-x="759" 
d="M571 676h-403v63q23 23 77 76.5t78.5 79t64 70t57.5 73t32.5 64.5t14.5 67q0 60 -34.5 95.5t-95.5 35.5q-71 0 -149 -65l-45 45q13 17 35 35.5t69.5 38.5t98.5 20q92 0 149.5 -55t57.5 -145q0 -45 -16.5 -89.5t-51.5 -90.5t-60.5 -73.5t-72.5 -74.5l-105 -101h299v-69z
" />
    <glyph glyph-name="three.numr" unicode="&#xf664;" horiz-adv-x="759" 
d="M584 872q0 -95 -65 -149.5t-157 -54.5q-132 0 -202 88l49 49q68 -68 143 -68q69 0 107.5 32t38.5 93q0 27 -7 48t-17.5 34t-28.5 22.5t-32 14t-37 7t-35.5 3t-35.5 0.5h-24v74h36q26 0 43 1t44 7.5t43.5 18t29 35.5t12.5 57q0 52 -33.5 86.5t-90.5 34.5q-13 0 -26 -2
t-24 -6t-21 -8t-18.5 -10t-15.5 -10.5t-13.5 -10.5t-10 -9t-7.5 -7l-4 -5l-51 47q5 11 25.5 30t67.5 39.5t102 20.5q92 0 149 -51.5t57 -136.5q0 -60 -34 -100t-92 -54q135 -26 135 -160z" />
    <glyph glyph-name="four.numr" unicode="&#xf665;" horiz-adv-x="759" 
d="M629 846h-99v-170h-73v170h-344v57l350 463h67v-457h99v-63zM457 909v348l-262 -348h262z" />
    <glyph glyph-name="five.numr" unicode="&#xf666;" horiz-adv-x="759" 
d="M598 895q0 -101 -69 -164t-173 -63q-53 0 -100.5 16.5t-66.5 29.5t-29 23l41 56q81 -56 149 -56q76 0 119 41t43 113q0 65 -42 110.5t-118 45.5q-69 0 -121 -39l-41 18v340h373v-72h-295v-204q36 26 101 26q106 0 167.5 -61.5t61.5 -159.5z" />
    <glyph glyph-name="six.numr" unicode="&#xf667;" horiz-adv-x="759" 
d="M616 903q0 -102 -63.5 -168.5t-165.5 -66.5q-122 0 -183 94.5t-61 234.5q0 71 13.5 134t42.5 119.5t82.5 90t126.5 33.5q47 0 91 -15.5t64 -29t31 -24.5l-39 -52q-67 54 -139 54q-49 0 -85.5 -23t-56.5 -64t-30.5 -87.5t-12.5 -102.5q24 42 69.5 68t102.5 26
q98 0 155.5 -62t57.5 -159zM539 899q0 70 -37 115t-105 45q-72 0 -111.5 -49.5t-39.5 -120.5q0 -66 40 -110t103 -44q69 0 109.5 48t40.5 116z" />
    <glyph glyph-name="seven.numr" unicode="&#xf668;" horiz-adv-x="759" 
d="M606 1307l-274 -631h-86l278 618h-370v72h452v-59z" />
    <glyph glyph-name="eight.numr" unicode="&#xf669;" horiz-adv-x="759" 
d="M618 864q0 -86 -66.5 -141t-170.5 -55q-107 0 -174.5 54t-67.5 140q0 65 34 109.5t85 60.5q-98 39 -98 154q0 85 63.5 136.5t159.5 51.5t156.5 -51.5t60.5 -134.5q0 -50 -28 -94.5t-76 -61.5q54 -15 88 -57t34 -111zM520 1186q0 56 -38 90.5t-99 34.5q-64 0 -103.5 -34.5
t-39.5 -90.5q0 -62 42.5 -94.5t100.5 -32.5q56 0 96.5 31.5t40.5 95.5zM537 864q0 62 -43 97.5t-113 35.5q-72 0 -116 -35.5t-44 -97.5q0 -61 43.5 -96t118.5 -35q70 0 112 35t42 96z" />
    <glyph glyph-name="nine.numr" unicode="&#xf66a;" horiz-adv-x="759" 
d="M616 1047q0 -56 -7.5 -107.5t-27 -102t-49 -87t-76.5 -59.5t-106 -23q-69 0 -120.5 26t-67.5 47l41 52q19 -19 59 -37.5t82 -18.5q169 0 188 277q-25 -42 -74.5 -67t-99.5 -25q-99 0 -157 62.5t-58 158.5q0 98 64.5 164.5t163.5 66.5q67 0 116.5 -29t76.5 -77.5
t39.5 -103.5t12.5 -117zM516 1151q0 67 -41.5 112.5t-105.5 45.5q-69 0 -108.5 -47.5t-39.5 -116.5q0 -71 35.5 -115.5t103.5 -44.5q70 0 113 46t43 120z" />
    <glyph glyph-name="Acute" unicode="&#xf6c9;" horiz-adv-x="757" 
d="M608 1620l-428 -158l-30 64l415 192z" />
    <glyph glyph-name="Caron" unicode="&#xf6ca;" horiz-adv-x="757" 
d="M78 1649l39 61l260 -137l260 137l43 -61l-303 -185z" />
    <glyph glyph-name="Dieresis" unicode="&#xf6cb;" horiz-adv-x="757" 
d="M594 1571q0 -31 -20.5 -52.5t-51.5 -21.5t-52 21.5t-21 52.5t21 51t52 20t51.5 -20t20.5 -51zM307 1571q0 -31 -20.5 -52.5t-50.5 -21.5q-31 0 -52.5 21.5t-21.5 52.5q0 30 21.5 50.5t52.5 20.5t51 -20t20 -51z" />
    <glyph glyph-name="Grave" unicode="&#xf6ce;" horiz-adv-x="757" 
d="M578 1462l-428 158l43 98l415 -192z" />
    <glyph glyph-name="Hungarumlaut" unicode="&#xf6cf;" horiz-adv-x="757" 
d="M610 1837l-135 -342l-78 25l105 352zM360 1837l-131 -342l-79 25l104 352z" />
    <glyph glyph-name="Macron" unicode="&#xf6d0;" horiz-adv-x="757" 
d="M698 1501h-639v78h639v-78z" />
    <glyph glyph-name="one.fitted" unicode="&#xf6dc;" horiz-adv-x="694" 
d="M514 0h-86v1262l-348 -236l-51 68l407 272h78v-1366z" />
    <glyph glyph-name="Lslashsmall" unicode="&#xf6f9;" horiz-adv-x="843" 
d="M782 0h-567v469l-139 -98l-41 49l180 129v504h86v-457l213 147l37 -49l-250 -176v-440h481v-78z" />
    <glyph glyph-name="OEsmall" unicode="&#xf6fa;" horiz-adv-x="1488" 
d="M1382 0h-594q-99 0 -161 3.5t-136 16t-130 40.5t-101 73q-73 73 -114.5 163t-41.5 226q0 239 150 389q84 84 197.5 113t281.5 29h633v-76h-494v-387h463v-74h-463v-438h510v-78zM786 74v905h-24q-185 0 -278 -23.5t-167 -97.5q-118 -118 -118 -340q0 -205 114 -319
q47 -47 95.5 -72t135 -39t226.5 -14h16z" />
    <glyph glyph-name="Scaronsmall" unicode="&#xf6fd;" horiz-adv-x="849" 
d="M737 291q0 -136 -86.5 -222.5t-249.5 -86.5q-182 0 -312 112l-2 2h-1l51 68q1 0 10.5 -8t21.5 -16t30 -19t39.5 -21t46 -18.5t54 -13.5t58.5 -5q130 0 192 63.5t62 152.5q0 74 -55 129q-35 35 -94 65.5t-112.5 48.5t-112.5 47.5t-93 63.5q-39 45 -53 84q-14 40 -14 88
q0 116 87.5 190t227.5 74q64 0 117 -12.5t89.5 -35.5t53 -37t35.5 -34l-49 -53q-51 46 -98 66q-64 28 -142 28q-103 0 -170 -52.5t-67 -129.5q0 -70 45 -115q36 -36 115 -67t162 -66.5t130 -83.5q84 -84 84 -186zM737 1360l-303 -184l-299 184l39 61l260 -137l260 137z" />
    <glyph glyph-name="Zcaronsmall" unicode="&#xf6ff;" horiz-adv-x="931" 
d="M829 0h-735v63l621 914h-584v76h684v-64l-614 -911h628v-78zM752 1360l-303 -184l-299 184l38 61l261 -137l260 137z" />
    <glyph glyph-name="ampersandsmall" unicode="&#xf726;" horiz-adv-x="1148" 
d="M1047 0h-17q-51 0 -90.5 9t-72.5 30.5t-48 34.5t-45 43q-13 -13 -33 -28.5t-63 -42t-105.5 -43.5t-130.5 -17q-139 0 -232 87t-93 216q0 62 24.5 119.5t63.5 95.5q47 47 147 90q-125 125 -125 244q0 100 77.5 165.5t195.5 65.5q113 0 181.5 -58.5t68.5 -152.5
q0 -51 -21.5 -96t-49.5 -73.5t-69 -53t-65.5 -35t-52.5 -21.5q-8 -3 -11 -4l293 -327q38 48 72.5 137.5t34.5 189.5h86q0 -114 -34 -218t-99 -179q68 -68 109.5 -85t103.5 -17v-76zM664 846q0 63 -39 106t-127 43q-76 0 -129.5 -44t-53.5 -111q0 -46 28 -91.5t91 -115.5
l22 9q21 8 32.5 13t36.5 18t40.5 23.5t36.5 28t33 34.5t20.5 40t8.5 47zM717 182l-316 357q-96 -42 -143 -99q-53 -64 -53 -147q0 -97 71.5 -161t178.5 -64q148 0 262 114z" />
    <glyph glyph-name="zerooldstyle" unicode="&#xf730;" horiz-adv-x="1185" 
d="M1073 526q0 -238 -134.5 -391t-352.5 -153q-201 0 -337 150.5t-136 377.5q0 244 136.5 400.5t352.5 156.5q204 0 337.5 -152t133.5 -389zM979 537q0 203 -110.5 328.5t-280.5 125.5q-174 0 -277.5 -124.5t-103.5 -334.5q0 -208 109.5 -340.5t275.5 -132.5q173 0 280 128
t107 350z" />
    <glyph glyph-name="oneoldstyle" unicode="&#xf731;" horiz-adv-x="573" 
d="M399 0h-84v946l-256 -166l-51 68l324 205h67v-1053z" />
    <glyph glyph-name="twooldstyle" unicode="&#xf732;" horiz-adv-x="813" 
d="M721 0h-672v70q2 2 54 49t123.5 113.5t123.5 119.5q72 74 113.5 121t78.5 99.5t52.5 99.5t15.5 98q0 85 -61.5 152t-177.5 67q-55 0 -105.5 -13.5t-85.5 -34.5t-51.5 -33.5t-26.5 -22.5l-49 51q4 6 17 19.5t42.5 34t66 38t92 30.5t114.5 13q71 0 128 -20t91.5 -51t57 -71
t31.5 -77t9 -72q0 -104 -48 -191t-195 -237q-36 -37 -78.5 -78t-77.5 -73.5t-65 -59.5t-49 -44t-21 -19h553v-78z" />
    <glyph glyph-name="threeoldstyle" unicode="&#xf733;" horiz-adv-x="882" 
d="M752 121q0 -102 -53.5 -189t-144 -136.5t-194.5 -49.5q-68 0 -127.5 13t-96.5 30t-68 39.5t-42 34t-18 20.5l49 56l7 -6q7 -6 15.5 -13.5t23.5 -17.5t31.5 -19.5t39 -19.5t46 -17t53 -11.5t59.5 -4.5q149 0 238 76t89 198q0 57 -21 108t-52 83q-54 56 -126.5 74
t-209.5 18h-10v78h16q131 0 203.5 24.5t115.5 69.5q68 71 68 176q0 107 -74.5 181.5t-206.5 74.5q-55 0 -108 -15.5t-90 -38.5t-56 -37t-28 -23l-49 55q2 4 17 18.5t46 35.5t69 40.5t92.5 33t109.5 13.5q169 0 268.5 -98t99.5 -240q0 -119 -68 -208t-182 -101
q119 -7 194 -93.5t75 -211.5z" />
    <glyph glyph-name="fouroldstyle" unicode="&#xf734;" horiz-adv-x="952" 
d="M928 20h-164v-268h-84v268h-641v70l627 963h98v-957h164v-76zM680 96v840l-547 -840h547z" />
    <glyph glyph-name="fiveoldstyle" unicode="&#xf735;" horiz-adv-x="968" 
d="M866 158q0 -179 -113.5 -293.5t-295.5 -114.5q-63 0 -120.5 12t-94.5 28.5t-67 36t-42 30.5t-16 16l45 61l8 -6q8 -7 15 -12t20.5 -14t27 -16.5t31 -16t37.5 -15t42 -12.5t47.5 -9t51.5 -3q158 0 246 94.5t88 225.5q0 150 -93.5 242.5t-248.5 92.5q-116 0 -219 -63
l-45 31v600h645v-76h-565v-461q12 8 31 17t69 20.5t105 11.5q198 0 304.5 -111t106.5 -296z" />
    <glyph glyph-name="sixoldstyle" unicode="&#xf736;" horiz-adv-x="1038" 
d="M926 414q0 -185 -108 -308.5t-283 -123.5q-73 0 -134 21t-104 56t-76 84.5t-53 103.5t-33 116.5t-17.5 119t-4.5 115.5q0 69 5.5 134.5t19.5 137.5t36 133t57.5 117.5t82 96t112 63t143.5 23.5q197 0 324 -127l-53 -56l-12 10q-12 10 -18.5 15t-23 16t-30 18t-34.5 16.5
t-40.5 14.5t-45.5 9t-52 4q-93 0 -163.5 -39t-112 -100t-67.5 -148t-35 -170.5t-9 -179.5q0 -14 4 -54q21 127 116 208t244 81q174 0 269.5 -113.5t95.5 -293.5zM842 408q0 71 -17 130.5t-50.5 106.5t-89.5 73.5t-128 26.5q-143 0 -233.5 -106t-90.5 -254
q0 -137 86.5 -232.5t221.5 -95.5q95 0 165 51t103 129t33 171z" />
    <glyph glyph-name="sevenoldstyle" unicode="&#xf737;" horiz-adv-x="851" 
d="M803 979l-524 -1227h-97l531 1219h-715v82h805v-74z" />
    <glyph glyph-name="eightoldstyle" unicode="&#xf738;" horiz-adv-x="1034" 
d="M922 338q0 -161 -111 -258.5t-293 -97.5q-176 0 -290.5 96.5t-114.5 257.5q0 59 14 109t35.5 82.5t50 57.5t55 38.5t52 22t39.5 11t20 2.5q-12 0 -35.5 7t-59.5 29t-67 54t-53.5 90t-22.5 130q0 147 106 240.5t271 93.5q170 0 272.5 -89.5t102.5 -236.5q0 -54 -12 -100
t-29.5 -77t-43 -57t-46 -40t-45 -25t-33.5 -14t-18 -5q168 -34 228 -172q28 -65 28 -149zM807 971q0 119 -80 188.5t-207 69.5q-130 0 -211.5 -70t-81.5 -188q0 -116 81.5 -195.5t211.5 -79.5q127 0 207 78t80 197zM831 340q0 134 -83.5 208.5t-229.5 74.5
q-142 0 -228.5 -76.5t-86.5 -204.5q0 -135 88.5 -211t228.5 -76q142 0 226.5 75.5t84.5 209.5z" />
    <glyph glyph-name="nineoldstyle" unicode="&#xf739;" horiz-adv-x="1038" 
d="M926 455q0 -100 -11 -190.5t-42 -187.5t-80 -167t-132.5 -115t-191.5 -45q-197 0 -324 127l54 55q1 -1 10.5 -8.5t15.5 -12.5t19 -14.5t24.5 -15.5t28 -14.5t33.5 -14.5t37 -11.5t42.5 -8t45.5 -2.5q93 0 163.5 39t112 100t67.5 148t35 170.5t9 179.5q0 13 -4 53
q-21 -127 -116.5 -208t-244.5 -81q-174 0 -269 114t-95 294q0 185 108 308.5t283 123.5q73 0 134 -21t104 -56t76 -84.5t53 -103.5t33 -116.5t17.5 -119t4.5 -115.5zM805 668q0 137 -86 232t-221 95q-95 0 -165 -50.5t-103 -129t-33 -170.5q0 -96 28.5 -170t94 -121
t161.5 -47q143 0 233.5 106.5t90.5 254.5z" />
    <glyph glyph-name="Asmall" unicode="&#xf761;" horiz-adv-x="962" 
d="M936 0h-94l-123 317h-486l-120 -317h-86l405 1053h96zM688 395l-213 561l-213 -561h426z" />
    <glyph glyph-name="Bsmall" unicode="&#xf762;" horiz-adv-x="927" 
d="M823 299q0 -116 -80 -199q-62 -64 -142 -82t-243 -18h-198v1053h264q101 0 170 -16.5t117 -65.5q75 -78 75 -195q0 -51 -16 -92t-38.5 -64.5t-53 -40.5t-52 -23.5t-44.5 -10.5q28 -1 56.5 -6.5t63 -22.5t60.5 -43t43.5 -71t17.5 -103zM698 780q0 80 -55 135
q-22 23 -52 37.5t-71.5 19.5t-64 6t-70.5 1h-141v-406h135q191 0 268 80q51 51 51 127zM735 293q0 80 -55 137q-32 33 -88.5 49.5t-97.5 18.5t-115 2h-6h-5h-6h-118v-424h168q104 0 164 15t106 63q53 53 53 139z" />
    <glyph glyph-name="Csmall" unicode="&#xf763;" horiz-adv-x="974" 
d="M932 78q-21 -26 -116 -61t-218 -35q-104 0 -194 36.5t-156.5 103.5t-105 168.5t-38.5 225.5q0 129 40.5 234.5t111 174.5t163 106.5t197.5 37.5q57 0 107.5 -8t82 -18t57 -23t35.5 -20.5t15 -12.5l-45 -65q-95 63 -241 63q-192 0 -312 -123t-120 -336q0 -214 110.5 -337
t302.5 -123q36 0 71 4t62 11t50.5 15t40.5 16t29.5 14.5t19.5 11.5t8 5z" />
    <glyph glyph-name="Dsmall" unicode="&#xf764;" horiz-adv-x="1134" 
d="M1030 530q0 -82 -15 -150t-43 -116.5t-46 -72t-43 -50.5q-84 -85 -195 -113t-280 -28h-248v1053h192q98 0 160 -3.5t135.5 -16t129.5 -40.5t100 -73q72 -73 112.5 -164t40.5 -226zM936 535q0 203 -113 319q-46 47 -93.5 72t-133.5 39t-225 14h-123v-905h131
q183 0 275.5 23.5t164.5 97.5q117 120 117 340z" />
    <glyph glyph-name="Esmall" unicode="&#xf765;" horiz-adv-x="843" 
d="M737 0h-577v1053h565v-76h-481v-387h450v-74h-450v-438h493v-78z" />
    <glyph glyph-name="Fsmall" unicode="&#xf766;" horiz-adv-x="798" 
d="M709 977h-463v-387h430v-74h-430v-516h-86v1053h549v-76z" />
    <glyph glyph-name="Gsmall" unicode="&#xf767;" horiz-adv-x="1067" 
d="M946 76q-132 -94 -338 -94q-227 0 -365.5 143.5t-138.5 390.5q0 129 40.5 234.5t111 174.5t163 106.5t197.5 37.5q57 0 107.5 -8t82 -18t57 -23t35.5 -20.5t15 -12.5l-45 -65q-95 63 -241 63q-192 0 -312 -123t-120 -336q0 -217 112.5 -340t319.5 -123q67 0 125 13.5
t79.5 23.5t30.5 17v323h-252v72h336v-436z" />
    <glyph glyph-name="Hsmall" unicode="&#xf768;" horiz-adv-x="1064" 
d="M905 0h-86v516h-573v-516h-86v1053h86v-461h573v461h86v-1053z" />
    <glyph glyph-name="Ismall" unicode="&#xf769;" horiz-adv-x="405" 
d="M246 0h-86v1053h86v-1053z" />
    <glyph glyph-name="Jsmall" unicode="&#xf76a;" horiz-adv-x="587" 
d="M444 315q0 -80 -2 -117t-16 -79.5t-43 -71.5q-65 -65 -158 -65q-76 0 -130 23t-75 44l39 66l9 -6q8 -6 16.5 -11t24 -12t30.5 -12.5t36.5 -9t43.5 -3.5q63 0 98 35q10 10 17 20.5t11.5 25.5t7.5 24t4 28.5t1 25v28.5v26v779h86v-738z" />
    <glyph glyph-name="Ksmall" unicode="&#xf76b;" horiz-adv-x="880" 
d="M866 0h-114l-508 498v-498h-84v1053h84v-496l495 496h99l-514 -518z" />
    <glyph glyph-name="Lsmall" unicode="&#xf76c;" horiz-adv-x="784" 
d="M723 0h-563v1053h86v-975h477v-78z" />
    <glyph glyph-name="Msmall" unicode="&#xf76d;" horiz-adv-x="1429" 
d="M1307 0h-93l-114 924l-355 -924h-71l-359 924l-110 -924h-82l135 1053h98l361 -928l354 928h98z" />
    <glyph glyph-name="Nsmall" unicode="&#xf76e;" horiz-adv-x="1067" 
d="M907 0h-102l-565 930l6 -930h-86v1053h100l569 -940l-6 940h84v-1053z" />
    <glyph glyph-name="Osmall" unicode="&#xf76f;" horiz-adv-x="1169" 
d="M1065 526q0 -238 -134.5 -391t-352.5 -153q-201 0 -337.5 150.5t-136.5 377.5q0 244 137 400.5t353 156.5q204 0 337.5 -152t133.5 -389zM971 537q0 203 -110.5 328.5t-280.5 125.5q-174 0 -277.5 -124.5t-103.5 -334.5q0 -208 109.5 -340.5t275.5 -132.5q173 0 280 128
t107 350z" />
    <glyph glyph-name="Psmall" unicode="&#xf770;" horiz-adv-x="899" 
d="M801 752q0 -134 -90 -224q-14 -14 -30.5 -25.5t-30 -20.5t-34.5 -15.5t-32.5 -11t-36.5 -7.5t-34.5 -4.5t-38 -2.5t-34.5 -1h-37.5h-35.5h-121v-440h-86v1053h239q76 0 121 -4t99.5 -23.5t93.5 -58.5q44 -44 66 -101.5t22 -113.5zM715 756q0 98 -66 164q-26 27 -70 40.5
t-79 16t-92 2.5h-162v-465h114q98 0 156.5 8t83.5 20.5t47 35.5q68 68 68 178z" />
    <glyph glyph-name="Qsmall" unicode="&#xf771;" horiz-adv-x="1169" 
d="M1065 526q0 -232 -126.5 -383t-334.5 -161q110 -132 340 -132q36 0 70 4.5t35 4.5l10 -68q-49 -14 -139 -14q-280 0 -408 209q-79 10 -152 51t-130.5 106t-91.5 160.5t-34 206.5q0 244 137 400.5t353 156.5q204 0 337.5 -152t133.5 -389zM971 535q0 203 -110.5 328.5
t-280.5 125.5q-174 0 -277.5 -124.5t-103.5 -334.5q0 -208 109.5 -340.5t275.5 -132.5q173 0 280 128t107 350z" />
    <glyph glyph-name="Rsmall" unicode="&#xf772;" horiz-adv-x="919" 
d="M866 0h-90l-151 319q-27 56 -45 83t-50.5 45t-71.5 22t-116 4h-96v-473h-86v1053h209q135 0 186 -10q92 -18 150 -76q83 -83 83 -203q0 -105 -69 -174q-35 -35 -75 -55.5t-105 -30.5q63 -4 90.5 -32.5t66.5 -111.5zM700 770q0 88 -57 145q-13 13 -28.5 23.5t-28.5 17
t-34 11.5t-31.5 7t-36 3.5t-33 1.5h-36h-32.5h-137v-430h78q76 0 120.5 3t103 22.5t95.5 56.5q57 57 57 139z" />
    <glyph glyph-name="Ssmall" unicode="&#xf773;" horiz-adv-x="849" 
d="M737 291q0 -136 -86.5 -222.5t-249.5 -86.5q-182 0 -312 112l-2 2h-1l51 68q1 0 10.5 -8t21.5 -16t30 -19t39.5 -21t46 -18.5t54 -13.5t58.5 -5q130 0 192 63.5t62 152.5q0 74 -55 129q-35 35 -94 65.5t-112.5 48.5t-112.5 47.5t-93 63.5q-39 45 -53 84q-14 40 -14 88
q0 116 87.5 190t227.5 74q64 0 117 -12.5t89.5 -35.5t53 -37t35.5 -34l-49 -53q-51 46 -98 66q-64 28 -142 28q-103 0 -170 -52.5t-67 -129.5q0 -70 45 -115q36 -36 115 -67t162 -66.5t130 -83.5q84 -84 84 -186z" />
    <glyph glyph-name="Tsmall" unicode="&#xf774;" horiz-adv-x="888" 
d="M825 977h-338v-977h-86v977h-338v76h762v-76z" />
    <glyph glyph-name="Usmall" unicode="&#xf775;" horiz-adv-x="1030" 
d="M887 432q0 -139 -9 -188q-18 -95 -85 -162q-100 -100 -277 -100q-87 0 -162.5 27.5t-124.5 78.5q-56 57 -71 121t-15 190v654h84v-703q0 -78 14 -125t52 -86q80 -80 227 -80q61 0 116.5 18.5t88.5 51.5q23 24 38.5 50.5t23.5 46.5t11.5 57.5t4 57.5t0.5 71v641h84v-621z
" />
    <glyph glyph-name="Vsmall" unicode="&#xf776;" horiz-adv-x="978" 
d="M934 1053l-389 -1053h-117l-383 1053h96l351 -981l358 981h84z" />
    <glyph glyph-name="Wsmall" unicode="&#xf777;" horiz-adv-x="1497" 
d="M1417 1053l-276 -1053h-131l-260 985l-263 -985h-131l-276 1053h96l250 -987l260 987h135l260 -987l248 987h88z" />
    <glyph glyph-name="Xsmall" unicode="&#xf778;" horiz-adv-x="921" 
d="M870 0h-104l-311 479l-303 -479h-101l350 549l-325 504h102l277 -435l272 435h102l-325 -508z" />
    <glyph glyph-name="Ysmall" unicode="&#xf779;" horiz-adv-x="890" 
d="M842 1053l-357 -639v-414h-82v414l-354 639h98l304 -553l299 553h92z" />
    <glyph glyph-name="Zsmall" unicode="&#xf77a;" horiz-adv-x="931" 
d="M829 0h-735v63l621 914h-584v76h684v-64l-614 -911h628v-78z" />
    <glyph glyph-name="Agravesmall" unicode="&#xf7e0;" horiz-adv-x="962" 
d="M936 0h-94l-123 317h-486l-120 -317h-86l405 1053h96zM688 395l-213 561l-213 -561h426zM711 1217l-31 -64l-428 158l43 98z" />
    <glyph glyph-name="Aacutesmall" unicode="&#xf7e1;" horiz-adv-x="962" 
d="M936 0h-94l-123 317h-486l-120 -317h-86l405 1053h96zM688 395l-213 561l-213 -561h426zM686 1311l-428 -158l-31 64l416 192z" />
    <glyph glyph-name="Acircumflexsmall" unicode="&#xf7e2;" horiz-adv-x="962" 
d="M936 0h-94l-123 317h-486l-120 -317h-86l405 1053h96zM688 395l-213 561l-213 -561h426zM778 1225l-39 -62l-260 137l-260 -137l-43 62l303 184z" />
    <glyph glyph-name="Atildesmall" unicode="&#xf7e3;" horiz-adv-x="962" 
d="M936 0h-94l-123 317h-486l-120 -317h-86l405 1053h96zM688 395l-213 561l-213 -561h426zM778 1296q-13 -13 -18.5 -18t-25.5 -20t-37.5 -22.5t-47 -14.5t-61.5 -7q-36 0 -112.5 23t-117.5 23q-33 0 -59.5 -8t-36.5 -14.5t-35 -23.5l-51 60q33 28 51 40.5t54 26t77 13.5
q38 0 116 -24.5t116 -24.5q21 0 40.5 3t32 7t25 11t18.5 11.5t14 11t9 7.5z" />
    <glyph glyph-name="Adieresissmall" unicode="&#xf7e4;" horiz-adv-x="962" 
d="M936 0h-94l-123 317h-486l-120 -317h-86l405 1053h96zM688 395l-213 561l-213 -561h426zM698 1284q0 -31 -20.5 -52.5t-50.5 -21.5q-31 0 -52.5 21.5t-21.5 52.5t21.5 51.5t52.5 20.5t51 -20.5t20 -51.5zM412 1284q0 -31 -20.5 -52.5t-51.5 -21.5t-52.5 21.5t-21.5 52.5
t21.5 51.5t52.5 20.5t51.5 -20.5t20.5 -51.5z" />
    <glyph glyph-name="Aringsmall" unicode="&#xf7e5;" horiz-adv-x="962" 
d="M936 0h-94l-123 317h-486l-120 -317h-86l405 1053h96zM688 395l-213 561l-213 -561h426zM676 1321q0 -79 -58 -137t-137 -58t-136.5 57.5t-57.5 137.5q0 83 57.5 139t136.5 56q82 0 138.5 -58t56.5 -137zM604 1321q0 53 -36 88t-87 35q-49 0 -85 -36.5t-36 -86.5
q0 -49 36 -85t85 -36q52 0 87.5 35.5t35.5 85.5z" />
    <glyph glyph-name="AEsmall" unicode="&#xf7e6;" horiz-adv-x="1392" 
d="M1286 0h-581v315h-398l-182 -315h-98l635 1053h612v-76h-486v-387h455v-74h-455v-438h498v-78zM705 391v594l-355 -594h355z" />
    <glyph glyph-name="Ccedillasmall" unicode="&#xf7e7;" horiz-adv-x="974" 
d="M940 78q-21 -26 -117.5 -61t-220.5 -35h-8l-19 -107q32 19 72 19q73 0 117.5 -45t44.5 -119q0 -79 -56.5 -126.5t-127.5 -47.5q-76 0 -138 32l25 58q58 -25 96 -25q64 0 91.5 32.5t27.5 72.5q0 44 -28 72t-74 28q-49 0 -86 -27l-43 25l34 162q-192 25 -309 164.5
t-117 365.5q0 129 41 234.5t112 174.5t164.5 106.5t199.5 37.5q58 0 109 -8t83 -18t58 -23t36 -20.5t15 -12.5l-45 -65q-95 63 -244 63q-193 0 -315.5 -123.5t-122.5 -335.5q0 -214 111.5 -337t305.5 -123q37 0 72 4t62.5 11t51.5 15t41.5 16t30 14.5t19.5 11.5t8 5z" />
    <glyph glyph-name="Egravesmall" unicode="&#xf7e8;" horiz-adv-x="843" 
d="M737 0h-577v1053h565v-76h-481v-387h450v-74h-450v-438h493v-78zM672 1217l-31 -64l-428 158l43 98z" />
    <glyph glyph-name="Eacutesmall" unicode="&#xf7e9;" horiz-adv-x="843" 
d="M737 0h-577v1053h565v-76h-481v-387h450v-74h-450v-438h493v-78zM670 1311l-428 -158l-31 64l416 192z" />
    <glyph glyph-name="Ecircumflexsmall" unicode="&#xf7ea;" horiz-adv-x="868" 
d="M752 0h-578v1053h565v-76h-481v-387h451v-74h-451v-438h494v-78zM762 1225l-39 -62l-260 137l-260 -137l-43 62l303 184z" />
    <glyph glyph-name="Edieresissmall" unicode="&#xf7eb;" horiz-adv-x="843" 
d="M737 0h-577v1053h565v-76h-481v-387h450v-74h-450v-438h493v-78zM657 1284q0 -31 -20.5 -52.5t-50.5 -21.5q-31 0 -52.5 21.5t-21.5 52.5t21.5 51.5t52.5 20.5t51 -20.5t20 -51.5zM371 1284q0 -31 -20.5 -52.5t-51.5 -21.5t-52.5 21.5t-21.5 52.5t21.5 51.5t52.5 20.5
t51.5 -20.5t20.5 -51.5z" />
    <glyph glyph-name="Igravesmall" unicode="&#xf7ec;" horiz-adv-x="405" 
d="M256 0h-86v1053h86v-1053zM432 1217l-31 -64l-428 158l43 98z" />
    <glyph glyph-name="Iacutesmall" unicode="&#xf7ed;" horiz-adv-x="405" 
d="M254 0h-86v1053h86v-1053zM432 1311l-428 -158l-31 64l416 192z" />
    <glyph glyph-name="Icircumflexsmall" unicode="&#xf7ee;" horiz-adv-x="405" 
d="M250 0h-86v1053h86v-1053zM504 1225l-39 -62l-260 137l-260 -137l-43 62l303 184z" />
    <glyph glyph-name="Idieresissmall" unicode="&#xf7ef;" horiz-adv-x="405" 
d="M256 0h-86v1053h86v-1053zM420 1284q0 -31 -20.5 -52.5t-51.5 -21.5t-52.5 21.5t-21.5 52.5t21.5 51.5t52.5 20.5t51.5 -20.5t20.5 -51.5zM133 1284q0 -31 -20.5 -52.5t-51.5 -21.5t-52 21.5t-21 52.5t21 51.5t52 20.5t51.5 -20.5t20.5 -51.5z" />
    <glyph glyph-name="Ethsmall" unicode="&#xf7f0;" horiz-adv-x="1212" 
d="M1108 530q0 -239 -150 -389q-84 -84 -197 -112.5t-282 -28.5h-250v514h-168v80h168v459h195q99 0 161 -3.5t136 -16t130 -40.5t101 -73q73 -73 114.5 -163.5t41.5 -226.5zM1014 535q0 204 -115 319q-47 47 -95.5 72t-135 39t-226.5 14h-125v-385h355v-80h-355v-440h134
q185 0 277.5 23.5t166.5 97.5q119 119 119 340z" />
    <glyph glyph-name="Ntildesmall" unicode="&#xf7f1;" horiz-adv-x="1067" 
d="M907 0h-102l-565 930l6 -930h-86v1053h100l569 -940l-6 940h84v-1053zM821 1296q-13 -13 -18.5 -18t-25.5 -20t-37.5 -22.5t-47 -14.5t-61.5 -7q-36 0 -112.5 23t-117.5 23q-33 0 -59.5 -8t-36.5 -14.5t-35 -23.5l-51 60q33 28 51 40.5t54 26t77 13.5q38 0 116 -24.5
t116 -24.5q21 0 40.5 3t32 7t25 11t18.5 11.5t14 11t9 7.5z" />
    <glyph glyph-name="Ogravesmall" unicode="&#xf7f2;" horiz-adv-x="1169" 
d="M1065 526q0 -238 -134.5 -391t-352.5 -153q-201 0 -337.5 150.5t-136.5 377.5q0 244 137 400.5t353 156.5q204 0 337.5 -152t133.5 -389zM971 537q0 203 -110.5 328.5t-280.5 125.5q-174 0 -277.5 -124.5t-103.5 -334.5q0 -208 109.5 -340.5t275.5 -132.5q173 0 280 128
t107 350zM821 1217l-30 -64l-429 158l44 98z" />
    <glyph glyph-name="Oacutesmall" unicode="&#xf7f3;" horiz-adv-x="1169" 
d="M1065 526q0 -238 -134.5 -391t-352.5 -153q-201 0 -337.5 150.5t-136.5 377.5q0 244 137 400.5t353 156.5q204 0 337.5 -152t133.5 -389zM971 537q0 203 -110.5 328.5t-280.5 125.5q-174 0 -277.5 -124.5t-103.5 -334.5q0 -208 109.5 -340.5t275.5 -132.5q173 0 280 128
t107 350zM797 1311l-428 -158l-31 64l416 192z" />
    <glyph glyph-name="Ocircumflexsmall" unicode="&#xf7f4;" horiz-adv-x="1169" 
d="M1065 526q0 -238 -134.5 -391t-352.5 -153q-201 0 -337.5 150.5t-136.5 377.5q0 244 137 400.5t353 156.5q204 0 337.5 -152t133.5 -389zM971 537q0 203 -110.5 328.5t-280.5 125.5q-174 0 -277.5 -124.5t-103.5 -334.5q0 -208 109.5 -340.5t275.5 -132.5q173 0 280 128
t107 350zM874 1225l-38 -62l-261 137l-260 -137l-43 62l303 184z" />
    <glyph glyph-name="Otildesmall" unicode="&#xf7f5;" horiz-adv-x="1169" 
d="M1065 526q0 -238 -134.5 -391t-352.5 -153q-201 0 -337.5 150.5t-136.5 377.5q0 244 137 400.5t353 156.5q204 0 337.5 -152t133.5 -389zM971 537q0 203 -110.5 328.5t-280.5 125.5q-174 0 -277.5 -124.5t-103.5 -334.5q0 -208 109.5 -340.5t275.5 -132.5q173 0 280 128
t107 350zM889 1296q-15 -15 -25 -23.5t-35 -25t-58.5 -25t-72.5 -8.5q-36 0 -112 23t-117 23q-33 0 -59.5 -8t-36.5 -14.5t-35 -23.5l-51 60q33 28 51 40.5t54 26t77 13.5q38 0 115.5 -24.5t115.5 -24.5q21 0 40.5 3t32 7t25.5 11t18.5 11t14 11t9.5 8z" />
    <glyph glyph-name="Odieresissmall" unicode="&#xf7f6;" horiz-adv-x="1169" 
d="M1065 526q0 -238 -134.5 -391t-352.5 -153q-201 0 -337.5 150.5t-136.5 377.5q0 244 137 400.5t353 156.5q204 0 337.5 -152t133.5 -389zM971 537q0 203 -110.5 328.5t-280.5 125.5q-174 0 -277.5 -124.5t-103.5 -334.5q0 -208 109.5 -340.5t275.5 -132.5q173 0 280 128
t107 350zM799 1284q0 -31 -20.5 -52.5t-51.5 -21.5t-52.5 21.5t-21.5 52.5t21.5 51.5t52.5 20.5t51.5 -20.5t20.5 -51.5zM512 1284q0 -31 -20.5 -52.5t-51.5 -21.5t-52 21.5t-21 52.5t21 51.5t52 20.5t51.5 -20.5t20.5 -51.5z" />
    <glyph glyph-name="Oslashsmall" unicode="&#xf7f8;" horiz-adv-x="1169" 
d="M1065 526q0 -238 -134.5 -391t-352.5 -153q-122 0 -228 61l-90 -149l-70 40l97 154q-85 72 -134 181.5t-49 240.5q0 244 137 400.5t353 156.5q142 0 248 -74l98 164l70 -45l-105 -168q20 -20 38 -43t50.5 -76.5t52 -131.5t19.5 -167zM971 537q0 202 -113 331l-465 -753
q84 -56 191 -56q173 0 280 128t107 350zM799 924q-33 26 -91 46.5t-128 20.5q-174 0 -277.5 -124.5t-103.5 -334.5q0 -233 135 -368z" />
    <glyph glyph-name="Ugravesmall" unicode="&#xf7f9;" horiz-adv-x="1030" 
d="M887 432q0 -139 -9 -188q-18 -95 -85 -162q-100 -100 -277 -100q-87 0 -162.5 27.5t-124.5 78.5q-56 57 -71 121t-15 190v654h84v-703q0 -78 14 -125t52 -86q80 -80 227 -80q61 0 116.5 18.5t88.5 51.5q23 24 38.5 50.5t23.5 46.5t11.5 57.5t4 57.5t0.5 71v641h84v-621z
M745 1217l-30 -64l-428 158l43 98z" />
    <glyph glyph-name="Uacutesmall" unicode="&#xf7fa;" horiz-adv-x="1030" 
d="M887 432q0 -139 -9 -188q-18 -95 -85 -162q-100 -100 -277 -100q-87 0 -162.5 27.5t-124.5 78.5q-56 57 -71 121t-15 190v654h84v-703q0 -78 14 -125t52 -86q80 -80 227 -80q61 0 116.5 18.5t88.5 51.5q23 24 38.5 50.5t23.5 46.5t11.5 57.5t4 57.5t0.5 71v641h84v-621z
M750 1311l-428 -158l-31 64l416 192z" />
    <glyph glyph-name="Ucircumflexsmall" unicode="&#xf7fb;" horiz-adv-x="1030" 
d="M887 432q0 -139 -9 -188q-18 -95 -85 -162q-100 -100 -277 -100q-87 0 -162.5 27.5t-124.5 78.5q-56 57 -71 121t-15 190v654h84v-703q0 -78 14 -125t52 -86q80 -80 227 -80q61 0 116.5 18.5t88.5 51.5q23 24 38.5 50.5t23.5 46.5t11.5 57.5t4 57.5t0.5 71v641h84v-621z
M809 1225l-39 -62l-260 137l-260 -137l-43 62l303 184z" />
    <glyph glyph-name="Udieresissmall" unicode="&#xf7fc;" horiz-adv-x="1030" 
d="M887 432q0 -139 -9 -188q-18 -95 -85 -162q-100 -100 -277 -100q-87 0 -162.5 27.5t-124.5 78.5q-56 57 -71 121t-15 190v654h84v-703q0 -78 14 -125t52 -86q80 -80 227 -80q61 0 116.5 18.5t88.5 51.5q23 24 38.5 50.5t23.5 46.5t11.5 57.5t4 57.5t0.5 71v641h84v-621z
M725 1284q0 -31 -20.5 -52.5t-51.5 -21.5t-52 21.5t-21 52.5t21 51.5t52 20.5t51.5 -20.5t20.5 -51.5zM438 1284q0 -31 -20.5 -52.5t-50.5 -21.5q-31 0 -52.5 21.5t-21.5 52.5t21.5 51.5t52.5 20.5t51 -20.5t20 -51.5z" />
    <glyph glyph-name="Yacutesmall" unicode="&#xf7fd;" horiz-adv-x="890" 
d="M842 1053l-357 -639v-414h-82v414l-354 639h98l304 -553l299 553h92zM686 1311l-428 -158l-31 64l416 192z" />
    <glyph glyph-name="Thornsmall" unicode="&#xf7fe;" horiz-adv-x="907" 
d="M809 545q0 -131 -92 -223q-32 -32 -71 -51.5t-89.5 -27t-82 -9t-91.5 -1.5h-8h-7h-8h-114v-233h-86v1053h86v-207h157q116 0 188.5 -15.5t127.5 -70.5q44 -44 67 -102t23 -113zM723 549q0 96 -66 162q-22 22 -52 36t-70.5 18.5t-61.5 5.5t-65 1h-162v-465h110
q144 0 204.5 15t94.5 49q68 68 68 178z" />
    <glyph glyph-name="Ydieresissmall" unicode="&#xf7ff;" horiz-adv-x="890" 
d="M842 1053l-357 -639v-414h-82v414l-354 639h98l304 -553l299 553h92zM674 1284q0 -31 -20.5 -52.5t-51.5 -21.5t-52.5 21.5t-21.5 52.5t21.5 51.5t52.5 20.5t51.5 -20.5t20.5 -51.5zM387 1284q0 -31 -20.5 -52.5t-51.5 -21.5t-52 21.5t-21 52.5t21 51.5t52 20.5
t51.5 -20.5t20.5 -51.5z" />
    <glyph glyph-name="Foundry" unicode="&#xf8ff;" horiz-adv-x="1867" 
d="M1765 795q0 -167 -64 -319t-174 -263t-265 -176.5t-328 -65.5q-138 0 -266 42t-230 118.5t-178 178t-117 227t-41 258.5q0 169 65.5 322t176.5 263t265 175t325 65q139 0 267 -42t229.5 -118.5t177 -178t116.5 -227t41 -259.5zM1669 793q0 200 -98.5 368.5t-267.5 266.5
t-369 98t-369 -98t-267.5 -266.5t-98.5 -368.5q0 -116 34 -223.5t91.5 -189.5t133 -147t158.5 -104.5t168 -54.5v583h-178v72h178v207q0 174 88 262q34 34 85.5 53t107.5 19q108 0 184 -53l-35 -64q-17 11 -58 25t-87 14q-90 0 -139 -49q-29 -29 -44 -73t-16.5 -69.5
t-1.5 -66.5v-205h318v-72h-318v-598q23 -2 66 -2q150 0 286 58.5t234.5 157t156.5 234.5t58 286z" />
    <glyph glyph-name="Ring" unicode="&#xfff3;" horiz-adv-x="757" 
d="M379 1860q79 0 136.5 -57.5t57.5 -135.5q0 -82 -57 -139.5t-137 -57.5q-79 0 -137 58t-58 137q0 82 56.5 138.5t138.5 56.5zM379 1788q-49 0 -85 -36.5t-36 -86.5q0 -49 36 -85t85 -36q51 0 87 35t36 86t-36 87t-87 36z" />
    <glyph glyph-name="CR" horiz-adv-x="1032" 
 />
    <glyph glyph-name="dotlessismall" horiz-adv-x="403" 
d="M244 0h-84v977h84v-977z" />
    <glyph glyph-name="germandblssmall" horiz-adv-x="1568" 
d="M1456 291q0 -136 -87.5 -222.5t-252.5 -86.5q-176 0 -319 114l53 68q1 0 10.5 -8t21.5 -16t30 -19t40 -21t46.5 -18.5t54 -13.5t59.5 -5q68 0 119.5 19t80 50.5t42.5 68.5t14 78q0 74 -55 129q-35 35 -95 65.5t-114.5 48.5t-113.5 47.5t-93 63.5q-68 68 -68 172
q0 116 88 190t230 74q187 0 299 -119l-51 -53q-48 43 -90 63q-69 31 -152 31q-105 0 -172.5 -52.5t-67.5 -129.5q0 -70 45 -115q36 -36 115.5 -67t164 -66.5t132.5 -83.5q86 -86 86 -186zM745 291q0 -136 -87 -222.5t-252 -86.5q-178 0 -320 114l53 68q1 0 10.5 -8t21.5 -16
t30 -19t40 -21t46.5 -18.5t54 -13.5t59.5 -5q68 0 119.5 19t80 50.5t42.5 68.5t14 78q0 74 -55 129q-35 35 -95 65.5t-114.5 48.5t-113.5 47.5t-93 63.5q-67 67 -67 172q0 116 87.5 190t229.5 74q187 0 299 -119l-51 -53q-48 43 -90 63q-68 31 -152 31q-105 0 -172 -52.5
t-67 -129.5q0 -70 45 -115q36 -36 115.5 -67t163.5 -66.5t132 -83.5q86 -86 86 -186z" />
    <glyph glyph-name="germandbls.small" horiz-adv-x="1568" 
d="M1456 291q0 -136 -87.5 -222.5t-252.5 -86.5q-176 0 -319 114l53 68q1 0 10.5 -8t21.5 -16t30 -19t40 -21t46.5 -18.5t54 -13.5t59.5 -5q68 0 119.5 19t80 50.5t42.5 68.5t14 78q0 74 -55 129q-35 35 -95 65.5t-114.5 48.5t-113.5 47.5t-93 63.5q-68 68 -68 172
q0 116 88 190t230 74q187 0 299 -119l-51 -53q-48 43 -90 63q-69 31 -152 31q-105 0 -172.5 -52.5t-67.5 -129.5q0 -70 45 -115q36 -36 115.5 -67t164 -66.5t132.5 -83.5q86 -86 86 -186zM745 291q0 -136 -87 -222.5t-252 -86.5q-178 0 -320 114l53 68q1 0 10.5 -8t21.5 -16
t30 -19t40 -21t46.5 -18.5t54 -13.5t59.5 -5q68 0 119.5 19t80 50.5t42.5 68.5t14 78q0 74 -55 129q-35 35 -95 65.5t-114.5 48.5t-113.5 47.5t-93 63.5q-67 67 -67 172q0 116 87.5 190t229.5 74q187 0 299 -119l-51 -53q-48 43 -90 63q-68 31 -152 31q-105 0 -172 -52.5
t-67 -129.5q0 -70 45 -115q36 -36 115.5 -67t163.5 -66.5t132 -83.5q86 -86 86 -186z" />
    <glyph glyph-name="Eurooldstyle" horiz-adv-x="1202" 
d="M1092 102q-50 -38 -81 -55q-129 -70 -272 -70q-88 0 -162 26t-122.5 66t-86.5 95.5t-58.5 106.5t-34.5 108t-18.5 90.5t-6.5 62.5h-133v78h127q-2 49 -2 84q0 21 2 62h-127v78h133q1 23 6 56t19.5 88t36.5 108t61.5 110t89.5 99t125 69t164 27q73 0 144.5 -24t104 -44
t43.5 -31l-47 -65q-118 84 -241 84q-77 0 -140.5 -24.5t-104.5 -60t-73 -88t-48.5 -94.5t-27.5 -94t-13.5 -73t-4.5 -43h557v-78h-563q-2 -27 -2 -82q0 -19 2 -64h563v-78h-557q41 -361 257 -447q62 -24 136 -24q31 0 62 4t56 10.5t50 16t43 18.5t35.5 19t27.5 17l20 14
t11 8z" />
    <glyph glyph-name="dollaroldstyle" horiz-adv-x="1044" 
d="M932 373q0 -155 -94.5 -259.5t-268.5 -119.5v-187h-77v183q-34 1 -67.5 4.5t-61 9.5t-54 14.5t-47.5 17t-41.5 19t-34.5 19t-28 18.5t-21.5 15.5t-15 12.5t-8.5 7l51 68q1 -1 12 -8.5t22 -15.5t30.5 -19.5t39.5 -21.5t47 -21t53.5 -18.5t59 -13t64.5 -5.5v612
q-72 31 -100 43.5t-78 42t-83 61.5q-84 81 -84 213t94.5 223.5t250.5 104.5v139h77v-137q217 -8 340 -135l4 -4l-55 -55l-8 7q-7 7 -12 11t-16.5 13t-21.5 15.5t-26 16t-31 16t-35.5 14t-41 12.5t-46 8.5t-51.5 4.5v-548q179 -69 258 -142q105 -98 105 -235zM492 778v516
q-117 -15 -188 -85t-71 -169q0 -83 64 -147q16 -16 34.5 -30t33 -23.5t35.5 -20.5t31.5 -15.5t33 -14t27.5 -11.5zM836 367q0 97 -80 174q-61 56 -187 112v-579q130 20 198.5 97.5t68.5 195.5z" />
    <glyph glyph-name="centoldstyle" horiz-adv-x="1193" 
d="M997 92q-25 -22 -102 -53.5t-174 -36.5v-195h-78v195q-188 12 -302 139t-114 342q0 219 112.5 364t303.5 167v164h78v-160q73 -2 137.5 -23.5t91.5 -39t35 -27.5l-43 -64l-8 6q-9 5 -15 8.5t-19.5 11t-25 12.5t-30 11.5t-36 10.5t-40.5 7.5t-47 4.5v-850q141 10 237 74z
M643 86v846q-152 -20 -240 -137t-88 -293q0 -179 91 -290.5t237 -125.5z" />
    <glyph glyph-name="sterlingoldstyle" horiz-adv-x="1083" 
d="M983 1280l-49 -55q-100 86 -254 86q-156 0 -243 -101.5t-87 -291.5q0 -50 3 -92.5t8 -81.5t6 -48h389v-80h-381q0 -5 5 -58.5t5 -86.5q0 -297 -147 -393h731v-78h-869v74q37 15 60.5 27.5t51.5 38.5t43.5 59.5t26.5 88t11 126.5q0 86 -8 202h-181v80h172q-18 144 -18 222
q0 219 111.5 345t302.5 126q66 0 125.5 -13.5t96.5 -33t59 -35.5t30 -27z" />
    <glyph glyph-name="florinoldstyle" horiz-adv-x="1142" 
d="M1135 1350l-31 -70q-56 31 -137 31q-95 0 -151 -58.5t-87 -205.5l-76 -353h320l-17 -80h-321l-133 -645q-1 -3 -10 -48.5t-12.5 -59.5t-13.5 -54.5t-17.5 -60.5t-19 -50t-24.5 -50t-28 -35q-72 -72 -191 -72q-26 0 -50.5 2.5t-42 6.5t-34 9t-25 9t-17.5 8l-9 4l31 70
q77 -29 145 -29q86 0 125 39q13 13 24.5 30.5t21 43t16.5 44.5t15.5 54t12 52t12 59t11.5 55l131 618h-268l16 80h266l70 324q0 1 4 20.5t5 25.5t6 27.5t8 32t9.5 31t12 33.5t14 32t17 33t20 29t23.5 27q82 82 207 82q90 0 172 -41z" />
    <glyph glyph-name="yenoldstyle" horiz-adv-x="1134" 
d="M1034 1366l-399 -674h270v-78h-299v-108h299v-78h-299v-428h-86v428h-295v78h295v108h-295v78h264l-389 674h105l356 -653l373 653h100z" />
    <glyph glyph-name="dollar.fitted" horiz-adv-x="1052" 
d="M924 373q0 -155 -94.5 -259.5t-268.5 -119.5v-187h-78v183q-34 1 -67.5 4.5t-61 9.5t-54 14.5t-47.5 17t-41.5 19t-34.5 19t-28 18.5t-21.5 15.5t-15 12.5t-8.5 7l52 68l14 -10q14 -10 28 -19.5t37.5 -23.5t50 -25t57.5 -21.5t67.5 -17t72.5 -6.5v612q-70 30 -99 43
t-78.5 42.5t-82.5 61.5q-84 81 -84 213t94 223.5t250 104.5v139h78v-137q217 -8 340 -135l4 -4l-55 -55l-8 7q-7 7 -12 11t-16.5 13t-21.5 15.5t-26 16t-31 16t-35.5 14t-41 12.5t-46 8.5t-51.5 4.5v-548q179 -69 258 -142q105 -98 105 -235zM483 778v516q-116 -15 -187 -85
t-71 -169q0 -83 64 -147q16 -16 34.5 -30t32.5 -23.5t35.5 -20.5t31.5 -15.5t33 -14t27 -11.5zM827 367q0 98 -79 174q-61 56 -187 112v-579q130 20 198 97.5t68 195.5z" />
    <glyph glyph-name="cent.fitted" horiz-adv-x="927" 
d="M862 92q-25 -22 -102 -53.5t-174 -36.5v-195h-78v195q-188 12 -302 139t-114 342q0 219 112.5 364t303.5 167v164h78v-160q73 -2 137.5 -23.5t91.5 -39t35 -27.5l-43 -64l-9 6q-8 5 -14 8.5t-19.5 11t-25 12.5t-30 11.5t-36 10.5t-40.5 7.5t-47 4.5v-850q141 10 237 74z
M508 86v846q-152 -20 -240 -137t-88 -293q0 -179 91 -290.5t237 -125.5z" />
    <glyph glyph-name="sterling.fitted" horiz-adv-x="1021" 
d="M969 1280l-49 -55q-1 1 -7.5 6.5t-12.5 9.5t-17 11.5t-23 13.5t-28 13t-34.5 12.5t-39.5 10t-46.5 7t-52.5 2.5q-159 0 -248 -101.5t-89 -291.5q0 -50 3 -91.5t7.5 -82.5t5.5 -48h399v-80h-391q0 -5 5 -58.5t5 -86.5q0 -297 -149 -393h747v-78h-884v74q38 15 62 27.5
t52 38.5t44 59.5t27 88t11 126.5q0 57 -10 202h-182v80h174q-19 127 -19 222q0 219 114 345t308 126q68 0 128 -13.5t98.5 -33t60.5 -35.5t31 -27z" />
    <glyph glyph-name="florin.fitted" horiz-adv-x="1052" 
d="M1049 1350l-31 -70q-56 31 -137 31q-95 0 -151 -58.5t-87 -205.5l-76 -353h320l-17 -80h-321l-133 -645q-1 -3 -10 -48.5t-12.5 -59.5t-13.5 -54.5t-17.5 -60.5t-19 -50t-24.5 -50t-28 -35q-72 -72 -191 -72q-26 0 -50.5 2.5t-42 6.5t-34 9t-25 9t-17.5 8l-9 4l31 70
q77 -29 145 -29q86 0 125 39q13 13 24.5 30.5t21 43t16.5 44.5t15.5 54t12 52t12 59t11.5 55l131 618h-268l16 80h266l70 324q0 1 4 20.5t5 25.5t6 27.5t8 32t9.5 31t12 33.5t14 32t17 33t20 29t23.5 27q82 82 207 82q90 0 172 -41z" />
    <glyph glyph-name="yen.fitted" horiz-adv-x="1048" 
d="M991 1366l-399 -674h270v-78h-299v-108h299v-78h-299v-428h-86v428h-295v78h295v108h-295v78h264l-389 674h105l356 -653l373 653h100z" />
    <glyph glyph-name="commaaccent" horiz-adv-x="757" 
d="M371 -135h110q2 -91 -38 -189.5t-107 -171.5l-64 43q99 132 99 318z" />
    <glyph glyph-name="Commaaccent" horiz-adv-x="757" 
d="M371 -135h110q2 -91 -38 -189.5t-107 -171.5l-64 43q99 132 99 318z" />
    </font>
</defs>
</svg>
