<?xml version="1.0" standalone="no"?>
<!DOCTYPE svg PUBLIC "-//W3C//DTD SVG 1.1//EN" "http://www.w3.org/Graphics/SVG/1.1/DTD/svg11.dtd" >
<svg xmlns="http://www.w3.org/2000/svg" xmlns:xlink="http://www.w3.org/1999/xlink" version="1.1">
<metadata>
Created by FontForge 20170731 at Mon Jun  6 18:32:00 2022
 By Aleksey,,,
Copyright (c) The digitally encoded machine readable outline data for producing the typefaces licensed to you is copyrighted (c), 2009 by The Foundry, London. All rights reserved.
</metadata>
<defs>
<font id="FoundrySterling-Demi" horiz-adv-x="821" >
  <font-face 
    font-family="Foundry Sterling Demi"
    font-weight="600"
    font-stretch="normal"
    units-per-em="2048"
    panose-1="2 0 7 0 4 0 0 2 0 4"
    ascent="1638"
    descent="-410"
    x-height="999"
    cap-height="1366"
    bbox="-584 -649 2695 1898"
    underline-thickness="102"
    underline-position="-307"
    unicode-range="U+000D-FFF3"
  />
<missing-glyph horiz-adv-x="1323" 
d="M934 -66v1242h-545v-1242h545zM156 -256v1622h1011v-1622h-1011z" />
    <glyph glyph-name="IJ" unicode="IJ" horiz-adv-x="1355" 
d="M393 0h-237v1366h237v-1366zM1214 444q0 -71 -1.5 -105.5t-10 -92.5t-30.5 -101t-58 -79q-95 -95 -264 -95q-74 0 -145.5 22t-99.5 38.5t-42 27.5l82 166q94 -49 170 -49t113 37q32 31 40.5 77t8.5 134v942h237v-922z" />
    <glyph glyph-name="ij" unicode="ij" horiz-adv-x="970" 
d="M375 1298q0 -56 -37.5 -93.5t-93.5 -37.5t-94.5 38t-38.5 93q0 56 39 95t94 39t93 -39t38 -95zM356 0h-225v999h225v-999zM860 1298q0 -55 -38.5 -93t-94.5 -38q-55 0 -93 37.5t-38 93.5t38 95t93 39t94 -39t39 -95zM842 -70q0 -113 -20 -184.5t-79 -130.5
q-43 -43 -111 -65.5t-136 -22.5q-44 0 -90 10.5t-70 20.5t-31 16l57 162q61 -23 101 -23q69 0 110 41q43 43 43 160v1085h226v-1069z" />
    <glyph glyph-name="f_j" unicode="fj" horiz-adv-x="1173" 
d="M1042 -70q0 -113 -19.5 -184.5t-78.5 -130.5q-43 -43 -111.5 -65.5t-136.5 -22.5q-44 0 -89.5 10.5t-69.5 20.5t-31 16l57 162q61 -23 101 -23q69 0 110 41q43 43 43 160v901h-358v-815h-226v815h-167v184h167v86q0 115 21.5 191.5t81.5 136.5q92 92 256 92
q71 0 135.5 -21t92.5 -39t34 -26l-86 -147q-75 45 -145 45q-76 0 -115 -39q-32 -32 -40.5 -75.5t-8.5 -115.5v-88h583v-1069z" />
    <glyph glyph-name="IJsmall" unicode="&#xf769;&#xf76a;" horiz-adv-x="1228" 
d="M375 0h-232v1073h232v-1073zM1100 373q0 -61 -1.5 -93t-8.5 -78.5t-25.5 -81.5t-48.5 -65q-82 -82 -230 -82q-64 0 -125 18.5t-88 34.5t-36 25l79 152q82 -41 136 -41t82 28q22 22 28 54.5t6 99.5v729h232v-700z" />
    <glyph glyph-name="f_f" unicode="ff" horiz-adv-x="1429" 
d="M1438 1419l-86 -147q-75 45 -146 45q-75 0 -114 -39q-32 -32 -41 -76t-9 -115v-88h304v-184h-304v-815h-225v815h-358v-815h-226v815h-167v184h167v91q0 115 22 189.5t81 133.5q92 92 246 92q94 0 172 -39l-58 -166q-51 17 -84 17q-70 0 -108 -41q-20 -21 -30.5 -55.5
t-12.5 -62t-2 -71.5v-88h358v86q0 115 21.5 191.5t81.5 136.5q92 92 256 92q71 0 135.5 -21t92.5 -39t34 -26z" />
    <glyph glyph-name="fi" unicode="fi" horiz-adv-x="1173" 
d="M1042 0h-225v815h-358v-815h-226v815h-167v184h167v86q0 115 21.5 191.5t81.5 136.5q92 92 256 92q71 0 135.5 -21t92.5 -39t34 -26l-86 -147q-75 45 -145 45q-76 0 -115 -39q-32 -32 -40.5 -75.5t-8.5 -115.5v-88h583v-999z" />
    <glyph glyph-name="fl" unicode="fl" horiz-adv-x="1173" 
d="M1042 0h-225v815h-358v-815h-226v815h-167v184h167v91q0 115 22 189.5t81 133.5q92 92 246 92q94 0 172 -39l-58 -166q-51 17 -84 17q-70 0 -108 -41q-20 -21 -30.5 -55.5t-12.5 -62t-2 -71.5v-88h358v482h225v-1481z" />
    <glyph glyph-name="f_f_i" unicode="ffi" horiz-adv-x="1757" 
d="M1626 0h-225v815h-359v-815h-225v815h-358v-815h-226v815h-167v184h167v91q0 115 22 189.5t81 133.5q92 92 246 92q94 0 172 -39l-58 -166q-51 17 -84 17q-70 0 -108 -41q-20 -21 -30.5 -55.5t-12.5 -62t-2 -71.5v-88h358v86q0 115 21.5 191.5t81.5 136.5q92 92 256 92
q71 0 135.5 -21t92.5 -39t34 -26l-86 -147q-75 45 -146 45q-75 0 -114 -39q-32 -32 -41 -76t-9 -115v-88h584v-999z" />
    <glyph glyph-name="f_f_l" unicode="ffl" horiz-adv-x="1757" 
d="M1626 0h-225v815h-359v-815h-225v815h-358v-815h-226v815h-167v184h167v91q0 115 22 189.5t81 133.5q92 92 246 92q94 0 172 -39l-58 -166q-51 17 -84 17q-70 0 -108 -41q-20 -21 -30.5 -55.5t-12.5 -62t-2 -71.5v-88h358v91q0 115 22 189.5t81 133.5q92 92 245 92
q94 0 172 -39l-57 -166q-51 17 -84 17q-71 0 -109 -41q-20 -21 -30.5 -55.5t-12.5 -62t-2 -71.5v-88h359v482h225v-1481z" />
    <glyph glyph-name="f_t" unicode="ft" horiz-adv-x="1449" 
d="M817 999v281h225v-281h295v-184h-295v-471q0 -33 1.5 -54t9 -47.5t21 -41.5t40 -26t64.5 -11q55 0 133 26l57 -157q-100 -60 -233 -60q-158 0 -242 84q-28 28 -44 58.5t-22.5 72.5t-8 71t-1.5 88v6.5v5.5v6v450h-358v-815h-226v815h-167v184h167v91q0 115 22 189.5
t81 133.5q92 92 246 92q94 0 172 -39l-58 -166q-51 17 -84 17q-70 0 -108 -41q-20 -21 -30.5 -55.5t-12.5 -62t-2 -71.5v-88h358z" />
    <glyph glyph-name=".notdef" horiz-adv-x="1323" 
d="M934 -66v1242h-545v-1242h545zM156 -256v1622h1011v-1622h-1011z" />
    <glyph glyph-name=".notdef" horiz-adv-x="1323" 
d="M934 -66v1242h-545v-1242h545zM156 -256v1622h1011v-1622h-1011z" />
    <glyph glyph-name=".null" horiz-adv-x="0" 
 />
    <glyph glyph-name="nonmarkingreturn" horiz-adv-x="682" 
 />
    <glyph glyph-name="CR" unicode="&#xd;" horiz-adv-x="1060" 
 />
    <glyph glyph-name="space" unicode=" " horiz-adv-x="487" 
 />
    <glyph glyph-name="exclam" unicode="!" horiz-adv-x="727" 
d="M494 1366l-35 -977h-189l-37 977h261zM508 129q0 -60 -41.5 -101.5t-101.5 -41.5t-102 41.5t-42 101.5t42 101.5t102 41.5t101.5 -41.5t41.5 -101.5z" />
    <glyph glyph-name="quotedbl" unicode="&#x22;" horiz-adv-x="763" 
d="M664 1366l-29 -502h-189l-28 502h246zM346 1366l-29 -502h-188l-29 502h246z" />
    <glyph glyph-name="numbersign" unicode="#" horiz-adv-x="1214" 
d="M1071 1063l-20 -158h-181l-28 -196h180l-21 -158h-180l-49 -336h-156l50 336h-183l-49 -336h-155l49 336h-183l21 158h182l29 196h-184l20 158h184l43 303h156l-43 -303h182l43 303h156l-43 -303h180zM715 905h-183l-28 -196h182z" />
    <glyph glyph-name="dollar" unicode="$" horiz-adv-x="1284" 
d="M1081 397q0 -88 -30 -161t-82 -121.5t-115.5 -79t-136.5 -41.5v-211h-170v203q-65 4 -129 19.5t-109.5 34.5t-83 39.5t-56.5 34t-24 19.5l111 162q1 0 17.5 -11t31 -19t39.5 -21t51 -23t56.5 -19.5t65.5 -14.5t69 -5q118 0 183 53t65 144q0 28 -8 52.5t-27 45t-35.5 35
t-50 31t-52.5 25t-60.5 25t-57.5 23.5q-5 2 -17 7q-35 14 -55.5 23t-61 30t-66 40t-58 50t-51.5 64t-32.5 78.5t-13.5 95.5q0 82 31 149.5t83.5 112t114.5 71.5t130 37v187h170v-183q60 -4 118 -19.5t96 -33t71.5 -38.5t46 -31.5t18.5 -16.5l-113 -147q-11 9 -28.5 20
t-56.5 32t-92.5 34.5t-108.5 13.5q-106 0 -174 -47.5t-68 -122.5q0 -25 5.5 -45t22.5 -38.5t32.5 -31t52 -30.5t64 -29.5t83.5 -34.5q52 -21 86 -36t79.5 -39t75 -46.5t61.5 -54t50.5 -65.5t30.5 -79t12 -96z" />
    <glyph glyph-name="percent" unicode="%" horiz-adv-x="1617" 
d="M1341 1356l-950 -1440l-125 84l951 1440zM1513 354q0 -170 -82 -268t-227 -98q-140 0 -221.5 96.5t-81.5 259.5q0 170 81.5 269.5t225.5 99.5q139 0 222 -98.5t83 -260.5zM1366 350q0 117 -42.5 178.5t-113.5 61.5q-72 0 -115.5 -63.5t-43.5 -182.5q0 -115 40.5 -175
t112.5 -60q85 0 123.5 68.5t38.5 172.5zM717 1020q0 -170 -82 -268.5t-227 -98.5q-140 0 -222 97t-82 260q0 170 82 269t226 99q139 0 222 -98t83 -260zM569 1016q0 117 -42 178t-113 61q-73 0 -116.5 -63.5t-43.5 -181.5q0 -115 41 -175.5t113 -60.5q85 0 123 68.5
t38 173.5z" />
    <glyph glyph-name="ampersand" unicode="&#x26;" horiz-adv-x="1411" 
d="M1307 0l-33 -2q-103 0 -170.5 25.5t-138.5 99.5q-17 -16 -41 -32.5t-77 -47t-129 -49.5t-159 -19q-195 0 -327 120t-132 298q0 86 31.5 155.5t77.5 115.5q68 68 164 116q-68 86 -101.5 149t-33.5 134q0 143 112.5 236.5t278.5 93.5q158 0 257 -83.5t99 -219.5
q0 -33 -7.5 -64.5t-19 -57t-30.5 -51t-36 -44t-41.5 -38t-41.5 -32t-42 -27t-36 -20t-30.5 -15.5t-20.5 -10l285 -317q30 40 61.5 134.5t34.5 192.5h194q-1 -150 -50 -278.5t-97 -192.5q56 -56 97 -72t102 -20v-178zM774 1085q0 62 -37.5 98t-107.5 36q-77 0 -124.5 -42.5
t-47.5 -107.5q0 -39 22 -82t86 -121q117 54 163 104.5t46 114.5zM827 260l-335 383q-173 -90 -173 -244q0 -99 73 -166t186 -67q34 0 67 6t56 14.5t47 21t35.5 20.5t27 19.5t16.5 12.5z" />
    <glyph glyph-name="quotesingle" unicode="'" horiz-adv-x="446" 
d="M346 1366l-29 -502h-188l-29 502h246z" />
    <glyph glyph-name="parenleft" unicode="(" horiz-adv-x="849" 
d="M754 -137l-119 -146q-34 23 -65 46.5t-83.5 72t-95.5 98.5t-91.5 125t-81.5 154t-55 182.5t-22 212.5t22 212.5t56 184t81.5 155.5t93 127.5t95.5 98.5t83.5 71t62.5 44l119 -145q-40 -32 -79.5 -70t-95 -109.5t-96 -149.5t-69.5 -189.5t-29 -229.5q0 -440 369 -745z" />
    <glyph glyph-name="parenright" unicode=")" horiz-adv-x="849" 
d="M709 608q0 -109 -22 -212.5t-55 -182.5t-81.5 -154t-91.5 -125t-95.5 -98.5t-83.5 -72t-65 -46.5l-119 146q369 305 369 745q0 118 -29 229.5t-69.5 189.5t-96 149.5t-95 109.5t-79.5 70l119 145q29 -19 62.5 -44t83.5 -71t95.5 -98.5t93 -127.5t81.5 -155.5t56 -184
t22 -212.5z" />
    <glyph glyph-name="asterisk" unicode="*" horiz-adv-x="894" 
d="M791 1069l-220 -70l154 -204l-131 -93l-145 197l-148 -197l-129 93l152 204l-220 70l52 152l209 -74v219h165v-219l209 74z" />
    <glyph glyph-name="plus" unicode="+" horiz-adv-x="1286" 
d="M1155 438h-418v-418h-190v418h-416v189h416v417h190v-417h418v-189z" />
    <glyph glyph-name="comma" unicode="," horiz-adv-x="600" 
d="M467 186q0 -82 -23.5 -157t-64 -133t-82.5 -100.5t-90 -76.5l-127 117q31 39 49 64.5t45 72t40 97t13 104.5v62h238q2 -29 2 -50z" />
    <glyph glyph-name="hyphen" unicode="-" horiz-adv-x="1011" 
d="M852 438h-692v189h692v-189z" />
    <glyph glyph-name="period" unicode="." horiz-adv-x="540" 
d="M414 129q0 -60 -42 -101.5t-102 -41.5t-101.5 41.5t-41.5 101.5t41.5 101.5t101.5 41.5t102 -41.5t42 -101.5z" />
    <glyph glyph-name="slash" unicode="/" horiz-adv-x="999" 
d="M879 1366l-625 -1683l-172 63l625 1684z" />
    <glyph glyph-name="zero" unicode="0" horiz-adv-x="1284" 
d="M1188 688q0 -332 -144.5 -524.5t-402.5 -192.5q-256 0 -400.5 192.5t-144.5 524.5q0 323 146 516t397 193q255 0 402 -192t147 -517zM954 682q0 253 -82 387.5t-227 134.5q-150 0 -232.5 -134.5t-82.5 -389.5q0 -251 80.5 -383.5t226.5 -132.5q151 0 234 133t83 385z" />
    <glyph glyph-name="one" unicode="1" horiz-adv-x="1284" 
d="M852 0h-234v1092l-313 -209l-110 166l473 317h184v-1366z" />
    <glyph glyph-name="two" unicode="2" horiz-adv-x="1284" 
d="M1081 0h-919v176q77 62 197 173.5t204 195.5q133 133 195.5 231t62.5 195q0 106 -64 167.5t-173 61.5q-154 0 -316 -139l-121 139q6 8 22 24t58.5 48t92.5 58.5t127.5 46.5t160.5 20q197 0 323 -113t126 -305q0 -75 -21 -144.5t-63 -134.5t-86 -116.5t-109 -116.5
q-154 -154 -299 -270h602v-197z" />
    <glyph glyph-name="three" unicode="3" horiz-adv-x="1284" 
d="M1063 395q0 -193 -134.5 -308.5t-361.5 -115.5q-80 0 -152 14.5t-118 33.5t-83.5 42.5t-53 37.5t-21.5 22l109 149l9 -6q9 -7 18.5 -13.5t26.5 -16.5t34.5 -19t41.5 -18t49 -16t55 -11t61 -4q137 0 211.5 60.5t74.5 162.5q0 91 -61 148q-47 42 -116.5 55.5t-176.5 13.5
h-43v189h31q54 0 83 1.5t73 8.5t77 25t62 47q49 49 49 127q0 86 -66 142t-174 56q-55 0 -108.5 -15.5t-94.5 -40t-58.5 -37t-31.5 -24.5l-112 136q5 7 20 22t54.5 43t87 51.5t121.5 41.5t155 18q191 0 312.5 -105t121.5 -272q0 -69 -26.5 -135.5t-80.5 -116.5t-124 -61
q121 -13 190.5 -102t69.5 -210z" />
    <glyph glyph-name="four" unicode="4" horiz-adv-x="1284" 
d="M1165 287h-174v-287h-221v287h-664v168l654 911h231v-889h174v-190zM770 477v600l-418 -600h418z" />
    <glyph glyph-name="five" unicode="5" horiz-adv-x="1284" 
d="M1079 459q0 -224 -141.5 -356t-380.5 -132q-76 0 -146.5 14.5t-115.5 33.5t-82 41.5t-52 35.5t-20 19l111 149q144 -96 291 -96q139 0 221 72t82 198q0 120 -76 196.5t-227 76.5q-119 0 -226 -64l-79 49v670h794v-192h-577v-306q73 29 170 29q206 0 330 -121t124 -317z
" />
    <glyph glyph-name="six" unicode="6" horiz-adv-x="1284" 
d="M1151 463q0 -215 -135 -353.5t-352 -138.5q-168 0 -288 91.5t-177.5 243.5t-57.5 347q0 158 36 291.5t105.5 235.5t180.5 159.5t252 57.5q74 0 142 -13.5t111 -30t80 -38.5t49.5 -32.5t20.5 -18.5l-100 -152q-132 94 -283 94q-97 0 -170 -35.5t-116 -99t-65.5 -139.5
t-27.5 -168q-2 -6 -1 -25t1 -20q41 95 141.5 150t211.5 55q197 0 319.5 -130.5t122.5 -330.5zM934 455q0 123 -68.5 198.5t-185.5 75.5q-123 0 -200 -80t-77 -200q0 -124 76 -203.5t195 -79.5q117 0 188.5 82t71.5 207z" />
    <glyph glyph-name="seven" unicode="7" horiz-adv-x="1284" 
d="M1102 1186l-543 -1186h-252l549 1169h-729v197h975v-180z" />
    <glyph glyph-name="eight" unicode="8" horiz-adv-x="1284" 
d="M1147 383q0 -191 -136 -301.5t-364 -110.5q-231 0 -370.5 111t-139.5 301q0 122 67 214.5t181 115.5q-100 28 -152.5 109t-52.5 186q0 176 127 282.5t334 106.5q208 0 336.5 -105.5t128.5 -279.5q0 -110 -54.5 -190.5t-148.5 -108.5q118 -29 181 -116t63 -214zM887 1004
q0 90 -65 148t-179 58q-110 0 -177 -58.5t-67 -145.5q0 -93 67.5 -152t180.5 -59q109 0 174.5 58.5t65.5 150.5zM926 391q0 103 -74 164t-207 61q-136 0 -210.5 -60.5t-74.5 -162.5q0 -105 76.5 -170t212.5 -65q131 0 204 64t73 169z" />
    <glyph glyph-name="nine" unicode="9" horiz-adv-x="1284" 
d="M1143 715q0 -126 -22 -236.5t-68 -204t-113 -161t-161 -105t-208 -37.5q-74 0 -142.5 13.5t-111.5 30t-80 38.5t-50.5 33t-20.5 18l102 152q134 -96 283 -96q97 0 169.5 36t115.5 99.5t65 140t27 168.5q2 23 2 43q-41 -94 -142.5 -148.5t-212.5 -54.5
q-197 0 -319.5 130.5t-122.5 330.5q0 215 135.5 353.5t352.5 138.5q127 0 227 -52.5t164 -145t97.5 -216t33.5 -268.5zM883 920q0 124 -77 203t-196 79q-117 0 -188.5 -82t-71.5 -207q0 -123 68.5 -198.5t185.5 -75.5q123 0 201 80.5t78 200.5z" />
    <glyph glyph-name="colon" unicode=":" horiz-adv-x="540" 
d="M414 868q0 -60 -42 -101.5t-102 -41.5t-101.5 41.5t-41.5 101.5t41.5 102t101.5 42t102 -42t42 -102zM414 129q0 -60 -42 -101.5t-102 -41.5t-101.5 41.5t-41.5 101.5t41.5 101.5t101.5 41.5t102 -41.5t42 -101.5z" />
    <glyph glyph-name="semicolon" unicode=";" horiz-adv-x="600" 
d="M475 868q0 -60 -41.5 -101.5t-101.5 -41.5t-102 41.5t-42 101.5t42 102t102 42t101.5 -42t41.5 -102zM467 186q0 -82 -23.5 -157t-64 -133t-82.5 -100.5t-90 -76.5l-127 117q31 39 49 64.5t45 72t40 97t13 104.5v62h238q2 -29 2 -50z" />
    <glyph glyph-name="less" unicode="&#x3c;" horiz-adv-x="1286" 
d="M1165 180l-75 -170l-969 451v145l969 449l75 -174l-755 -349z" />
    <glyph glyph-name="equal" unicode="=" horiz-adv-x="1286" 
d="M1180 602h-1074v189h1074v-189zM1180 274h-1074v189h1074v-189z" />
    <glyph glyph-name="greater" unicode="&#x3e;" horiz-adv-x="1286" 
d="M1165 461l-968 -451l-76 170l756 352l-756 349l76 174l968 -449v-145z" />
    <glyph glyph-name="question" unicode="?" horiz-adv-x="1071" 
d="M954 1022q0 -154 -108 -262q-42 -42 -139.5 -107t-110.5 -78q-22 -22 -29.5 -56.5t-7.5 -110.5v-19h-199q-8 80 -8 111q0 68 13 108t45 72t117.5 90t123.5 96q66 66 66 152q0 85 -59.5 136.5t-163.5 51.5q-65 0 -139 -26.5t-104.5 -44.5t-51.5 -33l-97 147q9 7 26 19
t61 36t91.5 43.5t115 34.5t132.5 15q189 0 307.5 -102.5t118.5 -272.5zM602 129q0 -60 -41.5 -101.5t-101.5 -41.5t-102 41.5t-42 101.5t42 101.5t102 41.5t101.5 -41.5t41.5 -101.5z" />
    <glyph glyph-name="at" unicode="@" horiz-adv-x="1634" 
d="M1538 842q0 -223 -157.5 -360.5t-405.5 -137.5q-19 0 -55 4l14 88q-1 -1 -9.5 -7.5t-16 -12.5t-21.5 -15t-27 -16.5t-31 -16t-36 -14t-39.5 -9t-42.5 -3.5q-110 0 -178 74t-68 190q0 191 137 322t336 131q128 0 238 -47l-105 -533q2 0 6 1q128 21 213 106q46 46 71 112
t25 140q0 178 -138 291.5t-359 113.5q-181 0 -325.5 -79t-225 -219.5t-80.5 -317.5q0 -231 151 -369.5t390 -138.5q35 0 69.5 3.5t64.5 9t60 13.5t53.5 16.5t48 18.5t41.5 18.5t34.5 18t27 15t19.5 12.5l10 6l76 -115l-13 -9q-14 -10 -29.5 -20.5t-44 -26t-59 -29.5
t-73 -28.5t-87.5 -25t-101.5 -17t-115.5 -6.5q-193 0 -349 82.5t-245.5 233.5t-89.5 342q0 159 61 299.5t167 240.5t253 157.5t314 57.5q182 0 330 -70t232.5 -194.5t84.5 -279.5zM1001 924q-40 8 -61 8q-129 0 -224 -96t-95 -224q0 -59 32 -99t82 -40q84 0 197 98z" />
    <glyph glyph-name="A" unicode="A" horiz-adv-x="1296" 
d="M1268 0h-246l-109 319h-536l-109 -319h-239l497 1366h244zM850 506l-207 608l-205 -608h412z" />
    <glyph glyph-name="B" unicode="B" horiz-adv-x="1196" 
d="M1094 403q0 -169 -103 -272q-38 -38 -86 -64t-89 -39t-108.5 -19.5t-110 -7.5t-128.5 -1h-313v1366h411q134 0 221 -19.5t154 -86.5q105 -105 105 -263q0 -64 -18.5 -116.5t-42 -82.5t-56.5 -53.5t-52 -31t-38 -13.5q33 -7 65 -19t67.5 -35.5t61.5 -55t43 -80t17 -107.5z
M815 985q0 78 -47 131q-9 10 -21 18.5t-22 15t-26 11.5t-25.5 8t-30 5t-28.5 3.5t-31 2t-29.5 0.5h-31.5h-29h-111v-398h98q95 0 164 12.5t115 53.5q55 52 55 137zM854 401q0 81 -55 136q-12 12 -25 21.5t-30.5 16t-29.5 11.5t-35.5 8t-33.5 4.5t-39 2.5t-37 1h-42h-40h-104
v-414h139q112 0 173 15.5t106 60.5q53 53 53 137z" />
    <glyph glyph-name="C" unicode="C" horiz-adv-x="1302" 
d="M1253 123q-8 -8 -28 -22.5t-64 -38t-96.5 -43t-130 -34t-158.5 -14.5q-143 0 -266.5 48t-214.5 136.5t-143 222t-52 294.5q0 167 55 304.5t150 229t223 141.5t275 50q78 0 150.5 -14t120.5 -32.5t88.5 -41t58 -36.5t24.5 -22l-104 -159q-13 10 -33.5 22t-63.5 32.5
t-104 34t-125 13.5q-203 0 -337 -136.5t-134 -367.5q0 -233 123.5 -372.5t333.5 -139.5q34 0 69 4.5t63.5 11t57.5 16t50 18t42.5 19t33.5 17t24 14.5l12 7z" />
    <glyph glyph-name="D" unicode="D" horiz-adv-x="1419" 
d="M1319 694q0 -147 -49.5 -277t-141.5 -222q-54 -54 -118.5 -91.5t-122.5 -57.5t-138.5 -30.5t-139.5 -13t-152 -2.5h-301v1366h350q93 0 146 -1.5t129 -11t127 -27.5t110 -52.5t110 -85.5q90 -90 140.5 -219.5t50.5 -274.5zM1081 700q0 228 -131 359q-34 34 -74 57.5
t-76 36t-90.5 18.5t-95 7.5t-112.5 1.5h-109v-990h162q136 0 234 31.5t169 106.5q123 129 123 372z" />
    <glyph glyph-name="E" unicode="E" horiz-adv-x="1064" 
d="M965 0h-809v1366h792v-192h-559v-373h524v-189h-524v-415h576v-197z" />
    <glyph glyph-name="F" unicode="F" horiz-adv-x="1021" 
d="M934 1174h-543v-373h512v-191h-512v-610h-235v1366h778v-192z" />
    <glyph glyph-name="G" unicode="G" horiz-adv-x="1404" 
d="M1270 86q-1 0 -14 -7t-23 -11.5t-31 -13.5t-39.5 -16t-46.5 -16.5t-54.5 -16t-61.5 -14t-69.5 -12t-75.5 -7.5t-83 -3q-142 0 -265 48.5t-213.5 137.5t-142 222.5t-51.5 294.5q0 167 54.5 305t149.5 229.5t222.5 141t274.5 49.5q80 0 153.5 -14t122 -32.5t88 -40.5
t56.5 -35.5t22 -19.5l-102 -159q-137 98 -328 98q-203 0 -337 -136.5t-134 -367.5q0 -235 124.5 -376.5t342.5 -141.5q133 0 235 41v293h-274v182h500v-602z" />
    <glyph glyph-name="H" unicode="H" horiz-adv-x="1349" 
d="M1194 0h-238v614h-563v-614h-237v1366h237v-555h563v555h238v-1366z" />
    <glyph glyph-name="I" unicode="I" horiz-adv-x="548" 
d="M393 0h-237v1366h237v-1366z" />
    <glyph glyph-name="J" unicode="J" horiz-adv-x="806" 
d="M666 444q0 -56 -0.5 -83t-5.5 -77t-15 -81.5t-30.5 -69.5t-49.5 -67q-95 -95 -264 -95q-74 0 -145.5 22t-99.5 38.5t-42 27.5l82 166q94 -49 170 -49t113 37q32 31 40.5 77t8.5 134v942h238v-922z" />
    <glyph glyph-name="K" unicode="K" horiz-adv-x="1208" 
d="M1184 0h-285l-506 643v-643h-237v1366h237v-639l502 639h262l-539 -666z" />
    <glyph glyph-name="L" unicode="L" horiz-adv-x="1030" 
d="M942 0h-786v1366h237v-1169h549v-197z" />
    <glyph glyph-name="M" unicode="M" horiz-adv-x="1779" 
d="M1651 0h-228l-94 1032l-350 -1032h-195l-360 1032l-84 -1032h-211l133 1366h258l373 -1053l358 1053h258z" />
    <glyph glyph-name="N" unicode="N" horiz-adv-x="1347" 
d="M1192 0h-215l-610 999l6 -999h-217v1366h223l602 -997l-6 997h217v-1366z" />
    <glyph glyph-name="O" unicode="O" horiz-adv-x="1495" 
d="M1395 692q0 -324 -180 -522.5t-467 -198.5q-140 0 -260.5 52.5t-206 146t-133.5 227t-48 289.5t48 288t133.5 225t206.5 145.5t264 52.5q189 0 335.5 -90t227 -250.5t80.5 -364.5zM1151 696q0 222 -114 363t-298 141q-179 0 -287 -144t-108 -376q0 -228 115.5 -368
t292.5 -140q83 0 150.5 29t113 78t76.5 116.5t45 142.5t14 158z" />
    <glyph glyph-name="P" unicode="P" horiz-adv-x="1181" 
d="M1073 956q0 -97 -33 -175.5t-84 -129.5q-38 -38 -82 -63t-81 -38t-95.5 -19.5t-95 -7.5t-110.5 -1h-103v-522h-233v1366h364q166 0 266.5 -21.5t174.5 -95.5q112 -112 112 -293zM834 952q0 108 -64 172q-36 36 -93.5 46t-158.5 10h-129v-467h96q123 0 184.5 11t98.5 48
q66 66 66 180z" />
    <glyph glyph-name="Q" unicode="Q" horiz-adv-x="1486" 
d="M1395 -254q-116 -29 -242 -29q-179 0 -314.5 64t-236.5 209q-75 13 -146 48t-136 95t-113.5 138t-77.5 186t-29 231q0 208 82 369.5t230 250.5t338 89q189 0 336 -90t228 -250.5t81 -364.5q0 -341 -201 -542q-44 -44 -96.5 -76.5t-99.5 -47.5t-74.5 -21.5t-49.5 -8.5
q96 -102 334 -102q98 0 158 12zM1151 696q0 222 -114 363t-298 141q-179 0 -287 -144t-108 -376q0 -228 115.5 -368t292.5 -140q83 0 150.5 29t113 78t76.5 116.5t45 142.5t14 158z" />
    <glyph glyph-name="R" unicode="R" horiz-adv-x="1189" 
d="M1141 0h-250l-164 365q-22 49 -40 82t-39 55t-38 34t-46 18.5t-51.5 7.5t-66.5 1h-57v-563h-233v1366h327h17q69 0 103.5 -1t90 -6.5t90 -17t75 -33.5t73.5 -55q110 -110 110 -274q0 -152 -90 -242q-85 -85 -213 -102q36 -3 62.5 -17.5t58.5 -46.5q15 -15 28 -32.5
t26.5 -42.5t20.5 -39t22.5 -48.5t19.5 -43.5zM807 973q0 45 -15 85.5t-36 61.5q-28 28 -68 41t-71 15t-95 2h-22h-111v-430h90q101 0 162 13t104 56q62 62 62 156z" />
    <glyph glyph-name="S" unicode="S" horiz-adv-x="1095" 
d="M985 391q0 -189 -125.5 -305.5t-343.5 -116.5q-73 0 -143.5 15t-119 35t-90 43.5t-60.5 38.5t-25 22l106 164q1 -1 21 -14t37.5 -23.5t49.5 -26t62.5 -26t70.5 -18t79 -7.5q115 0 178 54.5t63 146.5q0 25 -7.5 48t-17.5 40t-30.5 34.5t-36 28.5t-44.5 25.5t-46 22t-51 22
t-49 20.5q-110 49 -153 75q-191 119 -191 321q0 173 124.5 280t323.5 107q71 0 139 -15t111.5 -33.5t82.5 -43t52.5 -36t20.5 -18.5l-111 -151q-128 102 -278 102q-103 0 -168.5 -49t-65.5 -125q0 -26 5.5 -46t22 -39t31 -31.5t51 -31t61.5 -30t81 -35.5q50 -22 83 -37.5
t77.5 -40t73 -47t59.5 -55t49 -67t29.5 -80t11.5 -97.5z" />
    <glyph glyph-name="T" unicode="T" horiz-adv-x="1130" 
d="M1071 1174h-387v-1174h-238v1174h-387v192h1012v-192z" />
    <glyph glyph-name="U" unicode="U" horiz-adv-x="1316" 
d="M1176 635q0 -109 -3.5 -172.5t-15.5 -133.5t-38 -120t-70 -94q-144 -144 -392 -144q-247 0 -393 146q-36 36 -60 79.5t-36.5 80.5t-18.5 94.5t-7 92t-1 101.5v801h238v-854q0 -50 1 -72.5t7 -62t21 -68.5t41 -55q78 -78 217 -78q124 0 200 76q53 53 64.5 120t11.5 223
v13.5v12.5v14v731h234v-731z" />
    <glyph glyph-name="V" unicode="V" horiz-adv-x="1282" 
d="M1237 1366l-477 -1366h-242l-473 1366h242l356 -1102l363 1102h231z" />
    <glyph glyph-name="W" unicode="W" horiz-adv-x="1849" 
d="M1769 1366l-325 -1366h-260l-254 1102l-266 -1102h-263l-321 1366h233l226 -1092l268 1092h258l258 -1092l231 1092h215z" />
    <glyph glyph-name="X" unicode="X" horiz-adv-x="1241" 
d="M1184 0h-256l-312 516l-313 -516h-246l441 702l-412 664h260l283 -487l286 487h244l-411 -661z" />
    <glyph glyph-name="Y" unicode="Y" horiz-adv-x="1202" 
d="M1147 1366l-430 -823v-543h-232v543l-430 823h244l315 -629l312 629h221z" />
    <glyph glyph-name="Z" unicode="Z" horiz-adv-x="1150" 
d="M1059 0h-967v168l664 1006h-633v192h917v-174l-651 -995h670v-197z" />
    <glyph glyph-name="bracketleft" unicode="[" horiz-adv-x="741" 
d="M662 -256h-506v1622h506v-190h-273v-1242h273v-190z" />
    <glyph glyph-name="backslash" unicode="\" horiz-adv-x="999" 
d="M918 -254l-173 -63l-624 1683l172 64z" />
    <glyph glyph-name="bracketright" unicode="]" horiz-adv-x="741" 
d="M586 -256h-506v190h272v1242h-272v190h506v-1622z" />
    <glyph glyph-name="asciicircum" unicode="^" horiz-adv-x="1282" 
d="M1137 504h-211l-281 614l-280 -614h-220l414 862h170z" />
    <glyph glyph-name="underscore" unicode="_" horiz-adv-x="1030" 
d="M1034 -256h-1038v190h1038v-190z" />
    <glyph glyph-name="grave" unicode="`" horiz-adv-x="829" 
d="M680 1243l-70 -127l-460 184l88 181z" />
    <glyph glyph-name="a" unicode="a" horiz-adv-x="1011" 
d="M895 0h-197v74q-14 -10 -31.5 -20t-57.5 -29.5t-94.5 -32t-111.5 -12.5q-146 0 -233.5 87t-87.5 228q0 55 15 102t39.5 80.5t61 60.5t73 44t83 29.5t83 19t81.5 10t70.5 4t56.5 0.5h37v39q0 50 -7 78t-26 47q-45 45 -162 45q-133 0 -270 -78l-78 146q11 9 35 23.5
t70 35.5t115.5 35t146.5 14q110 0 183 -25.5t128 -80.5q37 -37 55 -89.5t20.5 -94t2.5 -126.5v-614zM682 221v264h-47q-234 0 -311 -77q-39 -39 -39 -103q0 -73 50 -112t126 -39q28 0 56 4.5t49.5 11t43 15.5t34 15t25 13.5t13.5 7.5z" />
    <glyph glyph-name="b" unicode="b" horiz-adv-x="1130" 
d="M1047 522q0 -246 -143.5 -397.5t-379.5 -151.5q-40 0 -81.5 3.5t-78 10t-68.5 13.5t-61.5 15.5t-48 14.5t-36.5 12.5t-19 6.5v1432h225v-529q127 76 256 76q190 0 312.5 -138t122.5 -368zM819 520q0 152 -72 237t-180 85q-103 0 -211 -72v-586q1 0 10 -3t17 -5.5t23.5 -6
t31 -6t38 -4t46.5 -1.5q136 0 216.5 98.5t80.5 263.5z" />
    <glyph glyph-name="c" unicode="c" horiz-adv-x="997" 
d="M950 92q-4 -4 -19 -14.5t-49 -29t-75 -34t-101 -27.5t-122 -12q-225 0 -362.5 142.5t-137.5 369.5q0 236 147.5 388.5t372.5 152.5q69 0 133 -15.5t104.5 -36.5t64 -37.5t30.5 -25.5l-92 -141q-112 70 -226 70q-94 0 -165.5 -49t-106.5 -125t-35 -164q0 -152 79.5 -246
t217.5 -94q28 0 57 4t53 10.5t45.5 14t39 16t29.5 14.5t21 11l9 6z" />
    <glyph glyph-name="d" unicode="d" horiz-adv-x="1134" 
d="M1004 0h-197v72l-7 -6q-8 -6 -15 -10.5t-20 -13t-26.5 -15.5t-31 -15t-37 -14t-41.5 -11.5t-47.5 -8.5t-51.5 -3q-200 0 -323 142.5t-123 369.5q0 235 140 388t345 153q124 0 209 -51v504h226v-1481zM778 231v555q-81 54 -176 54q-129 0 -210 -92.5t-81 -255.5
q0 -150 76.5 -240t190.5 -90q18 0 35 2t32.5 5.5t29 7.5t26 10t22 10.5t20 10.5t15.5 9.5t12 8.5t8 5z" />
    <glyph glyph-name="e" unicode="e" horiz-adv-x="1071" 
d="M987 512q0 -19 -2 -46.5t-2 -33.5h-678q0 -38 9.5 -75.5t31 -74t53.5 -64.5t81.5 -45t109.5 -17q29 0 57 3t53.5 9.5t46 12.5t42 15t32 13.5t27.5 12.5l16 9l78 -147q-60 -36 -93 -51q-133 -58 -278 -58q-228 0 -357.5 145.5t-129.5 373.5q0 236 131 385t342 149
q203 0 316.5 -137.5t113.5 -378.5zM774 600q0 29 -5 60t-19 67t-36.5 64t-62 46.5t-90.5 18.5q-103 0 -172.5 -70.5t-83.5 -185.5h469z" />
    <glyph glyph-name="f" unicode="f" horiz-adv-x="845" 
d="M854 1419l-86 -147q-75 45 -145 45q-76 0 -115 -39q-32 -32 -40.5 -75.5t-8.5 -115.5v-88h303v-184h-303v-815h-226v815h-167v184h167v86q0 115 21.5 191.5t81.5 136.5q92 92 256 92q71 0 135.5 -21t92.5 -39t34 -26z" />
    <glyph glyph-name="g" unicode="g" horiz-adv-x="1132" 
d="M1001 6q0 -134 -18 -210.5t-84 -143.5q-125 -125 -354 -125q-73 0 -142.5 13.5t-116 31.5t-86 39.5t-57.5 35.5t-24 21l94 148l12 -8q12 -8 26 -16t36 -19t47.5 -20.5t54.5 -18.5t63 -14t68 -5q122 0 191 58q42 36 54.5 89t12.5 140v68l-14 -8q-13 -7 -26 -13.5t-37 -16
t-48 -16t-58 -11.5t-69 -5q-138 0 -240.5 69.5t-152 179.5t-49.5 243q0 229 146.5 382.5t377.5 153.5q36 0 73.5 -4t68.5 -10t63.5 -14.5t56 -16.5t48.5 -18t38.5 -16t28.5 -13t16 -8v-922zM778 250v557q-86 37 -174 37q-128 0 -210.5 -93t-82.5 -249q0 -147 75 -233.5
t187 -86.5q47 0 98.5 17t73.5 30t33 21z" />
    <glyph glyph-name="h" unicode="h" horiz-adv-x="1091" 
d="M977 0h-225v547q0 112 -8 163.5t-39 82.5q-43 43 -125 43q-51 0 -105.5 -18t-79 -31.5t-39.5 -24.5v-762h-225v1481h225v-537q5 3 14 9t38.5 20.5t59.5 25.5t73 20t84 9q157 0 249 -92q37 -37 59.5 -79t31 -97.5t10.5 -91.5t2 -109v-559z" />
    <glyph glyph-name="i" unicode="i" horiz-adv-x="485" 
d="M375 1298q0 -56 -37.5 -93.5t-93.5 -37.5t-94.5 38t-38.5 93q0 56 39 95t94 39t93 -39t38 -95zM356 0h-225v999h225v-999z" />
    <glyph glyph-name="j" unicode="j" horiz-adv-x="485" 
d="M375 1298q0 -55 -38.5 -93t-94.5 -38t-93.5 37.5t-37.5 93.5t38 95t93 39t94 -39t39 -95zM356 -70q0 -113 -19.5 -184.5t-78.5 -130.5q-43 -43 -111.5 -65.5t-136.5 -22.5q-44 0 -89.5 10.5t-69.5 20.5t-31 16l57 162q61 -23 100 -23q70 0 111 41q43 43 43 160v1085h225
v-1069z" />
    <glyph glyph-name="k" unicode="k" horiz-adv-x="1062" 
d="M1034 0h-272l-406 504v-504h-225v1481h225v-910l396 428h270l-432 -454z" />
    <glyph glyph-name="l" unicode="l" horiz-adv-x="487" 
d="M356 0h-225v1481h225v-1481z" />
    <glyph glyph-name="m" unicode="m" horiz-adv-x="1669" 
d="M1552 0h-225v565q0 54 -1 80.5t-10.5 72t-29.5 68.5q-41 50 -123 50q-93 0 -223 -78q10 -28 12 -73.5t2 -154.5v-530h-223v551q0 70 -1.5 104t-12.5 75.5t-33 64.5q-38 41 -113 41q-46 0 -98 -16.5t-78 -30.5t-39 -23v-766h-225v999h197v-73q22 16 49.5 33.5t100.5 43
t143 25.5q154 0 245 -113q168 113 332 113q80 0 144 -25t104 -65q26 -26 44.5 -54t30 -64.5t18 -65t9.5 -78.5t3.5 -81t0.5 -95v-500z" />
    <glyph glyph-name="n" unicode="n" horiz-adv-x="1093" 
d="M977 0h-225v547q0 112 -8 163.5t-39 82.5q-43 43 -125 43q-51 0 -105.5 -18t-79 -31.5t-39.5 -24.5v-762h-225v999h197v-73q13 10 33 22t61 32.5t95 34t108 13.5q157 0 249 -92q37 -37 59.5 -79t31 -97.5t10.5 -91.5t2 -109v-559z" />
    <glyph glyph-name="o" unicode="o" horiz-adv-x="1153" 
d="M1069 506q0 -236 -139 -383.5t-363 -147.5q-215 0 -349 145t-134 378q0 235 139 382.5t363 147.5q215 0 349 -144.5t134 -377.5zM842 498q0 154 -75.5 249t-193.5 95q-120 0 -191 -91.5t-71 -244.5q0 -154 76.5 -249t194.5 -95q122 0 191 90.5t69 245.5z" />
    <glyph glyph-name="p" unicode="p" horiz-adv-x="1136" 
d="M1051 516q0 -119 -38.5 -221t-104.5 -171.5t-155 -109t-188 -39.5q-126 0 -209 50v-465h-225v1439h199v-67q115 96 274 96q200 0 323.5 -142.5t123.5 -369.5zM823 512q0 150 -76 239t-190 89q-51 0 -100.5 -17.5t-71.5 -31.5t-29 -21v-555q80 -53 176 -53q129 0 210 93
t81 257z" />
    <glyph glyph-name="q" unicode="q" horiz-adv-x="1132" 
d="M1001 -440h-225v493l-6 -5q-7 -4 -13 -8t-17 -10.5t-23 -12t-27.5 -12.5t-33.5 -12t-38.5 -9t-44.5 -6.5t-49 -2.5q-192 0 -316 140.5t-124 363.5q0 243 144 396t376 153q199 0 397 -88v-1380zM776 233v578q-1 0 -13.5 4.5t-26.5 8.5t-34 8.5t-46 7t-54 2.5
q-131 0 -211 -98.5t-80 -260.5q0 -149 77 -235t183 -86q53 0 104.5 18t72.5 32t28 21z" />
    <glyph glyph-name="r" unicode="r" 
d="M764 1006l-51 -175q-35 7 -68 7q-182 0 -289 -154v-684h-225v999h197v-127q4 7 17.5 22t43 39t65.5 44.5t89.5 35.5t109.5 15q20 0 38 -2t30.5 -5t21 -6t15.5 -6z" />
    <glyph glyph-name="s" unicode="s" horiz-adv-x="907" 
d="M805 287q0 -145 -106 -229.5t-275 -84.5q-60 0 -118.5 10.5t-99 24t-75 30.5t-50.5 27t-22 15l80 147q1 -1 13 -7.5t24 -12.5t31.5 -14.5t40.5 -15.5t45 -13.5t52 -10t56 -3.5q84 0 129 34t45 88q0 26 -9 45t-43 40t-51.5 29t-81.5 35q-6 3 -10 4.5t-9.5 4t-10.5 4.5
q-45 19 -71.5 31.5t-68 40t-65 55t-41.5 72t-18 96.5q0 134 103 216.5t268 82.5q189 0 324 -90l-78 -143q-14 9 -39.5 21t-83.5 29t-109 17q-79 0 -119 -32.5t-40 -79.5q0 -21 10 -39t22 -30.5t40.5 -28t46.5 -23.5t59 -25q130 -53 181 -88q124 -86 124 -229z" />
    <glyph glyph-name="t" unicode="t" horiz-adv-x="849" 
d="M768 33q-100 -60 -233 -60q-158 0 -242 84q-28 28 -44 58.5t-22.5 72.5t-8 71t-1.5 88v6.5v5.5v6v450h-174v184h174v281h225v-281h295v-184h-295v-471q0 -33 1.5 -54t9 -47.5t21 -41.5t40 -26t64.5 -11q55 0 133 26z" />
    <glyph glyph-name="u" unicode="u" horiz-adv-x="1093" 
d="M963 0h-197v76q-21 -16 -50.5 -34t-103 -43.5t-143.5 -25.5q-157 0 -250 93q-30 30 -50.5 67t-30.5 66.5t-15 79.5t-5.5 76.5t-0.5 86.5v557h225v-544q0 -112 8 -163.5t39 -82.5q43 -43 129 -43q21 0 42.5 3t39.5 7.5t36 11t31.5 13t26.5 13.5t20.5 12t15.5 10l7 4v759
h226v-999z" />
    <glyph glyph-name="v" unicode="v" horiz-adv-x="1069" 
d="M1026 999l-385 -999h-225l-383 999h235l271 -753l268 753h219z" />
    <glyph glyph-name="w" unicode="w" horiz-adv-x="1574" 
d="M1495 999l-281 -999h-241l-203 752l-199 -752h-235l-273 999h218l186 -757l203 757h219l201 -757l194 757h211z" />
    <glyph glyph-name="x" unicode="x" horiz-adv-x="1099" 
d="M1044 0h-256l-249 358l-246 -358h-246l365 504l-344 495h258l229 -325l221 325h238l-336 -489z" />
    <glyph glyph-name="y" unicode="y" horiz-adv-x="1118" 
d="M1063 999l-395 -1028q-54 -141 -95.5 -216.5t-93.5 -127.5q-100 -100 -276 -100q-102 0 -226 55l66 164q77 -33 150 -33q89 0 145 56q8 8 15.5 17.5t14 18t13.5 22t12 21.5t12 24t10 23.5t10.5 25.5t9.5 23.5t9.5 25t8.5 22.5l-416 1007h239l293 -753l271 753h223z" />
    <glyph glyph-name="z" unicode="z" horiz-adv-x="1040" 
d="M924 0h-828v158l531 657h-514v184h792v-163l-522 -648h541v-188z" />
    <glyph glyph-name="braceleft" unicode="{" horiz-adv-x="819" 
d="M711 -256h-131q-203 0 -299 96q-44 44 -59 107t-15 178v203q0 36 -1 56t-6.5 44t-16.5 36t-31 22t-50 12v180q69 9 87 42t18 128v137q0 115 15 178t59 107q96 96 299 96h131v-182h-68q-139 0 -176 -37q-21 -21 -26 -60t-5 -141v-104q0 -173 -51 -224q-26 -26 -68 -30
q41 -4 66 -29q53 -53 53 -223v-174q0 -102 5 -140t26 -59q36 -36 176 -39l68 -2v-178z" />
    <glyph glyph-name="bar" unicode="|" horiz-adv-x="546" 
d="M391 -256h-235v1622h235v-1622z" />
    <glyph glyph-name="braceright" unicode="}" horiz-adv-x="819" 
d="M711 498q-30 -2 -50 -12t-31 -22t-16.5 -36t-6.5 -44t-1 -56v-203q0 -115 -15 -178t-59 -107q-96 -96 -299 -96h-131v178l68 2q140 3 176 39q22 21 26.5 59t4.5 140v174q0 170 53 223q25 25 66 29q-42 4 -68 30q-51 51 -51 224v104q0 102 -5 141t-26 60q-37 37 -176 37
h-68v182h131q203 0 299 -96q44 -44 59 -107t15 -178v-137q0 -95 18 -128t87 -42v-180z" />
    <glyph glyph-name="asciitilde" unicode="~" horiz-adv-x="1284" 
d="M1122 547q-115 -158 -264 -158q-55 0 -109.5 15.5t-121 43.5t-95.5 37q-63 19 -94 19q-35 0 -69 -18t-45.5 -29.5t-38.5 -40.5l-123 90q96 162 278 162q57 0 118 -17.5t104.5 -39t96 -39t95.5 -17.5q32 0 63.5 16.5t45.5 30t45 45.5z" />
    <glyph glyph-name="exclamdown" unicode="&#xa1;" horiz-adv-x="727" 
d="M508 885q0 -60 -41.5 -102t-101.5 -42t-102 42t-42 102t42 101.5t102 41.5t101.5 -41.5t41.5 -101.5zM494 -352h-261l37 977h189z" />
    <glyph glyph-name="cent" unicode="&#xa2;" horiz-adv-x="1284" 
d="M1114 113q-4 -6 -36.5 -27t-103 -48.5t-143.5 -35.5v-215h-169v215q-189 28 -301.5 165.5t-112.5 340.5q0 205 114.5 349.5t299.5 180.5v201h169v-195q70 -6 135 -31.5t96.5 -47t37.5 -31.5l-92 -141q-110 69 -226 69q-94 0 -166 -49t-107.5 -125t-35.5 -164
q0 -152 80 -246t219 -94q28 0 57 4t53 10.5t45.5 14t39 16t29.5 14.5t21 11l9 6z" />
    <glyph glyph-name="sterling" unicode="&#xa3;" horiz-adv-x="1284" 
d="M1198 1243l-111 -137q-1 1 -15.5 11t-25 16.5t-30.5 18t-39.5 19.5t-44 16.5t-52 12.5t-55.5 4q-120 0 -189 -75t-69 -211q0 -37 3 -75t7.5 -69.5t4.5 -34.5h397v-182h-377q4 -28 4 -78q0 -204 -98 -282h663v-197h-987v178q105 21 151 90t46 189q0 40 -6 100h-187v182
h168q-14 103 -14 179q0 224 125.5 351.5t345.5 127.5q70 0 134 -15t105.5 -34.5t76 -44t49 -38.5t20.5 -22z" />
    <glyph glyph-name="currency" unicode="&#xa4;" horiz-adv-x="1239" 
d="M1194 238l-135 -136l-131 134q-136 -91 -322 -91q-181 0 -315 86l-129 -129l-133 136l123 124q-95 135 -95 326q0 188 93 324l-121 123l133 133l127 -129q133 88 321 88q184 0 320 -90l129 131l135 -133l-129 -127q90 -133 90 -316q0 -190 -92 -327zM926 696
q0 162 -91 259.5t-235 97.5q-141 0 -227 -99.5t-86 -269.5q0 -169 91.5 -265.5t233.5 -96.5q154 0 234 102.5t80 271.5z" />
    <glyph glyph-name="yen" unicode="&#xa5;" horiz-adv-x="1284" 
d="M1184 1366l-350 -625h217v-155h-295v-127h293v-154h-293v-305h-228v305h-303v154h303v127h-305v155h219l-342 625h244l307 -606l312 606h221z" />
    <glyph glyph-name="brokenbar" unicode="&#xa6;" horiz-adv-x="546" 
d="M391 743h-235v623h235v-623zM391 -256h-235v627h235v-627z" />
    <glyph glyph-name="section" unicode="&#xa7;" horiz-adv-x="1273" 
d="M1047 588q0 -191 -197 -283q151 -86 151 -252q0 -155 -109 -253.5t-298 -98.5q-212 0 -365 115l88 149q134 -84 265 -84q104 0 157.5 44t53.5 110q0 53 -41 94q-26 26 -78.5 51t-103 43.5t-111 51t-101.5 71.5q-90 87 -90 205q0 198 199 272q-73 49 -114.5 108t-41.5 146
q0 141 102 231.5t275 90.5q58 0 112 -11t88 -23.5t67 -31.5t42 -25.5t19 -15.5l-84 -139q-130 74 -232 74q-92 0 -136 -35.5t-44 -93.5q0 -49 37 -86q31 -31 111 -65t165.5 -74.5t131.5 -86.5q82 -82 82 -198zM848 557q0 47 -37 84q-42 44 -197 109q-61 -21 -104 -61.5
t-43 -104.5q0 -49 35 -84q52 -52 198 -111q58 26 103 69.5t45 98.5z" />
    <glyph glyph-name="dieresis" unicode="&#xa8;" horiz-adv-x="829" 
d="M727 1292q0 -53 -36.5 -90t-88.5 -37t-89.5 37.5t-37.5 89.5t37.5 89.5t89.5 37.5t88.5 -37t36.5 -90zM356 1292q0 -53 -36.5 -90t-88.5 -37q-53 0 -90 37.5t-37 89.5t37 89.5t90 37.5q52 0 88.5 -37t36.5 -90z" />
    <glyph glyph-name="copyright" unicode="&#xa9;" horiz-adv-x="1605" 
d="M1511 682q0 -143 -56 -274t-150.5 -226t-225.5 -151t-274 -56q-191 0 -354.5 95t-259 258t-95.5 354t95.5 354.5t259 259t354.5 95.5q193 0 356.5 -98t256.5 -261t93 -350zM1354 682q0 150 -74 276.5t-200.5 199.5t-274.5 73q-149 0 -276 -74.5t-201 -201t-74 -273.5
q0 -149 74 -275t201 -199t276 -73t275.5 73t200 199t73.5 275zM1087 391q-7 -9 -37 -27t-95 -38.5t-134 -20.5q-165 0 -266.5 105.5t-101.5 273.5q0 174 109.5 286.5t275.5 112.5q51 0 96 -10.5t74.5 -26t44.5 -26t24 -19.5l-63 -98q-81 53 -164 53q-109 0 -173.5 -77.5
t-64.5 -182.5q0 -115 62 -188.5t170 -73.5q19 0 38.5 2.5t36.5 7.5t31 9.5t28 11.5t21.5 11t18.5 10l10 6z" />
    <glyph glyph-name="ordfeminine" unicode="&#xaa;" horiz-adv-x="899" 
d="M737 629h-153v49q-98 -66 -211 -66q-109 0 -174.5 66.5t-65.5 171.5q0 53 18.5 95.5t46 69.5t69.5 46.5t77 29t81 14.5t70.5 6t55.5 1h20v25q0 66 -22 88q-30 30 -115 30q-105 0 -201 -57l-59 115q15 13 41.5 29t93 35.5t140.5 19.5q151 0 231 -80q53 -53 57 -162v-70
v-456zM571 799v186h-28q-174 0 -226 -55q-26 -26 -26 -72q0 -52 35 -79t90 -27q76 0 155 47z" />
    <glyph glyph-name="guillemotleft" unicode="&#xab;" horiz-adv-x="1058" 
d="M932 186l-139 -82l-297 398l297 397l139 -94l-176 -303zM563 186l-139 -82l-297 398l297 397l139 -94l-176 -303z" />
    <glyph glyph-name="logicalnot" unicode="&#xac;" horiz-adv-x="1286" 
d="M1163 334h-205v295h-835v190h1040v-485z" />
    <glyph glyph-name="registered" unicode="&#xae;" horiz-adv-x="1103" 
d="M1008 940q0 -190 -132 -321.5t-323 -131.5t-324 131.5t-133 321.5t133 323.5t324 133.5q190 0 322.5 -133t132.5 -324zM903 940q0 146 -102 247t-248 101t-248 -101t-102 -247t101.5 -245t248.5 -99t248.5 99t101.5 245zM760 700h-92l-52 113q-26 56 -45 70t-69 14h-19
v-197h-90v490h137q42 0 63 -1.5t48 -10.5t45 -27q39 -39 39 -98q0 -48 -31 -84q-34 -34 -78 -39q22 0 41 -19q14 -14 39 -69zM631 1047q0 25 -15 40q-21 21 -73 21h-60v-129h39q25 0 35.5 0.5t27 5.5t27.5 16q19 19 19 46z" />
    <glyph glyph-name="macron" unicode="&#xaf;" horiz-adv-x="829" 
d="M758 1217h-688v151h688v-151z" />
    <glyph glyph-name="degree" unicode="&#xb0;" horiz-adv-x="1280" 
d="M950 1092q0 -129 -91 -220.5t-220 -91.5t-219 91.5t-90 220.5t90 219t219 90t220 -90t91 -219zM803 1094q0 70 -48 120t-116 50q-67 0 -114.5 -49.5t-47.5 -120.5q0 -70 47 -119t115 -49t116 49t48 119z" />
    <glyph glyph-name="plusminus" unicode="&#xb1;" horiz-adv-x="1286" 
d="M1155 684h-418v-412h-190v412h-416v188h416v414h190v-414h418v-188zM1155 0h-1024v184h1024v-184z" />
    <glyph glyph-name="twosuperior" unicode="&#xb2;" 
d="M645 666h-469v106q67 56 113 97.5t97.5 95.5t78.5 102t27 88q0 47 -27 74.5t-76 27.5q-29 0 -60.5 -14t-47.5 -26t-43 -35l-72 86q38 47 101 78.5t136 31.5q100 0 166 -60t66 -159q0 -52 -20 -101.5t-62 -99t-79.5 -85t-98.5 -87.5h270v-120z" />
    <glyph glyph-name="threesuperior" unicode="&#xb3;" 
d="M653 872q0 -102 -71 -162.5t-189 -60.5q-152 0 -233 90l71 90l7 -5q7 -5 11 -8t14 -9t18 -10t20.5 -9.5t23.5 -8.5t25.5 -5t28.5 -2q62 0 95.5 26.5t33.5 69.5q0 55 -43 76t-117 21h-37v114h31q23 0 38.5 1t39.5 6t39 14t26 27t11 44q0 35 -27.5 59.5t-75.5 24.5
q-35 0 -69.5 -14t-49.5 -25t-26 -22l-74 86q36 42 99.5 70t136.5 28q100 0 164.5 -54.5t64.5 -143.5q0 -48 -28.5 -94.5t-78.5 -59.5q57 -9 89 -54t32 -100z" />
    <glyph glyph-name="acute" unicode="&#xb4;" horiz-adv-x="829" 
d="M680 1300l-461 -184l-69 127l442 238z" />
    <glyph glyph-name="uni00B5" unicode="&#xb5;" horiz-adv-x="1107" 
d="M977 0h-197v76q-21 -16 -50.5 -34t-103 -43.5t-143.5 -25.5q-41 0 -76.5 12t-47 19.5t-29.5 22.5v-283h-199v1255h225v-544q0 -112 8 -163.5t39 -82.5q43 -43 129 -43q21 0 42.5 3t39.5 7.5t36.5 11.5t31.5 13t26.5 13t21 11.5t14.5 9.5l8 5v759h225v-999z" />
    <glyph glyph-name="paragraph" unicode="&#xb6;" horiz-adv-x="1441" 
d="M1311 1174h-146v-1430h-194v1430h-156v-1430h-194v786q-55 1 -89 3.5t-97.5 13t-116.5 36.5t-93 66q-119 119 -119 312q0 167 115 282q77 77 193.5 100t339.5 23h557v-192z" />
    <glyph glyph-name="periodcentered" unicode="&#xb7;" horiz-adv-x="540" 
d="M414 522q0 -60 -42 -101.5t-102 -41.5t-101.5 41.5t-41.5 101.5t41.5 102t101.5 42t102 -42t42 -102z" />
    <glyph glyph-name="cedilla" unicode="&#xb8;" horiz-adv-x="829" 
d="M600 -264q0 -86 -63 -138.5t-146 -52.5q-54 0 -99 16.5t-63 32.5l41 84q42 -28 107 -28q55 0 77.5 25t22.5 57q0 34 -24 54.5t-62 20.5q-50 0 -86 -24l-63 35l30 182h113l-14 -96q15 6 45 6q82 0 133 -48t51 -126z" />
    <glyph glyph-name="onesuperior" unicode="&#xb9;" 
d="M545 666h-146v528l-153 -98l-72 104l258 166h113v-700z" />
    <glyph glyph-name="ordmasculine" unicode="&#xba;" horiz-adv-x="903" 
d="M819 1008q0 -177 -103.5 -285.5t-271.5 -108.5q-160 0 -260 108.5t-100 281.5q0 175 104 284t271 109q160 0 260 -108t100 -281zM641 1004q0 111 -54 179t-138 68q-85 0 -136 -66.5t-51 -176.5q0 -111 54.5 -179.5t138.5 -68.5q87 0 136.5 65.5t49.5 178.5z" />
    <glyph glyph-name="guillemotright" unicode="&#xbb;" horiz-adv-x="1058" 
d="M932 502l-297 -398l-139 82l176 316l-176 303l139 94zM563 502l-297 -398l-139 82l176 316l-176 303l139 94z" />
    <glyph glyph-name="onequarter" unicode="&#xbc;" horiz-adv-x="1617" 
d="M545 666h-146v528l-153 -98l-72 104l258 166h113v-700zM1341 1356l-950 -1440l-125 84l951 1440zM1491 141h-90v-141h-141v141h-340v101l342 458h139v-440h90v-119zM1260 260v248l-177 -248h177z" />
    <glyph glyph-name="onehalf" unicode="&#xbd;" horiz-adv-x="1617" 
d="M1341 1356l-950 -1440l-125 84l951 1440zM545 666h-146v528l-153 -98l-72 104l258 166h113v-700zM1442 0h-469v106q53 45 89 77t82.5 78t75 82t48.5 76t20 73q0 45 -27 72.5t-75 27.5q-29 0 -61 -14.5t-47.5 -26.5t-43.5 -35l-71 86q38 48 101.5 80.5t135.5 32.5
q100 0 166 -61.5t66 -159.5q0 -42 -16 -84.5t-35.5 -74t-62 -76t-67.5 -67.5t-80 -71h271v-121z" />
    <glyph glyph-name="threequarters" unicode="&#xbe;" horiz-adv-x="1617" 
d="M1341 1356l-950 -1440l-125 84l951 1440zM1491 141h-90v-141h-141v141h-340v101l342 458h139v-440h90v-119zM1260 260v248l-177 -248h177zM653 872q0 -102 -71 -162.5t-189 -60.5q-152 0 -233 90l71 90l7 -5q7 -5 11 -8t14 -9t18 -10t20.5 -9.5t23.5 -8.5t25.5 -5
t28.5 -2q62 0 95.5 26.5t33.5 69.5q0 55 -43 76t-117 21h-37v114h31q23 0 38.5 1t39.5 6t39 14t26 27t11 44q0 35 -27.5 59.5t-75.5 24.5q-35 0 -69.5 -14t-49.5 -25t-26 -22l-74 86q36 42 99.5 70t136.5 28q100 0 164.5 -54.5t64.5 -143.5q0 -48 -28.5 -94.5t-78.5 -59.5
q57 -9 89 -54t32 -100z" />
    <glyph glyph-name="questiondown" unicode="&#xbf;" horiz-adv-x="1071" 
d="M756 885q0 -60 -42 -102t-102 -42t-101.5 42t-41.5 102t41.5 101.5t101.5 41.5t102 -41.5t42 -101.5zM969 -236q-9 -7 -26 -19t-61 -36t-91.5 -43t-115 -34t-132.5 -15q-189 0 -307.5 102.5t-118.5 272.5q0 154 108 262q42 42 139.5 106.5t110.5 77.5q22 22 29.5 56.5
t7.5 111.5v19h199q8 -80 8 -111q0 -68 -12.5 -108t-44.5 -72t-118 -90.5t-124 -96.5q-66 -66 -66 -151t60 -137t164 -52q50 0 103 14t95.5 36t62 33.5t33.5 21.5z" />
    <glyph glyph-name="Agrave" unicode="&#xc0;" horiz-adv-x="1296" 
d="M1268 0h-246l-109 319h-536l-109 -319h-239l497 1366h244zM850 506l-207 608l-205 -608h412zM909 1589l-69 -127l-461 185l88 180z" />
    <glyph glyph-name="Aacute" unicode="&#xc1;" horiz-adv-x="1296" 
d="M1268 0h-246l-109 319h-536l-109 -319h-239l497 1366h244zM850 506l-207 608l-205 -608h412zM879 1647l-461 -185l-70 127l443 238z" />
    <glyph glyph-name="Acircumflex" unicode="&#xc2;" horiz-adv-x="1296" 
d="M1268 0h-246l-109 319h-536l-109 -319h-239l497 1366h244zM850 506l-207 608l-205 -608h412zM981 1575l-80 -113l-256 146l-256 -144l-80 119l336 240z" />
    <glyph glyph-name="Atilde" unicode="&#xc3;" horiz-adv-x="1296" 
d="M1268 0h-246l-109 319h-536l-109 -319h-239l497 1366h244zM850 506l-207 608l-205 -608h412zM991 1612q-131 -139 -239 -139q-46 0 -117.5 29.5t-106.5 29.5q-18 0 -40 -9t-35.5 -17.5t-35 -24t-24.5 -17.5l-100 111l17 17q18 17 27 24.5t29.5 24.5t37 26.5t38 21
t44.5 16.5t46 5q46 0 116.5 -28.5t105.5 -28.5q64 0 139 69z" />
    <glyph glyph-name="Adieresis" unicode="&#xc4;" horiz-adv-x="1296" 
d="M1268 0h-246l-109 319h-536l-109 -319h-239l497 1366h244zM850 506l-207 608l-205 -608h412zM954 1595q0 -53 -36.5 -90t-88.5 -37q-53 0 -90 37t-37 90t37 90t90 37q52 0 88.5 -37t36.5 -90zM584 1595q0 -53 -36.5 -90t-88.5 -37q-53 0 -90 37t-37 90t37 90t90 37
q52 0 88.5 -37t36.5 -90z" />
    <glyph glyph-name="Aring" unicode="&#xc5;" horiz-adv-x="1296" 
d="M1268 0h-246l-109 319h-536l-109 -319h-239l497 1366h244zM850 506l-207 608l-205 -608h412zM860 1681q0 -89 -63 -153t-152 -64t-153 64t-64 153q0 90 63.5 153.5t153.5 63.5t152.5 -63.5t62.5 -153.5zM745 1681q0 43 -30.5 73t-71.5 30t-70.5 -30.5t-29.5 -72.5
q0 -41 29.5 -70.5t70.5 -29.5q43 0 72.5 29.5t29.5 70.5z" />
    <glyph glyph-name="AE" unicode="&#xc6;" horiz-adv-x="1830" 
d="M1731 0h-809v324h-471l-177 -324h-245l790 1366h895v-192h-559v-373h524v-189h-524v-415h576v-197zM922 520v662l-367 -662h367z" />
    <glyph glyph-name="Ccedilla" unicode="&#xc7;" horiz-adv-x="1302" 
d="M1253 123q-8 -8 -28 -22.5t-64 -38t-96.5 -43t-130 -34t-158.5 -14.5h-18l-13 -86q15 6 46 6q82 0 133 -48t51 -126q0 -86 -63 -138t-146 -52q-54 0 -99 16.5t-63 32.5l41 84q43 -29 107 -29q55 0 77.5 25t22.5 57q0 34 -24 55t-62 21q-48 0 -86 -25l-64 35l33 183
q-245 39 -397 222.5t-152 467.5q0 167 55 305t150 229.5t223 141t275 49.5q78 0 150.5 -14t120.5 -32.5t88.5 -41t58 -36.5t24.5 -22l-104 -159q-13 10 -33.5 22t-63.5 32.5t-104 34t-125 13.5q-203 0 -337 -136.5t-134 -367.5q0 -233 123.5 -372.5t333.5 -139.5
q34 0 69 4.5t63.5 11t57.5 16t50 18t42.5 19t33.5 17t24 14.5l12 7z" />
    <glyph glyph-name="Egrave" unicode="&#xc8;" horiz-adv-x="1064" 
d="M965 0h-809v1366h792v-192h-559v-373h524v-189h-524v-415h576v-197zM803 1589l-70 -127l-461 185l88 180z" />
    <glyph glyph-name="Eacute" unicode="&#xc9;" horiz-adv-x="1064" 
d="M965 0h-809v1366h792v-192h-559v-373h524v-189h-524v-415h576v-197zM831 1647l-460 -185l-70 127l442 238z" />
    <glyph glyph-name="Ecircumflex" unicode="&#xca;" horiz-adv-x="1064" 
d="M965 0h-809v1366h792v-192h-559v-373h524v-189h-524v-415h576v-197zM874 1575l-79 -113l-256 146l-256 -144l-80 119l336 240z" />
    <glyph glyph-name="Edieresis" unicode="&#xcb;" horiz-adv-x="1064" 
d="M858 1595q0 -53 -36.5 -90t-88.5 -37q-53 0 -90 37t-37 90t37 90t90 37q52 0 88.5 -37t36.5 -90zM487 1595q0 -53 -36.5 -90t-88.5 -37t-89 37t-37 90t37 90t89 37t88.5 -37t36.5 -90zM965 0h-809v1366h792v-192h-559v-373h524v-189h-524v-415h576v-197z" />
    <glyph glyph-name="Igrave" unicode="&#xcc;" horiz-adv-x="548" 
d="M393 0h-237v1366h237v-1366zM541 1589l-70 -127l-461 185l88 180z" />
    <glyph glyph-name="Iacute" unicode="&#xcd;" horiz-adv-x="548" 
d="M393 0h-237v1366h237v-1366zM539 1647l-461 -185l-70 127l443 238z" />
    <glyph glyph-name="Icircumflex" unicode="&#xce;" horiz-adv-x="548" 
d="M391 0h-237v1366h237v-1366zM612 1575l-80 -113l-256 146l-256 -144l-79 119l335 240z" />
    <glyph glyph-name="Idieresis" unicode="&#xcf;" horiz-adv-x="548" 
d="M393 0h-237v1366h237v-1366zM586 1595q0 -53 -36.5 -90t-88.5 -37q-53 0 -90 37t-37 90t37 90t90 37q52 0 88.5 -37t36.5 -90zM215 1595q0 -53 -36.5 -90t-88.5 -37t-89.5 37t-37.5 90t37.5 90t89.5 37t88.5 -37t36.5 -90z" />
    <glyph glyph-name="Eth" unicode="&#xd0;" horiz-adv-x="1478" 
d="M1378 694q0 -147 -49 -277t-141 -222q-54 -54 -118.5 -91.5t-123 -57.5t-139 -30.5t-139.5 -13t-152 -2.5h-301v610h-205v189h205v567h350q93 0 146 -1.5t129 -11t127.5 -27.5t110.5 -52.5t110 -85.5q90 -90 140 -219.5t50 -274.5zM1141 700q0 228 -131 359
q-34 34 -74 57.5t-76.5 36t-90.5 18.5t-95 7.5t-113 1.5h-108v-381h362v-189h-362v-420h161q136 0 234.5 31.5t169.5 106.5q123 129 123 372z" />
    <glyph glyph-name="Ntilde" unicode="&#xd1;" horiz-adv-x="1347" 
d="M1192 0h-215l-610 999l6 -999h-217v1366h223l602 -997l-6 997h217v-1366zM1010 1612q-131 -139 -240 -139q-46 0 -117 29.5t-106 29.5q-18 0 -40 -9t-35.5 -17.5t-35 -24t-24.5 -17.5l-101 111q2 2 15.5 15t21.5 20t25 21.5t30 23.5t32.5 20.5t36.5 18t38 11.5t41 5
q46 0 116 -28.5t105 -28.5q64 0 139 69z" />
    <glyph glyph-name="Ograve" unicode="&#xd2;" horiz-adv-x="1495" 
d="M1395 692q0 -324 -180 -522.5t-467 -198.5q-140 0 -260.5 52.5t-206 146t-133.5 227t-48 289.5t48 288t133.5 225t206.5 145.5t264 52.5q189 0 335.5 -90t227 -250.5t80.5 -364.5zM1151 696q0 222 -114 363t-298 141q-179 0 -287 -144t-108 -376q0 -228 115.5 -368
t292.5 -140q83 0 150.5 29t113 78t76.5 116.5t45 142.5t14 158zM1018 1589l-70 -127l-461 185l88 180z" />
    <glyph glyph-name="Oacute" unicode="&#xd3;" horiz-adv-x="1495" 
d="M1395 692q0 -324 -180 -522.5t-467 -198.5q-140 0 -260.5 52.5t-206 146t-133.5 227t-48 289.5t48 288t133.5 225t206.5 145.5t264 52.5q189 0 335.5 -90t227 -250.5t80.5 -364.5zM1151 696q0 222 -114 363t-298 141q-179 0 -287 -144t-108 -376q0 -228 115.5 -368
t292.5 -140q83 0 150.5 29t113 78t76.5 116.5t45 142.5t14 158zM991 1647l-461 -185l-69 127l442 238z" />
    <glyph glyph-name="Ocircumflex" unicode="&#xd4;" horiz-adv-x="1495" 
d="M1395 692q0 -324 -180 -522.5t-467 -198.5q-140 0 -260.5 52.5t-206 146t-133.5 227t-48 289.5t48 288t133.5 225t206.5 145.5t264 52.5q189 0 335.5 -90t227 -250.5t80.5 -364.5zM1151 696q0 222 -114 363t-298 141q-179 0 -287 -144t-108 -376q0 -228 115.5 -368
t292.5 -140q83 0 150.5 29t113 78t76.5 116.5t45 142.5t14 158zM1079 1575l-80 -113l-256 146l-256 -144l-79 119l335 240z" />
    <glyph glyph-name="Otilde" unicode="&#xd5;" horiz-adv-x="1495" 
d="M1395 692q0 -324 -180 -522.5t-467 -198.5q-140 0 -260.5 52.5t-206 146t-133.5 227t-48 289.5t48 288t133.5 225t206.5 145.5t264 52.5q189 0 335.5 -90t227 -250.5t80.5 -364.5zM1151 696q0 222 -114 363t-298 141q-179 0 -287 -144t-108 -376q0 -228 115.5 -368
t292.5 -140q83 0 150.5 29t113 78t76.5 116.5t45 142.5t14 158zM1090 1612q-131 -139 -240 -139q-46 0 -117 29.5t-106 29.5q-18 0 -40 -9t-35.5 -17.5t-35 -24t-24.5 -17.5l-101 111q2 2 15.5 15t21.5 20t25 21.5t30 23.5t32.5 20.5t36.5 18t38 11.5t41 5q46 0 116 -28.5
t105 -28.5q64 0 139 69z" />
    <glyph glyph-name="Odieresis" unicode="&#xd6;" horiz-adv-x="1495" 
d="M1395 692q0 -324 -180 -522.5t-467 -198.5q-140 0 -260.5 52.5t-206 146t-133.5 227t-48 289.5t48 288t133.5 225t206.5 145.5t264 52.5q189 0 335.5 -90t227 -250.5t80.5 -364.5zM1151 696q0 222 -114 363t-298 141q-179 0 -287 -144t-108 -376q0 -228 115.5 -368
t292.5 -140q83 0 150.5 29t113 78t76.5 116.5t45 142.5t14 158zM1061 1595q0 -53 -36.5 -90t-88.5 -37t-89.5 37t-37.5 90t37.5 90t89.5 37t88.5 -37t36.5 -90zM690 1595q0 -53 -36.5 -90t-88.5 -37q-53 0 -90 37t-37 90t37 90t90 37q52 0 88.5 -37t36.5 -90z" />
    <glyph glyph-name="multiply" unicode="&#xd7;" horiz-adv-x="1286" 
d="M1151 158l-135 -133l-375 374l-373 -374l-135 133l375 374l-375 373l135 135l373 -374l375 374l135 -135l-375 -373z" />
    <glyph glyph-name="Oslash" unicode="&#xd8;" horiz-adv-x="1495" 
d="M1395 692q0 -324 -180 -522.5t-467 -198.5q-132 0 -259 52l-100 -181l-166 90l111 189q-107 86 -170.5 236.5t-63.5 328.5q0 156 48 288t133.5 225t206.5 145.5t264 52.5q145 0 266 -54l100 177l166 -90l-106 -191q104 -95 160.5 -236t56.5 -311zM1151 696
q0 90 -21.5 171t-39.5 114.5t-31 48.5l-465 -823q14 -10 62 -22.5t96 -12.5q83 0 150.5 29t113 78t76.5 116.5t45 142.5t14 158zM920 1157q-84 43 -181 43q-179 0 -287 -144t-108 -376q0 -129 33.5 -222t68.5 -130z" />
    <glyph glyph-name="Ugrave" unicode="&#xd9;" horiz-adv-x="1316" 
d="M1176 635q0 -109 -3.5 -172.5t-15.5 -133.5t-38 -120t-70 -94q-144 -144 -392 -144q-247 0 -393 146q-36 36 -60 79.5t-36.5 80.5t-18.5 94.5t-7 92t-1 101.5v801h238v-854q0 -50 1 -72.5t7 -62t21 -68.5t41 -55q78 -78 217 -78q124 0 200 76q53 53 64.5 120t11.5 223
v13.5v12.5v14v731h234v-731zM909 1589l-69 -127l-461 185l88 180z" />
    <glyph glyph-name="Uacute" unicode="&#xda;" horiz-adv-x="1316" 
d="M1176 635q0 -109 -3.5 -172.5t-15.5 -133.5t-38 -120t-70 -94q-144 -144 -392 -144q-247 0 -393 146q-36 36 -60 79.5t-36.5 80.5t-18.5 94.5t-7 92t-1 101.5v801h238v-854q0 -50 1 -72.5t7 -62t21 -68.5t41 -55q78 -78 217 -78q124 0 200 76q53 53 64.5 120t11.5 223
v13.5v12.5v14v731h234v-731zM924 1647l-461 -185l-70 127l443 238z" />
    <glyph glyph-name="Ucircumflex" unicode="&#xdb;" horiz-adv-x="1316" 
d="M1176 635q0 -109 -3.5 -172.5t-15.5 -133.5t-38 -120t-70 -94q-144 -144 -392 -144q-247 0 -393 146q-36 36 -60 79.5t-36.5 80.5t-18.5 94.5t-7 92t-1 101.5v801h238v-854q0 -50 1 -72.5t7 -62t21 -68.5t41 -55q78 -78 217 -78q124 0 200 76q53 53 64.5 120t11.5 223
v13.5v12.5v14v731h234v-731zM991 1575l-80 -113l-256 146l-256 -144l-80 119l336 240z" />
    <glyph glyph-name="Udieresis" unicode="&#xdc;" horiz-adv-x="1316" 
d="M1176 635q0 -109 -3.5 -172.5t-15.5 -133.5t-38 -120t-70 -94q-144 -144 -392 -144q-247 0 -393 146q-36 36 -60 79.5t-36.5 80.5t-18.5 94.5t-7 92t-1 101.5v801h238v-854q0 -50 1 -72.5t7 -62t21 -68.5t41 -55q78 -78 217 -78q124 0 200 76q53 53 64.5 120t11.5 223
v13.5v12.5v14v731h234v-731zM969 1595q0 -53 -36.5 -90t-88.5 -37t-89.5 37t-37.5 90t37.5 90t89.5 37t88.5 -37t36.5 -90zM598 1595q0 -53 -36.5 -90t-88.5 -37q-53 0 -90 37t-37 90t37 90t90 37q52 0 88.5 -37t36.5 -90z" />
    <glyph glyph-name="Yacute" unicode="&#xdd;" horiz-adv-x="1202" 
d="M1147 1366l-430 -823v-543h-232v543l-430 823h244l315 -629l312 629h221zM850 1647l-461 -185l-70 127l443 238z" />
    <glyph glyph-name="Thorn" unicode="&#xde;" horiz-adv-x="1181" 
d="M1073 707q0 -97 -33 -176t-84 -130q-38 -38 -82 -63t-81 -38t-95.5 -19.5t-95 -7.5t-110.5 -1h-103v-272h-233v1366h233v-250h131q166 0 266.5 -21.5t174.5 -95.5q112 -112 112 -292zM834 702q0 108 -64 172q-36 36 -93.5 46t-158.5 10h-129v-467h96q123 0 184.5 11
t98.5 48q66 66 66 180z" />
    <glyph glyph-name="germandbls" unicode="&#xdf;" horiz-adv-x="1150" 
d="M1067 334q0 -164 -108 -260.5t-277 -96.5q-149 0 -242 56l68 172q2 -1 19.5 -8t33 -12t43 -10t55.5 -5q88 0 136.5 43t48.5 113q0 49 -39 98q-30 38 -116 97.5t-118 92.5q-53 53 -53 127q0 44 23 84.5t55 73.5t64.5 67t55.5 79t23 96q0 76 -47 125t-131 49
q-85 0 -137 -55q-45 -46 -58.5 -121.5t-13.5 -190.5v-948h-221v985q0 139 25.5 237t89.5 162q121 121 311 121q182 0 295 -100.5t113 -263.5q0 -58 -15.5 -109t-39 -83.5t-51 -62t-51 -48.5t-39 -38t-15.5 -34q0 -17 18 -35q15 -16 56 -43t78.5 -56t75.5 -69.5t61.5 -99.5
t23.5 -129z" />
    <glyph glyph-name="agrave" unicode="&#xe0;" horiz-adv-x="1011" 
d="M895 0h-197v74q-14 -10 -31.5 -20t-57.5 -29.5t-94.5 -32t-111.5 -12.5q-146 0 -233.5 87t-87.5 228q0 55 15 102t39.5 80.5t61 60.5t73 44t83 29.5t83 19t81.5 10t70.5 4t56.5 0.5h37v39q0 50 -7 78t-26 47q-45 45 -162 45q-133 0 -270 -78l-78 146q11 9 35 23.5
t70 35.5t115.5 35t146.5 14q110 0 183 -25.5t128 -80.5q37 -37 55 -89.5t20.5 -94t2.5 -126.5v-614zM682 221v264h-47q-234 0 -311 -77q-39 -39 -39 -103q0 -73 50 -112t126 -39q28 0 56 4.5t49.5 11t43 15.5t34 15t25 13.5t13.5 7.5zM778 1243l-69 -127l-461 184l88 181z
" />
    <glyph glyph-name="aacute" unicode="&#xe1;" horiz-adv-x="1011" 
d="M895 0h-197v74q-14 -10 -31.5 -20t-57.5 -29.5t-94.5 -32t-111.5 -12.5q-146 0 -233.5 87t-87.5 228q0 55 15 102t39.5 80.5t61 60.5t73 44t83 29.5t83 19t81.5 10t70.5 4t56.5 0.5h37v39q0 50 -7 78t-26 47q-45 45 -162 45q-133 0 -270 -78l-78 146q11 9 35 23.5
t70 35.5t115.5 35t146.5 14q110 0 183 -25.5t128 -80.5q37 -37 55 -89.5t20.5 -94t2.5 -126.5v-614zM682 221v264h-47q-234 0 -311 -77q-39 -39 -39 -103q0 -73 50 -112t126 -39q28 0 56 4.5t49.5 11t43 15.5t34 15t25 13.5t13.5 7.5zM778 1300l-461 -184l-69 127l442 238z
" />
    <glyph glyph-name="acircumflex" unicode="&#xe2;" horiz-adv-x="1011" 
d="M895 0h-197v74q-14 -10 -31.5 -20t-57.5 -29.5t-94.5 -32t-111.5 -12.5q-146 0 -233.5 87t-87.5 228q0 55 15 102t39.5 80.5t61 60.5t73 44t83 29.5t83 19t81.5 10t70.5 4t56.5 0.5h37v39q0 50 -7 78t-26 47q-45 45 -162 45q-133 0 -270 -78l-78 146q11 9 35 23.5
t70 35.5t115.5 35t146.5 14q110 0 183 -25.5t128 -80.5q37 -37 55 -89.5t20.5 -94t2.5 -126.5v-614zM682 221v264h-47q-234 0 -311 -77q-39 -39 -39 -103q0 -73 50 -112t126 -39q28 0 56 4.5t49.5 11t43 15.5t34 15t25 13.5t13.5 7.5zM840 1233l-80 -113l-256 146l-256 -144
l-80 119l336 240z" />
    <glyph glyph-name="atilde" unicode="&#xe3;" horiz-adv-x="1011" 
d="M895 0h-197v74q-14 -10 -31.5 -20t-57.5 -29.5t-94.5 -32t-111.5 -12.5q-146 0 -233.5 87t-87.5 228q0 55 15 102t39.5 80.5t61 60.5t73 44t83 29.5t83 19t81.5 10t70.5 4t56.5 0.5h37v39q0 50 -7 78t-26 47q-45 45 -162 45q-133 0 -270 -78l-78 146q11 9 35 23.5
t70 35.5t115.5 35t146.5 14q110 0 183 -25.5t128 -80.5q37 -37 55 -89.5t20.5 -94t2.5 -126.5v-614zM682 221v264h-47q-234 0 -311 -77q-39 -39 -39 -103q0 -73 50 -112t126 -39q28 0 56 4.5t49.5 11t43 15.5t34 15t25 13.5t13.5 7.5zM864 1313q-131 -139 -239 -139
q-46 0 -117.5 29.5t-106.5 29.5q-18 0 -40 -9t-35.5 -17.5t-35 -24t-24.5 -17.5l-100 111q2 2 15.5 15t21.5 20t25 21.5t30 23.5t32.5 20.5t36.5 18t38 11.5t41 5q46 0 116 -28.5t105 -28.5q64 0 139 69z" />
    <glyph glyph-name="adieresis" unicode="&#xe4;" horiz-adv-x="1011" 
d="M895 0h-197v74q-14 -10 -31.5 -20t-57.5 -29.5t-94.5 -32t-111.5 -12.5q-146 0 -233.5 87t-87.5 228q0 55 15 102t39.5 80.5t61 60.5t73 44t83 29.5t83 19t81.5 10t70.5 4t56.5 0.5h37v39q0 50 -7 78t-26 47q-45 45 -162 45q-133 0 -270 -78l-78 146q11 9 35 23.5
t70 35.5t115.5 35t146.5 14q110 0 183 -25.5t128 -80.5q37 -37 55 -89.5t20.5 -94t2.5 -126.5v-614zM682 221v264h-47q-234 0 -311 -77q-39 -39 -39 -103q0 -73 50 -112t126 -39q28 0 56 4.5t49.5 11t43 15.5t34 15t25 13.5t13.5 7.5zM817 1292q0 -53 -36.5 -90t-88.5 -37
t-89.5 37.5t-37.5 89.5t37.5 89.5t89.5 37.5t88.5 -37t36.5 -90zM446 1292q0 -53 -36 -90t-88 -37t-89.5 37.5t-37.5 89.5t37.5 89.5t89.5 37.5t88 -37t36 -90z" />
    <glyph glyph-name="aring" unicode="&#xe5;" horiz-adv-x="1011" 
d="M895 0h-197v74q-14 -10 -31.5 -20t-57.5 -29.5t-94.5 -32t-111.5 -12.5q-146 0 -233.5 87t-87.5 228q0 55 15 102t39.5 80.5t61 60.5t73 44t83 29.5t83 19t81.5 10t70.5 4t56.5 0.5h37v39q0 50 -7 78t-26 47q-45 45 -162 45q-133 0 -270 -78l-78 146q11 9 35 23.5
t70 35.5t115.5 35t146.5 14q110 0 183 -25.5t128 -80.5q37 -37 55 -89.5t20.5 -94t2.5 -126.5v-614zM682 221v264h-47q-234 0 -311 -77q-39 -39 -39 -103q0 -73 50 -112t126 -39q28 0 56 4.5t49.5 11t43 15.5t34 15t25 13.5t13.5 7.5zM721 1323q0 -89 -63 -153t-152 -64
t-153 64t-64 153q0 90 63.5 153.5t153.5 63.5t152.5 -63.5t62.5 -153.5zM606 1323q0 42 -30 72t-72 30q-41 0 -71 -30.5t-30 -71.5t30 -70.5t71 -29.5q43 0 72.5 29.5t29.5 70.5z" />
    <glyph glyph-name="ae" unicode="&#xe6;" horiz-adv-x="1673" 
d="M1589 512q0 -19 -2 -46.5t-2 -33.5h-678q0 -38 9.5 -75.5t31 -74t53.5 -64.5t81.5 -45t109.5 -17q29 0 57 3t53.5 9.5t46 12.5t42 15t32 13.5t27.5 12.5l16 9l78 -147q-57 -34 -84 -46q-136 -63 -286 -63q-76 0 -140.5 16t-107 42.5t-63 43.5t-36.5 36
q-68 -59 -168.5 -98.5t-228.5 -39.5q-152 0 -249 81.5t-97 236.5q0 67 21.5 119.5t57.5 85t82.5 56.5t97 33.5t101.5 17t95 5.5t77 0h27h41q0 152 -41 193q-26 26 -58.5 38.5t-95.5 12.5q-133 0 -270 -78l-78 146q11 9 35 23.5t70 35.5t115.5 35t146.5 14q96 0 183.5 -31.5
t139.5 -103.5q133 133 328 133q203 0 316.5 -137.5t113.5 -378.5zM1376 600q0 29 -5 60t-19 67t-36.5 64t-62 46.5t-90.5 18.5q-103 0 -172.5 -70.5t-83.5 -185.5h469zM739 240q-51 95 -49 211h-57q-52 0 -88.5 -1.5t-80 -6.5t-72 -15.5t-54.5 -27t-38.5 -42.5t-12.5 -61
q0 -73 53 -109t127 -36q88 0 162 30t110 58z" />
    <glyph glyph-name="ccedilla" unicode="&#xe7;" horiz-adv-x="997" 
d="M950 92q-4 -4 -19 -14.5t-49 -29t-75 -34t-101 -27.5t-122 -12h-13l-10 -71q15 6 45 6q82 0 133.5 -48t51.5 -126q0 -86 -63 -138.5t-146 -52.5q-54 0 -99 16.5t-63 32.5l41 84q42 -28 106 -28q55 0 78 25t23 57q0 34 -24 54.5t-62 20.5q-50 0 -86 -24l-64 35l29 170
q-173 37 -275 171.5t-102 327.5q0 236 147.5 388.5t372.5 152.5q69 0 133 -15.5t104.5 -36.5t64 -37.5t30.5 -25.5l-92 -141q-112 70 -226 70q-94 0 -165.5 -49t-106.5 -125t-35 -164q0 -152 79.5 -246t217.5 -94q28 0 57 4t53 10.5t45.5 14t39 16t29.5 14.5t21 11l9 6z" />
    <glyph glyph-name="egrave" unicode="&#xe8;" horiz-adv-x="1071" 
d="M987 512q0 -19 -2 -46.5t-2 -33.5h-678q0 -38 9.5 -75.5t31 -74t53.5 -64.5t81.5 -45t109.5 -17q29 0 57 3t53.5 9.5t46 12.5t42 15t32 13.5t27.5 12.5l16 9l78 -147q-60 -36 -93 -51q-133 -58 -278 -58q-228 0 -357.5 145.5t-129.5 373.5q0 236 131 385t342 149
q203 0 316.5 -137.5t113.5 -378.5zM774 600q0 29 -5 60t-19 67t-36.5 64t-62 46.5t-90.5 18.5q-103 0 -172.5 -70.5t-83.5 -185.5h469zM813 1243l-70 -127l-460 184l88 181z" />
    <glyph glyph-name="eacute" unicode="&#xe9;" horiz-adv-x="1071" 
d="M987 512q0 -19 -2 -46.5t-2 -33.5h-678q0 -38 9.5 -75.5t31 -74t53.5 -64.5t81.5 -45t109.5 -17q29 0 57 3t53.5 9.5t46 12.5t42 15t32 13.5t27.5 12.5l16 9l78 -147q-60 -36 -93 -51q-133 -58 -278 -58q-228 0 -357.5 145.5t-129.5 373.5q0 236 131 385t342 149
q203 0 316.5 -137.5t113.5 -378.5zM774 600q0 29 -5 60t-19 67t-36.5 64t-62 46.5t-90.5 18.5q-103 0 -172.5 -70.5t-83.5 -185.5h469zM801 1300l-461 -184l-70 127l443 238z" />
    <glyph glyph-name="ecircumflex" unicode="&#xea;" horiz-adv-x="1071" 
d="M987 512q0 -19 -2 -46.5t-2 -33.5h-678q0 -38 9.5 -75.5t31 -74t53.5 -64.5t81.5 -45t109.5 -17q29 0 57 3t53.5 9.5t46 12.5t42 15t32 13.5t27.5 12.5l16 9l78 -147q-60 -36 -93 -51q-133 -58 -278 -58q-228 0 -357.5 145.5t-129.5 373.5q0 236 131 385t342 149
q203 0 316.5 -137.5t113.5 -378.5zM774 600q0 29 -5 60t-19 67t-36.5 64t-62 46.5t-90.5 18.5q-103 0 -172.5 -70.5t-83.5 -185.5h469zM891 1233l-80 -113l-256 146l-256 -144l-80 119l336 240z" />
    <glyph glyph-name="edieresis" unicode="&#xeb;" horiz-adv-x="1071" 
d="M987 512q0 -19 -2 -46.5t-2 -33.5h-678q0 -38 9.5 -75.5t31 -74t53.5 -64.5t81.5 -45t109.5 -17q29 0 57 3t53.5 9.5t46 12.5t42 15t32 13.5t27.5 12.5l16 9l78 -147q-60 -36 -93 -51q-133 -58 -278 -58q-228 0 -357.5 145.5t-129.5 373.5q0 236 131 385t342 149
q203 0 316.5 -137.5t113.5 -378.5zM774 600q0 29 -5 60t-19 67t-36.5 64t-62 46.5t-90.5 18.5q-103 0 -172.5 -70.5t-83.5 -185.5h469zM864 1292q0 -53 -36.5 -90t-88.5 -37q-53 0 -90 37.5t-37 89.5t37 89.5t90 37.5q52 0 88.5 -37t36.5 -90zM494 1292q0 -53 -36.5 -90
t-88.5 -37q-53 0 -90 37.5t-37 89.5t37 89.5t90 37.5q52 0 88.5 -37t36.5 -90z" />
    <glyph glyph-name="igrave" unicode="&#xec;" horiz-adv-x="485" 
d="M508 1243l-70 -127l-461 184l89 181zM354 0h-225v999h225v-999z" />
    <glyph glyph-name="iacute" unicode="&#xed;" horiz-adv-x="485" 
d="M508 1300l-461 -184l-70 127l443 238zM356 0h-225v999h225v-999z" />
    <glyph glyph-name="icircumflex" unicode="&#xee;" horiz-adv-x="485" 
d="M356 0h-225v999h225v-999zM580 1233l-80 -113l-256 146l-256 -144l-80 119l336 240z" />
    <glyph glyph-name="idieresis" unicode="&#xef;" horiz-adv-x="485" 
d="M555 1292q0 -53 -36.5 -90t-88.5 -37t-89.5 37.5t-37.5 89.5t37.5 89.5t89.5 37.5t88.5 -37t36.5 -90zM184 1292q0 -53 -36.5 -90t-88.5 -37q-53 0 -90 37.5t-37 89.5t37 89.5t90 37.5q52 0 88.5 -37t36.5 -90zM356 0h-225v999h225v-999z" />
    <glyph glyph-name="eth" unicode="&#xf0;" horiz-adv-x="1095" 
d="M1012 629q0 -303 -124.5 -479.5t-344.5 -176.5q-203 0 -331 147.5t-128 381.5q0 232 123.5 372t331.5 140q87 0 202 -51q-15 73 -56 134t-79 91l-260 -111l-61 137l178 76q-36 22 -114.5 42.5t-164.5 29.5l17 162q287 -24 465 -146l215 90l61 -133l-141 -61
q109 -104 160 -274.5t51 -370.5zM780 618q0 44 -8 130q-95 75 -209 75q-118 0 -185 -88.5t-67 -242.5q0 -148 66 -236t168 -88q69 0 117.5 39.5t73 108.5t34.5 142t10 160z" />
    <glyph glyph-name="ntilde" unicode="&#xf1;" horiz-adv-x="1093" 
d="M977 0h-225v547q0 112 -8 163.5t-39 82.5q-43 43 -125 43q-51 0 -105.5 -18t-79 -31.5t-39.5 -24.5v-762h-225v999h197v-73q13 10 33 22t61 32.5t95 34t108 13.5q157 0 249 -92q37 -37 59.5 -79t31 -97.5t10.5 -91.5t2 -109v-559zM911 1313q-131 -139 -239 -139
q-46 0 -117 29.5t-106 29.5q-18 0 -40 -9t-35.5 -17.5t-36 -24.5t-24.5 -17l-100 111q2 2 15.5 15t21.5 20t25 21.5t30 23.5t32.5 20.5t36.5 18t38 11.5t41 5q46 0 116 -28.5t105 -28.5q64 0 139 69z" />
    <glyph glyph-name="ograve" unicode="&#xf2;" horiz-adv-x="1153" 
d="M1069 506q0 -236 -139 -383.5t-363 -147.5q-215 0 -349 145t-134 378q0 235 139 382.5t363 147.5q215 0 349 -144.5t134 -377.5zM842 498q0 154 -75.5 249t-193.5 95q-120 0 -191 -91.5t-71 -244.5q0 -154 76.5 -249t194.5 -95q122 0 191 90.5t69 245.5zM840 1243
l-70 -127l-461 184l88 181z" />
    <glyph glyph-name="oacute" unicode="&#xf3;" horiz-adv-x="1153" 
d="M1069 506q0 -236 -139 -383.5t-363 -147.5q-215 0 -349 145t-134 378q0 235 139 382.5t363 147.5q215 0 349 -144.5t134 -377.5zM842 498q0 154 -75.5 249t-193.5 95q-120 0 -191 -91.5t-71 -244.5q0 -154 76.5 -249t194.5 -95q122 0 191 90.5t69 245.5zM844 1300
l-461 -184l-70 127l443 238z" />
    <glyph glyph-name="ocircumflex" unicode="&#xf4;" horiz-adv-x="1153" 
d="M1069 506q0 -236 -139 -383.5t-363 -147.5q-215 0 -349 145t-134 378q0 235 139 382.5t363 147.5q215 0 349 -144.5t134 -377.5zM842 498q0 154 -75.5 249t-193.5 95q-120 0 -191 -91.5t-71 -244.5q0 -154 76.5 -249t194.5 -95q122 0 191 90.5t69 245.5zM922 1233
l-80 -113l-256 146l-256 -144l-80 119l336 240z" />
    <glyph glyph-name="otilde" unicode="&#xf5;" horiz-adv-x="1153" 
d="M1069 506q0 -236 -139 -383.5t-363 -147.5q-215 0 -349 145t-134 378q0 235 139 382.5t363 147.5q215 0 349 -144.5t134 -377.5zM842 498q0 154 -75.5 249t-193.5 95q-120 0 -191 -91.5t-71 -244.5q0 -154 76.5 -249t194.5 -95q122 0 191 90.5t69 245.5zM915 1313
q-131 -139 -239 -139q-46 0 -117 29.5t-106 29.5q-18 0 -40 -9t-35.5 -17.5t-36 -24.5t-24.5 -17l-100 111q2 2 15.5 15t21.5 20t25 21.5t30 23.5t32.5 20.5t36.5 18t38 11.5t41 5q46 0 116 -28.5t105 -28.5q64 0 139 69z" />
    <glyph glyph-name="odieresis" unicode="&#xf6;" horiz-adv-x="1153" 
d="M1069 506q0 -236 -139 -383.5t-363 -147.5q-215 0 -349 145t-134 378q0 235 139 382.5t363 147.5q215 0 349 -144.5t134 -377.5zM842 498q0 154 -75.5 249t-193.5 95q-120 0 -191 -91.5t-71 -244.5q0 -154 76.5 -249t194.5 -95q122 0 191 90.5t69 245.5zM891 1292
q0 -53 -36.5 -90t-88.5 -37t-89.5 37.5t-37.5 89.5t37.5 89.5t89.5 37.5t88.5 -37t36.5 -90zM520 1292q0 -53 -36.5 -90t-88.5 -37q-53 0 -90 37.5t-37 89.5t37 89.5t90 37.5q52 0 88.5 -37t36.5 -90z" />
    <glyph glyph-name="divide" unicode="&#xf7;" horiz-adv-x="1286" 
d="M786 930q0 -60 -41.5 -102t-101.5 -42t-101.5 42t-41.5 102t41.5 101.5t101.5 41.5t101.5 -41.5t41.5 -101.5zM1180 438h-1074v189h1074v-189zM786 129q0 -60 -41.5 -101.5t-101.5 -41.5t-101.5 41.5t-41.5 101.5t41.5 101.5t101.5 41.5t101.5 -41.5t41.5 -101.5z" />
    <glyph glyph-name="oslash" unicode="&#xf8;" horiz-adv-x="1153" 
d="M1069 506q0 -236 -139 -383.5t-363 -147.5q-114 0 -176 31l-82 -141l-143 80l84 143q-76 68 -121 171.5t-45 238.5q0 235 139 382.5t363 147.5q100 0 192 -37l80 137l141 -81l-84 -144q154 -145 154 -397zM852 498q0 75 -14 133t-33 82l-320 -547q47 -19 97 -19
q126 0 198 95t72 256zM684 831q-48 25 -111 25q-124 0 -198 -95.5t-74 -254.5q0 -138 59 -232z" />
    <glyph glyph-name="ugrave" unicode="&#xf9;" horiz-adv-x="1093" 
d="M793 1243l-70 -127l-461 184l88 181zM963 0h-197v76q-21 -16 -50.5 -34t-103 -43.5t-143.5 -25.5q-157 0 -250 93q-30 30 -50.5 67t-30.5 66.5t-15 79.5t-5.5 76.5t-0.5 86.5v557h225v-544q0 -112 8 -163.5t39 -82.5q43 -43 129 -43q21 0 42.5 3t39.5 7.5t36 11t31.5 13
t26.5 13.5t20.5 12t15.5 10l7 4v759h226v-999z" />
    <glyph glyph-name="uacute" unicode="&#xfa;" horiz-adv-x="1093" 
d="M963 0h-197v76q-21 -16 -50.5 -34t-103 -43.5t-143.5 -25.5q-157 0 -250 93q-30 30 -50.5 67t-30.5 66.5t-15 79.5t-5.5 76.5t-0.5 86.5v557h225v-544q0 -112 8 -163.5t39 -82.5q43 -43 129 -43q21 0 42.5 3t39.5 7.5t36 11t31.5 13t26.5 13.5t20.5 12t15.5 10l7 4v759
h226v-999zM817 1300l-461 -184l-69 127l442 238z" />
    <glyph glyph-name="ucircumflex" unicode="&#xfb;" horiz-adv-x="1093" 
d="M963 0h-197v76q-21 -16 -50.5 -34t-103 -43.5t-143.5 -25.5q-157 0 -250 93q-30 30 -50.5 67t-30.5 66.5t-15 79.5t-5.5 76.5t-0.5 86.5v557h225v-544q0 -112 8 -163.5t39 -82.5q43 -43 129 -43q21 0 42.5 3t39.5 7.5t36 11t31.5 13t26.5 13.5t20.5 12t15.5 10l7 4v759
h226v-999zM866 1233l-80 -113l-256 146l-256 -144l-79 119l335 240z" />
    <glyph glyph-name="udieresis" unicode="&#xfc;" horiz-adv-x="1093" 
d="M963 0h-197v76q-21 -16 -50.5 -34t-103 -43.5t-143.5 -25.5q-157 0 -250 93q-30 30 -50.5 67t-30.5 66.5t-15 79.5t-5.5 76.5t-0.5 86.5v557h225v-544q0 -112 8 -163.5t39 -82.5q43 -43 129 -43q21 0 42.5 3t39.5 7.5t36 11t31.5 13t26.5 13.5t20.5 12t15.5 10l7 4v759
h226v-999zM840 1292q0 -53 -36.5 -90t-88.5 -37q-54 0 -90.5 37t-36.5 90t36.5 90t90.5 37q52 0 88.5 -37t36.5 -90zM469 1292q0 -53 -36.5 -90t-88.5 -37q-54 0 -90.5 37t-36.5 90t36.5 90t90.5 37q52 0 88.5 -37t36.5 -90z" />
    <glyph glyph-name="yacute" unicode="&#xfd;" horiz-adv-x="1118" 
d="M1061 999l-395 -1028q-54 -141 -95.5 -216.5t-93.5 -127.5q-100 -100 -276 -100q-102 0 -226 55l66 164q77 -33 149 -33q90 0 146 56q8 8 15.5 17.5t14 18t13.5 22t12 21.5t12 24t10 23.5t10.5 25.5t9.5 23.5t9.5 25t8.5 22.5l-416 1007h239l293 -753l271 753h223z
M809 1300l-461 -184l-69 127l442 238z" />
    <glyph glyph-name="thorn" unicode="&#xfe;" horiz-adv-x="1136" 
d="M1051 516q0 -119 -38.5 -221t-104.5 -171.5t-155 -109t-188 -39.5q-126 0 -209 50v-465h-225v1921h217v-535q9 8 25 18t49 26.5t81 27t101 10.5q200 0 323.5 -142.5t123.5 -369.5zM823 512q0 150 -76 239t-190 89q-51 0 -100.5 -17.5t-71.5 -31.5t-29 -21v-555
q80 -53 176 -53q129 0 210 93t81 257z" />
    <glyph glyph-name="ydieresis" unicode="&#xff;" horiz-adv-x="1118" 
d="M1063 999l-395 -1028q-54 -141 -95.5 -216.5t-93.5 -127.5q-100 -100 -276 -100q-102 0 -226 55l66 164q77 -33 150 -33q89 0 145 56q8 8 15.5 17.5t14 18t13.5 22t12 21.5t12 24t10 23.5t10.5 25.5t9.5 23.5t9.5 25t8.5 22.5l-416 1007h239l293 -753l271 753h223z
M881 1292q0 -53 -36.5 -90t-88.5 -37t-89.5 37.5t-37.5 89.5t37.5 89.5t89.5 37.5t88.5 -37t36.5 -90zM510 1292q0 -53 -36.5 -90t-88.5 -37q-53 0 -90 37.5t-37 89.5t37 89.5t90 37.5q52 0 88.5 -37t36.5 -90z" />
    <glyph glyph-name="Idotaccent" unicode="&#x130;" horiz-adv-x="548" 
d="M393 0h-237v1366h237v-1366zM399 1595q0 -53 -36.5 -90t-88.5 -37t-89.5 37t-37.5 90t37.5 90t89.5 37t88.5 -37t36.5 -90z" />
    <glyph glyph-name="dotlessi" unicode="&#x131;" horiz-adv-x="485" 
d="M356 0h-225v999h225v-999z" />
    <glyph glyph-name="Lslash" unicode="&#x141;" horiz-adv-x="1148" 
d="M1061 0h-787v506l-135 -103l-127 162l262 195v606h238v-448l209 157l125 -160l-334 -249v-469h549v-197z" />
    <glyph glyph-name="lslash" unicode="&#x142;" horiz-adv-x="772" 
d="M760 924l-262 -197v-727h-226v573l-133 -102l-127 156l260 198v656h226v-504l137 106z" />
    <glyph glyph-name="OE" unicode="&#x152;" horiz-adv-x="1845" 
d="M1745 0h-832q-93 0 -146 1.5t-129 11t-127 27.5t-110 52.5t-110 85.5q-90 90 -140.5 219.5t-50.5 274.5q0 147 49.5 277t141.5 222q54 54 118.5 91.5t123 57.5t139 30.5t139.5 13t152 2.5h766v-192h-560v-373h525v-189h-525v-415h576v-197zM936 186v990h-72
q-136 0 -234 -31.5t-169 -106.5q-123 -129 -123 -372q0 -228 131 -359q34 -34 74 -57.5t76.5 -36t90.5 -18.5t95 -7.5t113 -1.5h18z" />
    <glyph glyph-name="oe" unicode="&#x153;" horiz-adv-x="1841" 
d="M1757 512q0 -19 -2 -46.5t-2 -33.5h-678q0 -38 9.5 -75.5t31 -74t53.5 -64.5t81.5 -45t109.5 -17q29 0 57 3t53.5 9.5t46 12.5t42 15t32 13.5t27.5 12.5l16 9l78 -147q-60 -36 -93 -51q-133 -58 -278 -58q-253 0 -385 177q-147 -177 -389 -177q-215 0 -349 145t-134 378
q0 235 139 382.5t363 147.5q69 0 131 -16.5t100.5 -36.5t73.5 -49.5t47.5 -44t24.5 -31.5q2 2 6 7q143 171 358 171q203 0 316.5 -137.5t113.5 -378.5zM1544 600q0 29 -5 60t-19 67t-36.5 64t-62 46.5t-90.5 18.5q-103 0 -172.5 -70.5t-83.5 -185.5h469zM842 498
q0 154 -75.5 249t-193.5 95q-120 0 -191 -91.5t-71 -244.5q0 -154 76.5 -249t194.5 -95q122 0 191 90.5t69 245.5z" />
    <glyph glyph-name="Scaron" unicode="&#x160;" horiz-adv-x="1095" 
d="M985 391q0 -189 -125.5 -305.5t-343.5 -116.5q-73 0 -143.5 15t-119 35t-90 43.5t-60.5 38.5t-25 22l106 164q1 -1 21 -14t37.5 -23.5t49.5 -26t62.5 -26t70.5 -18t79 -7.5q115 0 178 54.5t63 146.5q0 25 -7.5 48t-17.5 40t-30.5 34.5t-36 28.5t-44.5 25.5t-46 22t-51 22
t-49 20.5q-110 49 -153 75q-191 119 -191 321q0 173 124.5 280t323.5 107q71 0 139 -15t111.5 -33.5t82.5 -43t52.5 -36t20.5 -18.5l-111 -151q-128 102 -278 102q-103 0 -168.5 -49t-65.5 -125q0 -26 5.5 -46t22 -39t31 -31.5t51 -31t61.5 -30t81 -35.5q50 -22 83 -37.5
t77.5 -40t73 -47t59.5 -55t49 -67t29.5 -80t11.5 -97.5zM913 1702l-335 -240l-336 248l80 113l256 -146l256 144z" />
    <glyph glyph-name="scaron" unicode="&#x161;" horiz-adv-x="907" 
d="M805 287q0 -145 -106 -229.5t-275 -84.5q-60 0 -118.5 10.5t-99 24t-75 30.5t-50.5 27t-22 15l80 147q1 -1 13 -7.5t24 -12.5t31.5 -14.5t40.5 -15.5t45 -13.5t52 -10t56 -3.5q84 0 129 34t45 88q0 26 -9 45t-43 40t-51.5 29t-81.5 35q-6 3 -10 4.5t-9.5 4t-10.5 4.5
q-45 19 -71.5 31.5t-68 40t-65 55t-41.5 72t-18 96.5q0 134 103 216.5t268 82.5q189 0 324 -90l-78 -143q-14 9 -39.5 21t-83.5 29t-109 17q-79 0 -119 -32.5t-40 -79.5q0 -21 10 -39t22 -30.5t40.5 -28t46.5 -23.5t59 -25q130 -53 181 -88q124 -86 124 -229zM799 1360
l-336 -240l-336 248l80 113l256 -146l256 144z" />
    <glyph glyph-name="Ydieresis" unicode="&#x178;" horiz-adv-x="1202" 
d="M1147 1366l-430 -823v-543h-232v543l-430 823h244l315 -629l312 629h221zM926 1595q0 -53 -36.5 -90t-88.5 -37q-53 0 -90 37t-37 90t37 90t90 37q52 0 88.5 -37t36.5 -90zM555 1595q0 -53 -36.5 -90t-88.5 -37t-89.5 37t-37.5 90t37.5 90t89.5 37t88.5 -37t36.5 -90z
" />
    <glyph glyph-name="Zcaron" unicode="&#x17d;" horiz-adv-x="1150" 
d="M1059 0h-967v168l664 1006h-633v192h917v-174l-651 -995h670v-197zM887 1704l-336 -240l-336 248l80 113l256 -146l256 144z" />
    <glyph glyph-name="zcaron" unicode="&#x17e;" horiz-adv-x="1040" 
d="M924 0h-828v158l531 657h-514v184h792v-163l-522 -648h541v-188zM844 1360l-336 -240l-336 248l80 113l256 -146l256 144z" />
    <glyph glyph-name="florin" unicode="&#x192;" horiz-adv-x="1284" 
d="M1188 1331l-64 -166q-88 35 -149 35q-47 0 -77 -12.5t-51 -47t-34 -76t-29 -118.5l-43 -207h299l-39 -186h-301l-112 -573q-14 -70 -20 -98.5t-23 -88.5t-38.5 -100t-49.5 -68q-98 -98 -250 -98q-62 0 -123 16t-85.5 28t-41.5 23l68 168q77 -34 143 -34q72 0 108 36
q27 27 43 77.5t39 162.5l113 549h-258l39 186h260l45 230q25 130 51 203.5t74 121.5q103 103 258 103q132 0 248 -66z" />
    <glyph glyph-name="circumflex" unicode="&#x2c6;" horiz-adv-x="829" 
d="M752 1233l-80 -113l-256 146l-256 -144l-80 119l336 240z" />
    <glyph glyph-name="caron" unicode="&#x2c7;" horiz-adv-x="829" 
d="M752 1360l-336 -240l-336 248l80 113l256 -146l256 144z" />
    <glyph glyph-name="breve" unicode="&#x2d8;" horiz-adv-x="829" 
d="M709 1448q-8 -137 -86 -217t-207 -80t-208 80t-87 217h158q15 -129 137 -129q120 0 135 129h158z" />
    <glyph glyph-name="dotaccent" unicode="&#x2d9;" horiz-adv-x="829" 
d="M541 1292q0 -53 -36.5 -90t-88.5 -37t-89.5 37.5t-37.5 89.5t37.5 89.5t89.5 37.5t88.5 -37t36.5 -90z" />
    <glyph glyph-name="ring" unicode="&#x2da;" horiz-adv-x="829" 
d="M631 1323q0 -89 -63 -153t-152 -64t-153 64t-64 153q0 90 63.5 153.5t153.5 63.5t152.5 -63.5t62.5 -153.5zM516 1323q0 42 -30 72t-72 30q-41 0 -71 -30.5t-30 -71.5t30 -70.5t71 -29.5q43 0 72.5 29.5t29.5 70.5z" />
    <glyph glyph-name="ogonek" unicode="&#x2db;" horiz-adv-x="829" 
d="M629 -389q-110 -66 -213 -66q-98 0 -156.5 61.5t-58.5 164.5q0 43 12.5 80t35.5 64.5t41.5 43.5t43.5 33l131 -39q-7 -5 -31 -23t-33.5 -26t-28 -25.5t-26.5 -31.5t-15 -34t-7 -42q0 -52 30.5 -83.5t81.5 -31.5q23 0 50 6.5t44 13.5t35.5 15.5t20.5 9.5z" />
    <glyph glyph-name="tilde" unicode="&#x2dc;" horiz-adv-x="829" 
d="M764 1313q-131 -139 -240 -139q-46 0 -117 29.5t-106 29.5q-18 0 -40 -9t-35.5 -17.5t-35 -24t-24.5 -17.5l-100 111l18 17q17 17 26 24.5t29.5 24.5t37 26.5t38 21t44.5 16.5t46 5q46 0 116 -28.5t105 -28.5q65 0 140 69z" />
    <glyph glyph-name="hungarumlaut" unicode="&#x2dd;" horiz-adv-x="829" 
d="M725 1419l-154 -352l-161 55l118 369zM422 1419l-154 -352l-164 55l119 369z" />
    <glyph glyph-name="Delta" unicode="&#x394;" horiz-adv-x="1464" 
d="M1303 0h-1141l473 1366h196zM1018 188l-291 854l-293 -854h584z" />
    <glyph glyph-name="Omega" unicode="&#x3a9;" horiz-adv-x="1697" 
d="M1536 0h-565v170q34 14 67.5 35t76.5 64t75 97t54 137.5t22 182.5q0 233 -115.5 373.5t-302.5 140.5t-302.5 -140.5t-115.5 -373.5q0 -99 22 -182.5t54 -137.5t75.5 -97t77.5 -64t68 -35v-170h-565v195h266q-34 21 -69.5 59t-74.5 100t-64 156t-25 203q0 200 81.5 355.5
t230.5 242t341 86.5q191 0 340 -86.5t231 -242.5t82 -355q0 -106 -24.5 -199.5t-62.5 -156t-74.5 -102.5t-69.5 -60h266v-195z" />
    <glyph glyph-name="mu" unicode="&#x3bc;" horiz-adv-x="1107" 
d="M977 0h-197v76q-21 -16 -50.5 -34t-103 -43.5t-143.5 -25.5q-41 0 -76.5 12t-47 19.5t-29.5 22.5v-283h-199v1255h225v-544q0 -112 8 -163.5t39 -82.5q43 -43 129 -43q21 0 42.5 3t39.5 7.5t36.5 11.5t31.5 13t26.5 13t21 11.5t14.5 9.5l8 5v759h225v-999z" />
    <glyph glyph-name="pi" unicode="&#x3c0;" horiz-adv-x="1388" 
d="M1227 10q-72 -24 -156 -24q-114 0 -174 57q-11 11 -20 23t-15 28.5t-11 28.5t-7.5 33.5t-4.5 32.5t-2.5 36.5t-0.5 34.5v38v36v481h-308v-815h-225v815h-141v184h1050v-184h-151v-473q0 -50 0.5 -68.5t5.5 -41.5t16 -35q23 -25 76 -25q14 0 68 6v-168z" />
    <glyph glyph-name="figuredash" unicode="&#x2012;" horiz-adv-x="1286" 
d="M1180 438h-1074v189h1074v-189z" />
    <glyph glyph-name="endash" unicode="&#x2013;" horiz-adv-x="1355" 
d="M1196 438h-1036v189h1036v-189z" />
    <glyph glyph-name="emdash" unicode="&#x2014;" horiz-adv-x="2031" 
d="M1872 438h-1712v189h1712v-189z" />
    <glyph glyph-name="quoteleft" unicode="&#x2018;" horiz-adv-x="546" 
d="M467 1284l-15 -14q-14 -15 -21 -23.5t-23 -29.5t-26 -39.5t-23.5 -48t-21 -59.5t-13 -69.5t-5.5 -82.5h-239q0 137 46.5 232.5t127.5 176.5q51 51 84 72z" />
    <glyph glyph-name="quoteright" unicode="&#x2019;" horiz-adv-x="546" 
d="M467 1366q0 -137 -46.5 -233t-127.5 -177q-48 -48 -84 -71l-129 114l12.5 12.5t18 19.5t20 24.5t23 32t21.5 38t20.5 47.5t16 54.5t11.5 65t4 73.5h240z" />
    <glyph glyph-name="quotesinglbase" unicode="&#x201a;" horiz-adv-x="546" 
d="M467 236q0 -137 -46.5 -233t-127.5 -177q-51 -51 -84 -72l-129 115l12.5 12.5t18 19.5t20 24.5t23 32t21.5 38t20.5 47.5t16 54.5t11.5 65t4 73.5h240z" />
    <glyph glyph-name="quotedblleft" unicode="&#x201c;" horiz-adv-x="899" 
d="M819 1284l-12.5 -12.5t-18 -19.5t-20 -24t-23 -32t-21.5 -38t-20.5 -47t-16 -54.5t-11.5 -65t-4 -73.5h-240q0 137 46.5 232.5t127.5 176.5q51 51 84 72zM467 1284l-15 -14q-14 -15 -21 -23.5t-23 -29.5t-26 -39.5t-23.5 -48t-21 -59.5t-13 -69.5t-5.5 -82.5h-239
q0 137 46.5 232.5t127.5 176.5q51 51 84 72z" />
    <glyph glyph-name="quotedblright" unicode="&#x201d;" horiz-adv-x="899" 
d="M819 1366q0 -137 -46.5 -233t-127.5 -177q-48 -48 -84 -71l-129 114l12.5 12.5t18 19.5t20.5 24t23 32t21.5 38.5t21 47.5t16 54.5t11.5 65t4 73.5h239zM467 1366q0 -137 -46.5 -233t-127.5 -177q-48 -48 -84 -71l-129 114l12.5 12.5t18 19.5t20 24.5t23 32t21.5 38
t20.5 47.5t16 54.5t11.5 65t4 73.5h240z" />
    <glyph glyph-name="quotedblbase" unicode="&#x201e;" horiz-adv-x="899" 
d="M819 236q0 -137 -46.5 -233t-127.5 -177q-51 -51 -84 -72l-129 115l12.5 12.5t18 19.5t20.5 24t23 32t21.5 38.5t21 47.5t16 54.5t11.5 65t4 73.5h239zM467 236q0 -137 -46.5 -233t-127.5 -177q-51 -51 -84 -72l-129 115l12.5 12.5t18 19.5t20 24.5t23 32t21.5 38
t20.5 47.5t16 54.5t11.5 65t4 73.5h240z" />
    <glyph glyph-name="dagger" unicode="&#x2020;" horiz-adv-x="1251" 
d="M1094 702h-361l-16 -958h-185l-18 958h-356v197h352l-8 467h243l-8 -467h357v-197z" />
    <glyph glyph-name="daggerdbl" unicode="&#x2021;" horiz-adv-x="1251" 
d="M1094 700l-363 2l-4 -217h360v-196h-362l-10 -545h-183l-10 545h-358v196h356l-4 217h-358v197h352l-8 467h243l-8 -467h357v-199z" />
    <glyph glyph-name="bullet" unicode="&#x2022;" horiz-adv-x="980" 
d="M702 553q0 -89 -62 -151t-151 -62q-88 0 -150.5 62t-62.5 151q0 88 62.5 150.5t150.5 62.5q89 0 151 -62.5t62 -150.5z" />
    <glyph glyph-name="ellipsis" unicode="&#x2026;" horiz-adv-x="1626" 
d="M1499 129q0 -60 -41.5 -101.5t-101.5 -41.5t-102 41.5t-42 101.5t42 101.5t102 41.5t101.5 -41.5t41.5 -101.5zM956 129q0 -60 -41.5 -101.5t-101.5 -41.5t-101.5 41.5t-41.5 101.5t41.5 101.5t101.5 41.5t101.5 -41.5t41.5 -101.5zM414 129q0 -60 -42 -101.5t-102 -41.5
t-101.5 41.5t-41.5 101.5t41.5 101.5t101.5 41.5t102 -41.5t42 -101.5z" />
    <glyph glyph-name="perthousand" unicode="&#x2030;" horiz-adv-x="2351" 
d="M1348 1356l-951 -1440l-125 84l951 1440zM1526 354q0 -170 -82 -268t-227 -98q-141 0 -222.5 96.5t-81.5 259.5q0 170 82 269.5t226 99.5q139 0 222 -98.5t83 -260.5zM1378 350q0 117 -42 178.5t-113 61.5q-73 0 -116.5 -64t-43.5 -182q0 -115 41 -175t113 -60
q85 0 123 68t38 173zM717 1020q0 -170 -82 -268.5t-227 -98.5q-140 0 -222 97t-82 260q0 170 82 269t226 99q139 0 222 -98t83 -260zM569 1016q0 117 -42 178t-113 61q-73 0 -116.5 -63.5t-43.5 -181.5q0 -115 41 -175.5t113 -60.5q85 0 123 68.5t38 173.5zM2247 354
q0 -170 -82.5 -268t-227.5 -98q-140 0 -221.5 96.5t-81.5 259.5q0 170 82 269.5t226 99.5q139 0 222 -98.5t83 -260.5zM2099 350q0 117 -42 178.5t-113 61.5q-73 0 -116.5 -64t-43.5 -182q0 -115 40.5 -175t112.5 -60q85 0 123.5 68.5t38.5 172.5z" />
    <glyph glyph-name="guilsinglleft" unicode="&#x2039;" horiz-adv-x="690" 
d="M563 186l-139 -82l-297 398l297 397l139 -94l-176 -303z" />
    <glyph glyph-name="guilsinglright" unicode="&#x203a;" horiz-adv-x="690" 
d="M563 502l-297 -398l-139 82l176 316l-176 303l139 94z" />
    <glyph glyph-name="fraction" unicode="&#x2044;" horiz-adv-x="0" 
d="M492 1356l-951 -1440l-125 84l951 1440z" />
    <glyph glyph-name="zerosuperior" unicode="&#x2070;" 
d="M717 1020q0 -170 -82 -268.5t-227 -98.5q-140 0 -222 97t-82 260q0 170 82 269t226 99q139 0 222 -98t83 -260zM569 1016q0 117 -42 178t-113 61q-73 0 -116.5 -63.5t-43.5 -181.5q0 -115 41 -175.5t113 -60.5q85 0 123 68.5t38 173.5z" />
    <glyph glyph-name="foursuperior" unicode="&#x2074;" 
d="M694 807h-90v-141h-141v141h-340v98l342 461h139v-440h90v-119zM463 926v248l-176 -248h176z" />
    <glyph glyph-name="fivesuperior" unicode="&#x2075;" 
d="M653 899q0 -115 -73.5 -180.5t-200.5 -65.5q-40 0 -77 8.5t-61.5 19.5t-44.5 24t-29 21t-11 11l67 92q19 -16 62 -35.5t88 -19.5q64 0 99.5 29.5t35.5 87.5q0 52 -35 85.5t-102 33.5q-47 0 -117 -35l-53 33v358h417v-123h-280v-129q35 10 74 10q108 0 174.5 -61.5
t66.5 -163.5z" />
    <glyph glyph-name="sixsuperior" unicode="&#x2076;" 
d="M674 903q0 -113 -71.5 -183.5t-186.5 -70.5q-129 0 -201 97t-72 253q0 168 77 273.5t222 105.5q60 0 113 -18.5t75.5 -35.5t26.5 -24l-61 -92q-69 52 -145 52q-82 0 -122.5 -53.5t-49.5 -137.5q61 72 161 72q103 0 168.5 -67t65.5 -171zM539 899q0 55 -31.5 89t-83.5 34
q-56 0 -89.5 -36t-33.5 -91t33 -90t86 -35t86 36.5t33 92.5z" />
    <glyph glyph-name="sevensuperior" unicode="&#x2077;" 
d="M664 1266l-273 -600h-153l276 579h-348v121h498v-100z" />
    <glyph glyph-name="eightsuperior" unicode="&#x2078;" 
d="M680 866q0 -99 -73.5 -158t-192.5 -59q-121 0 -195 58.5t-74 158.5q0 57 28 101t75 65q-84 41 -84 144q0 92 68.5 147t177.5 55q110 0 179.5 -54.5t69.5 -145.5q0 -99 -88 -148q50 -18 79.5 -60t29.5 -104zM518 1174q0 42 -28.5 67t-77.5 25t-78 -25t-29 -67
q0 -43 30 -69t79 -26q47 0 75.5 26t28.5 69zM539 868q0 49 -33.5 76t-93.5 27q-61 0 -94 -27.5t-33 -75.5t33.5 -75t95.5 -27q59 0 92 27t33 75z" />
    <glyph glyph-name="ninesuperior" unicode="&#x2079;" 
d="M680 1030q0 -168 -77 -274.5t-222 -106.5q-38 0 -74 8t-59 17.5t-44 22.5t-28.5 19.5t-11.5 10.5l63 94q6 -6 23 -16.5t52 -22.5t69 -12q151 0 170 191q-24 -33 -67.5 -52.5t-90.5 -19.5q-104 0 -168.5 66t-64.5 171q0 110 71 181t185 71q132 0 203 -97t71 -251z
M522 1130q0 57 -34 93.5t-87 36.5t-84.5 -37.5t-31.5 -94.5q0 -55 30 -88.5t82 -33.5q55 0 90 35.5t35 88.5z" />
    <glyph glyph-name="parenleftsuperior" unicode="&#x207d;" horiz-adv-x="487" 
d="M104 1012q0 76 21.5 147.5t50 119t69 91.5t64.5 64t51 39l72 -93q-178 -155 -178 -364q0 -70 20.5 -135t53 -112t57.5 -74.5t49 -47.5l-72 -92q-25 16 -50.5 36.5t-65.5 64t-69 91t-51 118.5t-22 147z" />
    <glyph glyph-name="parenrightsuperior" unicode="&#x207e;" horiz-adv-x="487" 
d="M383 1012q0 -275 -258 -457l-72 92q25 20 49.5 47t57 73.5t53 110.5t20.5 134t-20.5 135t-53 111.5t-58 74t-50.5 47.5l74 93q24 -16 50 -37t65.5 -65t69 -92.5t51.5 -119.5t22 -147z" />
    <glyph glyph-name="zeroinferior" unicode="&#x2080;" 
d="M717 354q0 -170 -82 -268t-227 -98q-141 0 -222.5 96.5t-81.5 259.5q0 170 82 269.5t226 99.5q139 0 222 -98.5t83 -260.5zM569 350q0 117 -42 178.5t-113 61.5q-73 0 -116.5 -64t-43.5 -182q0 -115 41 -175t113 -60q85 0 123 68t38 173z" />
    <glyph glyph-name="oneinferior" unicode="&#x2081;" 
d="M545 0h-146v528l-153 -98l-72 105l258 165h113v-700z" />
    <glyph glyph-name="twoinferior" unicode="&#x2082;" 
d="M645 0h-469v106q68 57 112 97.5t97 96t80 104t27 88.5q0 45 -27 72.5t-76 27.5q-29 0 -61 -14.5t-46.5 -26t-43.5 -35.5l-72 86q38 48 101.5 80.5t135.5 32.5q100 0 166 -61.5t66 -159.5q0 -42 -16 -84.5t-35.5 -74.5t-61 -75.5t-67.5 -67.5t-80 -71h270v-121z" />
    <glyph glyph-name="threeinferior" unicode="&#x2083;" 
d="M653 207q0 -102 -71 -162.5t-189 -60.5q-51 0 -94 10.5t-71 26.5t-43.5 28.5t-24.5 24.5l71 90q1 -1 7 -5.5t11 -8t14.5 -9.5t17.5 -10t20.5 -9t24 -8.5t25.5 -5.5t28 -2q62 0 95.5 27t33.5 70q0 55 -42.5 75.5t-117.5 20.5h-37v115h31q23 0 38.5 1t39.5 6t39 14t26 27
t11 44q0 35 -27.5 59.5t-75.5 24.5q-83 0 -145 -62l-74 86q36 42 99.5 70.5t136.5 28.5q99 0 164 -55.5t65 -143.5q0 -49 -28.5 -95t-78.5 -59q57 -9 89 -53.5t32 -99.5z" />
    <glyph glyph-name="fourinferior" unicode="&#x2084;" 
d="M694 141h-90v-141h-141v141h-340v101l342 458h139v-440h90v-119zM463 260v248l-176 -248h176z" />
    <glyph glyph-name="fiveinferior" unicode="&#x2085;" 
d="M653 233q0 -115 -73.5 -180t-200.5 -65q-40 0 -77 8.5t-61.5 19.5t-44.5 24t-29 21t-11 11l67 94q16 -16 60 -36.5t90 -20.5q64 0 99.5 29.5t35.5 84.5q0 54 -34.5 87.5t-102.5 33.5q-47 0 -117 -35l-53 33v358h417v-122h-280v-129q42 12 74 12q108 0 174.5 -63
t66.5 -165z" />
    <glyph glyph-name="sixinferior" unicode="&#x2086;" 
d="M674 238q0 -113 -71.5 -183.5t-186.5 -70.5q-129 0 -201 97t-72 253q0 168 77 273.5t222 105.5q60 0 113 -18.5t75.5 -35.5t26.5 -24l-61 -92q-68 51 -145 51q-82 0 -122.5 -53.5t-49.5 -137.5q61 72 161 72q104 0 169 -67t65 -170zM539 233q0 55 -31.5 89t-83.5 34
q-56 0 -89.5 -36t-33.5 -91t33 -90t86 -35t86 36.5t33 92.5z" />
    <glyph glyph-name="seveninferior" unicode="&#x2087;" 
d="M664 602l-273 -602h-153l276 582h-348v118h498v-98z" />
    <glyph glyph-name="eightinferior" unicode="&#x2088;" 
d="M680 201q0 -99 -73.5 -158t-192.5 -59q-121 0 -195 58.5t-74 158.5q0 57 28 101t75 63q-84 44 -84 145q0 91 69 147t177 56q110 0 179.5 -55t69.5 -146q0 -98 -88 -147q50 -18 79.5 -60t29.5 -104zM518 508q0 42 -28.5 67t-77.5 25t-78 -25t-29 -67q0 -44 29.5 -69
t79.5 -25q48 0 76 25t28 69zM539 203q0 49 -33.5 75.5t-93.5 26.5q-61 0 -94 -27t-33 -75t33.5 -75.5t95.5 -27.5q59 0 92 27.5t33 75.5z" />
    <glyph glyph-name="nineinferior" unicode="&#x2089;" 
d="M680 365q0 -168 -77 -274.5t-222 -106.5q-38 0 -74 7.5t-59 17.5t-43.5 22.5t-28.5 19t-12 10.5l63 95q6 -6 22.5 -16.5t52 -23t69.5 -12.5q151 0 170 191q-24 -33 -67.5 -52.5t-90.5 -19.5q-104 0 -168.5 66.5t-64.5 171.5q0 110 71 181t185 71q132 0 203 -97t71 -251z
M522 465q0 57 -34 93t-87 36t-84.5 -37t-31.5 -94q0 -55 30 -89t82 -34q55 0 90 35.5t35 89.5z" />
    <glyph glyph-name="parenleftinferior" unicode="&#x208d;" horiz-adv-x="487" 
d="M104 348q0 76 21.5 147.5t50 119t69 91.5t64.5 64t51 39l72 -92q-178 -155 -178 -367q0 -70 20.5 -134t53 -110.5t57.5 -74t49 -47.5l-72 -93q-25 16 -50.5 36.5t-65.5 64t-69 91t-51 118.5t-22 147z" />
    <glyph glyph-name="parenrightinferior" unicode="&#x208e;" horiz-adv-x="487" 
d="M383 348q0 -275 -258 -457l-72 93q19 16 37.5 34t46 53.5t47.5 73.5t34.5 92.5t14.5 110.5q0 70 -20.5 135t-53 111.5t-58.5 75t-50 47.5l74 92q24 -16 50 -37t65.5 -65t69 -92.5t51.5 -119.5t22 -147z" />
    <glyph glyph-name="franc" unicode="&#x20a3;" horiz-adv-x="1650" 
d="M934 1174h-543v-324h469v-191h-469v-659h-235v1366h778v-192zM1593 856l-51 -174q-30 6 -67 6q-182 0 -289 -153v-535h-225v850h196v-127q4 7 17.5 22t43 39t65.5 44.5t90 35.5t110 15q20 0 38 -2t30.5 -5.5t20.5 -6.5t14 -6z" />
    <glyph glyph-name="lira" unicode="&#x20a4;" horiz-adv-x="1284" 
d="M166 621h184q-6 38 -16 124h-168v156h153q0 233 124 364.5t348 131.5q70 0 134 -15t105.5 -34.5t76 -44t49 -38.5t20.5 -22l-111 -137q-1 1 -15.5 11t-25 16.5t-30.5 18t-39.5 19.5t-44 16.5t-52 12.5t-55.5 4q-130 0 -194 -81.5t-64 -221.5h381v-156h-367q5 -69 14 -124
h353v-156h-342q-3 -102 -31 -170.5t-70 -97.5h666v-197h-987v178q104 20 151 91t45 196h-192v156z" />
    <glyph glyph-name="peseta" unicode="&#x20a7;" horiz-adv-x="2797" 
d="M1071 958q0 -188 -117 -305q-37 -37 -80 -62.5t-81 -38.5t-92.5 -20t-94 -8.5t-106.5 -1.5h-113v-522h-231v1366h360q169 0 269.5 -21t175.5 -96q110 -110 110 -291zM834 950q0 108 -62 174q-38 36 -93.5 46t-158.5 10h-133v-469h105q121 0 181 12t97 47q64 64 64 180z
M1874 33q-9 -7 -34 -19.5t-82 -26.5t-118 -14q-157 0 -239 82q-46 46 -61 102t-17 146v510h-172v186h172v279h225v-279h295v-186h-295v-455q0 -39 1 -59t8 -50.5t20 -45.5t40 -27t66 -12q23 0 47.5 3.5t39 7.5t29.5 9l18 6zM2695 287q0 -146 -103.5 -230t-279.5 -84
q-60 0 -119.5 10.5t-100.5 24.5t-77 31t-51.5 26.5t-21.5 14.5l79 149q1 0 12.5 -6.5t24.5 -13t32.5 -16t41.5 -17t46.5 -14.5t52.5 -11t55 -4q93 0 137.5 34t44.5 89q0 37 -26.5 65t-69 47t-94.5 37.5t-103.5 43t-94 56.5t-69 86t-26.5 124q0 134 102.5 215.5t269.5 81.5
q57 0 110.5 -9t89.5 -21.5t64.5 -26t41.5 -22.5t14 -11l-76 -141q-8 7 -39 21.5t-87 30t-105 15.5q-78 0 -120 -32t-42 -78q0 -37 27 -65t70 -47.5t94.5 -38.5t103.5 -44.5t95 -58.5t70 -87t27 -124z" />
    <glyph glyph-name="Euro" unicode="&#x20ac;" horiz-adv-x="1284" 
d="M1212 119q-10 -10 -22.5 -21t-51.5 -36t-82 -43t-111 -33t-140 -15q-89 0 -165 23.5t-127.5 60.5t-93.5 85.5t-66.5 96t-41 95.5t-23 80t-7.5 53h-148v156h135q0 4 -1 27t-1 40q0 31 2 60h-135v155h146q1 17 7 45.5t22.5 77t41 96.5t66.5 98.5t94 89t128.5 63t166.5 24.5
q70 0 135 -15t108.5 -35.5t79 -44.5t51 -38.5t19.5 -20.5l-106 -133q-73 58 -141 81q-64 21 -130 21q-65 0 -118.5 -19.5t-86.5 -52.5t-56 -67t-35 -73t-16.5 -60t-6.5 -37h471v-155h-488q-2 -29 -2 -60q0 -17 1 -40t1 -27h488v-156h-469q1 -12 3 -27t10.5 -46.5t21.5 -60
t37.5 -61t56 -56t80.5 -39t108 -15.5q146 0 283 98z" />
    <glyph glyph-name="afii61289" unicode="&#x2113;" horiz-adv-x="1024" 
d="M510 551q-46 -242 -57 -308t-11 -118q0 -51 37 -51q53 0 105 110q15 37 39 37q26 0 26 -31q0 -47 -53 -122q-75 -97 -156 -97q-64 0 -100.5 48t-36.5 133q0 64 21 260q-83 -78 -101 -78q-10 0 -19 10.5t-9 22.5q0 19 41 55q12 11 48.5 48.5t53.5 57.5q85 442 182.5 651.5
t220.5 209.5q58 0 93.5 -45.5t35.5 -120.5q0 -83 -35.5 -189t-95.5 -205q-73 -117 -229 -278zM532 682q256 287 256 532q0 40 -13 65.5t-34 25.5q-23 0 -46.5 -25.5t-37.5 -65.5q-63 -177 -125 -532z" />
    <glyph glyph-name="afii61352" unicode="&#x2116;" horiz-adv-x="2177" 
d="M2093 1008q0 -177 -103.5 -285.5t-271.5 -108.5q-160 0 -260 108.5t-100 281.5q0 175 104 284t271 109q160 0 260 -108t100 -281zM1915 1004q0 111 -54.5 179t-138.5 68q-85 0 -135.5 -66.5t-50.5 -176.5q0 -111 54.5 -179.5t138.5 -68.5q87 0 136.5 65.5t49.5 178.5z
M1192 0h-215l-610 999l6 -999h-217v1366h223l602 -997l-6 997h217v-1366z" />
    <glyph glyph-name="trademark" unicode="&#x2122;" horiz-adv-x="1636" 
d="M1552 641h-147l-43 467l-160 -467h-121l-163 467l-39 -467h-140l72 725h158l178 -502l172 502h158zM657 1237h-208v-596h-154v596h-211v129h573v-129z" />
    <glyph glyph-name="uni2126" unicode="&#x2126;" horiz-adv-x="1697" 
d="M1536 0h-565v170q34 14 67.5 35t76.5 64t75 97t54 137.5t22 182.5q0 233 -115.5 373.5t-302.5 140.5t-302.5 -140.5t-115.5 -373.5q0 -99 22 -182.5t54 -137.5t75.5 -97t77.5 -64t68 -35v-170h-565v195h266q-34 21 -69.5 59t-74.5 100t-64 156t-25 203q0 200 81.5 355.5
t230.5 242t341 86.5q191 0 340 -86.5t231 -242.5t82 -355q0 -106 -24.5 -199.5t-62.5 -156t-74.5 -102.5t-69.5 -60h266v-195z" />
    <glyph glyph-name="estimated" unicode="&#x212e;" horiz-adv-x="1634" 
d="M1575 637h-1227q-12 0 -12 -8v-371q0 -21 18 -43q90 -95 210 -148t255 -53q143 0 269.5 60.5t218.5 165.5h110q-105 -123 -263 -195t-337 -72q-154 0 -294.5 54t-242 145t-161.5 217.5t-60 265.5q0 138 60 264t161.5 217t242 145t294.5 54t294.5 -54t242 -145t161.5 -217
t60 -264v-18zM1298 686v371q0 25 -20 45q-89 91 -208 141.5t-251 50.5q-134 0 -253.5 -52.5t-209.5 -145.5q-20 -20 -20 -47v-363q0 -10 12 -10h940q10 0 10 10z" />
    <glyph glyph-name="onethird" unicode="&#x2153;" horiz-adv-x="1617" 
d="M1341 1356l-950 -1440l-125 84l951 1440zM545 666h-146v528l-153 -98l-72 104l258 166h113v-700zM1450 207q0 -102 -71 -162.5t-189 -60.5q-66 0 -120.5 19t-77.5 36.5t-36 34.5l72 90q1 -1 7 -5.5t11 -8t14.5 -9.5t17.5 -10t20.5 -9t24 -8.5t25.5 -5.5t28 -2
q62 0 95.5 27t33.5 70q0 55 -42.5 75.5t-117.5 20.5h-37v115h31q23 0 38.5 1t39.5 6t38.5 14t25.5 27t11 44q0 35 -27 59.5t-75 24.5q-35 0 -70 -14t-50 -25.5t-26 -22.5l-73 86q36 42 99 70.5t136 28.5q99 0 164.5 -55.5t65.5 -143.5q0 -49 -28.5 -95t-78.5 -59
q57 -9 89 -53.5t32 -99.5z" />
    <glyph glyph-name="twothirds" unicode="&#x2154;" horiz-adv-x="1617" 
d="M649 666h-469v106q67 56 113 97.5t97.5 95.5t78.5 102t27 88q0 47 -27 74.5t-76 27.5q-29 0 -60.5 -14t-47.5 -26t-43 -35l-74 86q39 47 103 78.5t137 31.5q100 0 165.5 -60t65.5 -159q0 -51 -20.5 -101t-62 -99.5t-80 -86t-97.5 -86.5h270v-120zM1341 1356l-950 -1440
l-125 84l951 1440zM1450 207q0 -102 -71 -162.5t-189 -60.5q-66 0 -120.5 19t-77.5 36.5t-36 34.5l72 90q1 -1 7 -5.5t11 -8t14.5 -9.5t17.5 -10t20.5 -9t24 -8.5t25.5 -5.5t28 -2q62 0 95.5 27t33.5 70q0 55 -42.5 75.5t-117.5 20.5h-37v115h31q23 0 38.5 1t39.5 6t38.5 14
t25.5 27t11 44q0 35 -27 59.5t-75 24.5q-35 0 -70 -14t-50 -25.5t-26 -22.5l-73 86q36 42 99 70.5t136 28.5q99 0 164.5 -55.5t65.5 -143.5q0 -49 -28.5 -95t-78.5 -59q57 -9 89 -53.5t32 -99.5z" />
    <glyph glyph-name="oneeighth" unicode="&#x215b;" horiz-adv-x="1617" 
d="M545 666h-146v528l-153 -98l-72 104l258 166h113v-700zM1341 1356l-950 -1440l-125 84l951 1440zM1477 201q0 -99 -73.5 -158t-193.5 -59q-121 0 -194.5 58.5t-73.5 158.5q0 58 27.5 101.5t74.5 62.5q-83 44 -83 145q0 91 68.5 147t176.5 56q110 0 180 -55t70 -146
q0 -98 -88 -147q50 -18 79.5 -60t29.5 -104zM1315 508q0 42 -29 67t-78 25t-77.5 -25t-28.5 -67q0 -44 29 -69t79 -25q48 0 76.5 25t28.5 69zM1335 203q0 49 -33.5 75.5t-93.5 26.5q-61 0 -94 -27t-33 -75t33.5 -75.5t95.5 -27.5q59 0 92 27.5t33 75.5z" />
    <glyph glyph-name="threeeighths" unicode="&#x215c;" horiz-adv-x="1617" 
d="M1341 1356l-950 -1440l-125 84l951 1440zM1477 201q0 -99 -73.5 -158t-193.5 -59q-121 0 -194.5 58.5t-73.5 158.5q0 58 27.5 101.5t74.5 62.5q-83 44 -83 145q0 91 68.5 147t176.5 56q110 0 180 -55t70 -146q0 -98 -88 -147q50 -18 79.5 -60t29.5 -104zM1315 508
q0 42 -29 67t-78 25t-77.5 -25t-28.5 -67q0 -44 29 -69t79 -25q48 0 76.5 25t28.5 69zM1335 203q0 49 -33.5 75.5t-93.5 26.5q-61 0 -94 -27t-33 -75t33.5 -75.5t95.5 -27.5q59 0 92 27.5t33 75.5zM653 872q0 -102 -71 -162.5t-189 -60.5q-152 0 -233 90l71 90l7 -5
q7 -5 11 -8t14 -9t18 -10t20.5 -9.5t23.5 -8.5t25.5 -5t28.5 -2q62 0 95.5 26.5t33.5 69.5q0 55 -43 76t-117 21h-37v114h31q23 0 38.5 1t39.5 6t39 14t26 27t11 44q0 35 -27.5 59.5t-75.5 24.5q-35 0 -69.5 -14t-49.5 -25t-26 -22l-74 86q36 42 99.5 70t136.5 28
q100 0 164.5 -54.5t64.5 -143.5q0 -48 -28.5 -94.5t-78.5 -59.5q57 -9 89 -54t32 -100z" />
    <glyph glyph-name="fiveeighths" unicode="&#x215d;" horiz-adv-x="1617" 
d="M1341 1356l-950 -1440l-125 84l951 1440zM1477 201q0 -99 -73.5 -158t-193.5 -59q-121 0 -194.5 58.5t-73.5 158.5q0 58 27.5 101.5t74.5 62.5q-83 44 -83 145q0 91 68.5 147t176.5 56q110 0 180 -55t70 -146q0 -98 -88 -147q50 -18 79.5 -60t29.5 -104zM1315 508
q0 42 -29 67t-78 25t-77.5 -25t-28.5 -67q0 -44 29 -69t79 -25q48 0 76.5 25t28.5 69zM1335 203q0 49 -33.5 75.5t-93.5 26.5q-61 0 -94 -27t-33 -75t33.5 -75.5t95.5 -27.5q59 0 92 27.5t33 75.5zM653 899q0 -115 -73.5 -180.5t-200.5 -65.5q-40 0 -77 8.5t-61.5 19.5
t-44.5 24t-29 21t-11 11l67 92q19 -16 62 -35.5t88 -19.5q64 0 99.5 29.5t35.5 87.5q0 52 -35 85.5t-102 33.5q-47 0 -117 -35l-53 33v358h417v-123h-280v-129q35 10 74 10q108 0 174.5 -61.5t66.5 -163.5z" />
    <glyph glyph-name="seveneighths" unicode="&#x215e;" horiz-adv-x="1617" 
d="M664 1266l-273 -600h-153l276 579h-348v121h498v-100zM1477 201q0 -99 -73.5 -158t-193.5 -59q-121 0 -194.5 58.5t-73.5 158.5q0 58 27.5 101.5t74.5 62.5q-83 44 -83 145q0 91 68.5 147t176.5 56q110 0 180 -55t70 -146q0 -98 -88 -147q50 -18 79.5 -60t29.5 -104z
M1315 508q0 42 -29 67t-78 25t-77.5 -25t-28.5 -67q0 -44 29 -69t79 -25q48 0 76.5 25t28.5 69zM1335 203q0 49 -33.5 75.5t-93.5 26.5q-61 0 -94 -27t-33 -75t33.5 -75.5t95.5 -27.5q59 0 92 27.5t33 75.5zM1341 1356l-950 -1440l-125 84l951 1440z" />
    <glyph glyph-name="partialdiff" unicode="&#x2202;" horiz-adv-x="1269" 
d="M1108 711q0 -344 -129.5 -542t-360.5 -198q-204 0 -330 145.5t-126 377.5q0 234 125.5 384t335.5 150q129 0 237 -65q-8 143 -95.5 245.5t-236.5 102.5q-119 0 -256 -82l-90 155q18 13 41 26t73.5 38.5t114.5 41t128 15.5q266 0 417.5 -203t151.5 -591zM879 678
q0 49 -5 84q-114 76 -231 76t-186.5 -92t-69.5 -248q0 -153 63.5 -244.5t165.5 -91.5q89 0 149 67t87 180.5t27 268.5z" />
    <glyph glyph-name="uni2206" unicode="&#x2206;" horiz-adv-x="1464" 
d="M1303 0h-1141l473 1366h196zM1018 188l-291 854l-293 -854h584z" />
    <glyph glyph-name="product" unicode="&#x220f;" horiz-adv-x="1626" 
d="M1464 1174h-159v-1174h-238v1174h-508v-1174h-237v1174h-160v192h1302v-192z" />
    <glyph glyph-name="summation" unicode="&#x2211;" horiz-adv-x="1159" 
d="M999 0h-837v158l354 536l-354 512v160h837v-197h-534l309 -462l-334 -510h559v-197z" />
    <glyph glyph-name="minus" unicode="&#x2212;" horiz-adv-x="1286" 
d="M1180 438h-1074v189h1074v-189z" />
    <glyph glyph-name="radical" unicode="&#x221a;" horiz-adv-x="1671" 
d="M1511 1446l-544 -1446h-209l-297 764l-242 -82l-57 172l434 150l272 -717l451 1226z" />
    <glyph glyph-name="infinity" unicode="&#x221e;" horiz-adv-x="1722" 
d="M1563 578q0 -129 -94 -221.5t-226 -92.5q-48 0 -98 15.5t-86.5 34.5t-80 51.5t-63.5 50.5t-51 47q-38 -37 -67.5 -62t-83 -63t-113 -59t-119.5 -21q-130 0 -224.5 91t-94.5 216q0 132 91 220.5t226 88.5q193 0 383 -190q191 197 389 197q135 0 223.5 -85.5t88.5 -217.5z
M1393 580q0 60 -44.5 100.5t-111.5 40.5q-41 0 -81.5 -15t-79 -45t-54 -44t-43.5 -42q155 -139 264 -139q62 0 106 41t44 103zM748 573q-28 27 -46.5 43t-56.5 43.5t-78.5 41.5t-81.5 14q-67 0 -109 -40.5t-42 -101.5q0 -60 43.5 -101.5t103.5 -41.5q109 0 267 143z" />
    <glyph glyph-name="integral" unicode="&#x222b;" horiz-adv-x="1226" 
d="M1067 1448l-63 -160l-18 6q-17 7 -28 10.5t-32 7t-39 3.5q-74 0 -113 -39q-26 -26 -36.5 -63t-10.5 -105v-1180q0 -106 -20.5 -179t-81.5 -134q-42 -42 -111.5 -65t-136.5 -23q-50 0 -101.5 12.5t-79 25t-34.5 19.5l63 160l17 -6q18 -7 29 -10.5t32 -7t39 -3.5
q74 0 113 39q26 26 36.5 63t10.5 105v1180q0 106 20.5 179t81.5 134q42 42 111.5 65t136.5 23q50 0 101.5 -12.5t79 -25t34.5 -19.5z" />
    <glyph glyph-name="approxequal" unicode="&#x2248;" horiz-adv-x="1284" 
d="M1122 725q-115 -158 -264 -158q-55 0 -109.5 15.5t-120.5 43.5t-96 38q-59 18 -94 18t-69 -18t-45.5 -29.5t-38.5 -40.5l-123 90q96 162 278 162q57 0 118 -17.5t104.5 -39t96 -39t95.5 -17.5q32 0 63.5 16.5t45.5 30t45 45.5zM1122 381q-115 -158 -264 -158
q-55 0 -109.5 15.5t-121 43.5t-95.5 37q-63 19 -94 19q-35 0 -69 -18t-45.5 -29.5t-38.5 -40.5l-123 90q96 162 278 162q57 0 118 -17.5t104.5 -39t96 -39t95.5 -17.5q32 0 63.5 16.5t45.5 30t45 45.5z" />
    <glyph glyph-name="notequal" unicode="&#x2260;" horiz-adv-x="1286" 
d="M1178 274h-592l-144 -225l-133 84l88 141h-288v189h399l84 139h-483v189h596l139 217l133 -84l-82 -133h283v-189h-396l-84 -139h480v-189z" />
    <glyph glyph-name="lessequal" unicode="&#x2264;" horiz-adv-x="1286" 
d="M1165 430l-75 -170l-969 451v145l969 449l75 -175l-755 -348zM1163 0h-1042v184h1042v-184z" />
    <glyph glyph-name="greaterequal" unicode="&#x2265;" horiz-adv-x="1286" 
d="M1165 711l-968 -451l-76 170l756 352l-756 348l76 175l968 -449v-145zM1165 0h-1042v184h1042v-184z" />
    <glyph glyph-name="lozenge" unicode="&#x25ca;" horiz-adv-x="1357" 
d="M1198 684l-446 -684h-152l-438 684l438 682h152zM979 684l-303 457l-291 -457l291 -461z" />
    <glyph glyph-name="Euro.fitted" unicode="&#xe002;" horiz-adv-x="1159" 
d="M1128 119q-10 -10 -22.5 -21t-51.5 -36t-82 -43t-111 -33t-140 -15q-89 0 -165 23.5t-127.5 60.5t-93.5 85.5t-66.5 96t-41 95.5t-23 80t-7.5 53h-148v156h135q0 4 -1 27t-1 40q0 31 2 60h-135v155h146q1 17 7 45.5t22.5 77t41 96.5t66.5 98.5t94 89t128.5 63t166.5 24.5
q70 0 135 -15t108.5 -35.5t79 -44.5t51 -38.5t19.5 -20.5l-106 -133q-73 58 -141 81q-64 21 -130 21q-65 0 -118.5 -19.5t-86.5 -52.5t-56 -67t-35 -73t-16.5 -60t-6.5 -37h471v-155h-488q-2 -29 -2 -60q0 -17 1 -40t1 -27h488v-156h-469q1 -12 3 -27t10.5 -46.5t21.5 -60
t37.5 -61t56 -56t80.5 -39t108 -15.5q146 0 283 98z" />
    <glyph glyph-name="Dotaccent" unicode="&#xefed;" horiz-adv-x="829" 
d="M541 1595q0 -53 -36.5 -90t-88.5 -37t-89.5 37t-37.5 90t37.5 90t89.5 37t88.5 -37t36.5 -90z" />
    <glyph glyph-name="Breve" unicode="&#xefee;" horiz-adv-x="829" 
d="M551 1753h158q-7 -81 -28.5 -132t-64.5 -91q-77 -74 -200 -74q-126 0 -203 74q-43 41 -63.5 92t-28.5 131h158q9 -67 42 -98t95 -31t93.5 30t41.5 99z" />
    <glyph glyph-name="Ogonek" unicode="&#xeff1;" horiz-adv-x="829" 
d="M629 -389q-110 -66 -213 -66q-98 0 -156.5 61.5t-58.5 164.5q0 43 12.5 80t35.5 64.5t41.5 43.5t43.5 33l131 -39q-7 -5 -31 -23t-33.5 -26t-28 -25.5t-26.5 -31.5t-15 -34t-7 -42q0 -52 30.5 -83.5t81.5 -31.5q23 0 50 6.5t44 13.5t35.5 15.5t20.5 9.5z" />
    <glyph glyph-name="Cedilla" unicode="&#xeff2;" horiz-adv-x="829" 
d="M600 -264q0 -86 -63 -138.5t-146 -52.5q-54 0 -99 16.5t-63 32.5l41 84q42 -28 107 -28q55 0 77.5 25t22.5 57q0 34 -24 54.5t-62 20.5q-50 0 -86 -24l-63 35l30 182h113l-14 -96q15 6 45 6q82 0 133 -48t51 -126z" />
    <glyph glyph-name="Tilde" unicode="&#xeff5;" horiz-adv-x="829" 
d="M764 1612q-131 -139 -240 -139q-46 0 -117 29.5t-106 29.5q-18 0 -40 -9t-35.5 -17.5t-35 -24t-24.5 -17.5l-100 111l18 17q17 17 26 24.5t29.5 24.5t37 26.5t38 21t44.5 16.5t46 5q46 0 116 -28.5t105 -28.5q65 0 140 69z" />
    <glyph glyph-name="Circumflex" unicode="&#xeff7;" horiz-adv-x="829" 
d="M752 1575l-80 -113l-256 146l-256 -144l-80 119l336 240z" />
    <glyph glyph-name="parenleft.dnom" unicode="&#xf62c;" horiz-adv-x="487" 
d="M104 348q0 76 21.5 147.5t50 119t69 91.5t64.5 64t51 39l72 -92q-178 -155 -178 -367q0 -70 20.5 -134t53 -110.5t57.5 -74t49 -47.5l-72 -93q-25 16 -50.5 36.5t-65.5 64t-69 91t-51 118.5t-22 147z" />
    <glyph glyph-name="parenright.dnom" unicode="&#xf62d;" horiz-adv-x="487" 
d="M383 348q0 -275 -258 -457l-72 93q19 16 37.5 34t46 53.5t47.5 73.5t34.5 92.5t14.5 110.5q0 70 -20.5 135t-53 111.5t-58.5 75t-50 47.5l74 92q24 -16 50 -37t65.5 -65t69 -92.5t51.5 -119.5t22 -147z" />
    <glyph glyph-name="parenleft.numr" unicode="&#xf631;" horiz-adv-x="487" 
d="M104 1012q0 76 21.5 147.5t50 119t69 91.5t64.5 64t51 39l72 -93q-178 -155 -178 -364q0 -70 20.5 -135t53 -112t57.5 -74.5t49 -47.5l-72 -92q-25 16 -50.5 36.5t-65.5 64t-69 91t-51 118.5t-22 147z" />
    <glyph glyph-name="parenright.numr" unicode="&#xf632;" horiz-adv-x="487" 
d="M383 1012q0 -275 -258 -457l-72 92q25 20 49.5 47t57 73.5t53 110.5t20.5 134t-20.5 135t-53 111.5t-58 74t-50.5 47.5l74 93q24 -16 50 -37t65.5 -65t69 -92.5t51.5 -119.5t22 -147z" />
    <glyph glyph-name="zero.fitted" unicode="&#xf639;" horiz-adv-x="1292" 
d="M1192 688q0 -332 -144.5 -524.5t-402.5 -192.5q-256 0 -400.5 192.5t-144.5 524.5q0 323 146 516t397 193q255 0 402 -192t147 -517zM958 682q0 253 -82 387.5t-227 134.5q-150 0 -232.5 -134.5t-82.5 -389.5q0 -251 80.5 -383.5t226.5 -132.5q151 0 234 133t83 385z" />
    <glyph glyph-name="two.fitted" unicode="&#xf63a;" horiz-adv-x="1071" 
d="M971 0h-920v176q78 63 199 175t203 194q133 133 195.5 231t62.5 195q0 105 -64.5 167t-173.5 62q-153 0 -315 -139l-121 139q6 8 22 24t58.5 48t92.5 58.5t127.5 46.5t160.5 20q197 0 322.5 -113t125.5 -305q0 -75 -20.5 -145t-62.5 -134.5t-86 -116t-109 -116.5
q-154 -154 -299 -270h602v-197z" />
    <glyph glyph-name="three.fitted" unicode="&#xf63b;" horiz-adv-x="1060" 
d="M961 395q0 -193 -134.5 -308.5t-361.5 -115.5q-80 0 -152 14.5t-118 33.5t-83.5 42.5t-53 37.5t-21.5 22l108 149l9 -6q9 -7 18.5 -13.5t26.5 -16.5t34.5 -19t41.5 -18t49 -16t55 -11t61 -4q137 0 212 60.5t75 162.5q0 91 -61 148q-47 42 -116.5 55.5t-176.5 13.5h-43
v189h30q54 0 83 1.5t73 8.5t77 25t62 47q50 50 50 127q0 86 -66 142t-174 56q-55 0 -108.5 -15.5t-94.5 -40t-58.5 -37t-31.5 -24.5l-113 136q5 7 20 22t54.5 43t87 51.5t122 41.5t155.5 18q191 0 312.5 -105t121.5 -272q0 -69 -26.5 -135.5t-81 -116.5t-124.5 -61
q121 -13 191 -102t70 -210z" />
    <glyph glyph-name="four.fitted" unicode="&#xf63c;" horiz-adv-x="1181" 
d="M1114 287h-174v-287h-221v287h-664v168l654 911h231v-889h174v-190zM719 477v600l-418 -600h418z" />
    <glyph glyph-name="five.fitted" unicode="&#xf63d;" horiz-adv-x="1105" 
d="M1006 459q0 -224 -141.5 -356t-381.5 -132q-76 0 -146.5 14.5t-115.5 33.5t-81.5 41.5t-51.5 35.5t-20 19l110 149q144 -96 291 -96q139 0 221 72t82 198q0 120 -76 196.5t-227 76.5q-118 0 -225 -64l-80 49v670h794v-192h-577v-306q72 29 170 29q206 0 330.5 -121
t124.5 -317z" />
    <glyph glyph-name="six.fitted" unicode="&#xf63e;" horiz-adv-x="1189" 
d="M1110 463q0 -215 -135 -353.5t-352 -138.5q-168 0 -288 91.5t-177.5 243.5t-57.5 347q0 158 36 291.5t105.5 235.5t180.5 159.5t252 57.5q74 0 142 -13.5t111 -30t80 -38.5t49.5 -32.5t20.5 -18.5l-100 -152q-132 94 -283 94q-97 0 -170 -35.5t-116 -99t-65.5 -139.5
t-27.5 -168q-1 -6 -0.5 -25t0.5 -20q41 95 141.5 150t211.5 55q197 0 319.5 -130.5t122.5 -330.5zM893 455q0 123 -68.5 198.5t-185.5 75.5q-123 0 -200 -80t-77 -200q0 -124 76 -203.5t195 -79.5q117 0 188.5 82t71.5 207z" />
    <glyph glyph-name="seven.fitted" unicode="&#xf63f;" horiz-adv-x="1064" 
d="M1018 1186l-543 -1186h-252l549 1169h-729v197h975v-180z" />
    <glyph glyph-name="eight.fitted" unicode="&#xf640;" horiz-adv-x="1210" 
d="M1110 383q0 -191 -136 -301.5t-364 -110.5q-231 0 -370.5 111t-139.5 301q0 122 67 214.5t181 115.5q-100 28 -152.5 109t-52.5 186q0 176 127 282.5t334 106.5q208 0 336.5 -105.5t128.5 -279.5q0 -110 -54.5 -190.5t-148.5 -108.5q118 -29 181 -116t63 -214zM850 1004
q0 90 -65 148t-179 58q-110 0 -177 -58.5t-67 -145.5q0 -93 67.5 -152t180.5 -59q109 0 174.5 58.5t65.5 150.5zM889 391q0 103 -74 164t-207 61q-135 0 -209.5 -60.5t-74.5 -162.5q0 -105 76 -170t212 -65q131 0 204 64t73 169z" />
    <glyph glyph-name="nine.fitted" unicode="&#xf641;" horiz-adv-x="1189" 
d="M1090 715q0 -126 -22 -236.5t-68 -204t-113 -161t-161 -105t-208 -37.5q-74 0 -142.5 13.5t-111.5 30t-80 38.5t-50.5 33t-20.5 18l102 152q134 -96 283 -96q97 0 169.5 36t115 99.5t64.5 140t27 168.5q3 34 3 43q-41 -94 -142.5 -148.5t-212.5 -54.5
q-197 0 -319.5 130.5t-122.5 330.5q0 215 135 353.5t352 138.5q168 0 288 -91.5t177.5 -243.5t57.5 -347zM829 920q0 124 -76.5 203t-195.5 79q-117 0 -188.5 -82t-71.5 -207q0 -123 68.5 -198.5t185.5 -75.5q123 0 200.5 80.5t77.5 200.5z" />
    <glyph glyph-name="zero.taboldstyle" unicode="&#xf643;" horiz-adv-x="1284" 
d="M1194 541q0 -255 -153.5 -411.5t-397.5 -156.5q-243 0 -397 157.5t-154 406.5q0 248 153.5 403.5t399.5 155.5q244 0 396.5 -155.5t152.5 -399.5zM961 543q0 163 -92 270t-234 107q-137 0 -223 -108.5t-86 -279.5q0 -168 92 -274t229 -106q103 0 175.5 54t105.5 140.5
t33 196.5z" />
    <glyph glyph-name="one.taboldstyle" unicode="&#xf644;" horiz-adv-x="1284" 
d="M852 0h-229v823l-256 -166l-107 148l414 268h178v-1073z" />
    <glyph glyph-name="two.taboldstyle" unicode="&#xf645;" horiz-adv-x="1284" 
d="M1020 0h-793v158q38 27 178 143.5t224 202.5q68 69 104.5 128.5t36.5 123.5q0 70 -49.5 113.5t-126.5 43.5q-126 0 -252 -118l-117 129q9 12 22 26t49.5 42.5t77 50t105 38.5t133.5 17q172 0 278.5 -95t106.5 -241q0 -94 -44.5 -170.5t-123.5 -157.5q-37 -38 -85.5 -82.5
t-83.5 -73t-74.5 -60.5t-44.5 -36h479v-182z" />
    <glyph glyph-name="three.taboldstyle" unicode="&#xf646;" horiz-adv-x="1284" 
d="M1028 145q0 -180 -129 -293.5t-342 -113.5q-88 0 -165.5 18.5t-126.5 46.5t-75.5 48t-37.5 34l108 140q2 -1 14 -10.5t24 -17.5t31.5 -20t41 -21t47.5 -17.5t57.5 -13.5t63.5 -5q121 0 191.5 60t70.5 155q0 77 -56 133q-43 43 -103 59.5t-171 16.5h-41v176h39
q102 0 162 19.5t100 60.5q47 47 47 121q0 80 -59.5 136t-161.5 56q-135 0 -268 -116l-117 131q6 9 22 24.5t54 42t83 48.5t113.5 38.5t141.5 16.5q181 0 296 -102.5t115 -260.5q0 -100 -59.5 -186t-171.5 -111q126 -20 194 -100t68 -193z" />
    <glyph glyph-name="four.taboldstyle" unicode="&#xf647;" horiz-adv-x="1284" 
d="M1153 27h-180v-273h-221v273h-627v151l608 895h240v-872h180v-174zM752 201v600l-396 -600h396z" />
    <glyph glyph-name="five.taboldstyle" unicode="&#xf648;" horiz-adv-x="1284" 
d="M1077 201q0 -212 -133.5 -337.5t-361.5 -125.5q-69 0 -132.5 12t-104.5 28t-76.5 36.5t-49.5 31.5t-22 19l106 143l7 -5q6 -5 13 -9.5t19 -12t25.5 -14t30 -13.5t36 -13t40.5 -11t46 -7.5t51 -2.5q135 0 206 75.5t71 190.5q0 46 -14.5 89.5t-45.5 83t-86.5 63.5
t-128.5 24q-128 0 -217 -67l-80 49v645h750v-180h-541v-301q62 31 162 31q194 0 312 -117t118 -305z" />
    <glyph glyph-name="six.taboldstyle" unicode="&#xf649;" horiz-adv-x="1284" 
d="M1118 442q0 -205 -127.5 -337t-331.5 -132q-120 0 -215 50t-155 138.5t-91.5 206t-31.5 255.5q0 119 21 224.5t64.5 195t107 154t153.5 100.5t199 36q69 0 132 -12.5t102 -27.5t74 -37t47.5 -32.5t23.5 -21.5l-99 -145q-124 94 -270 94q-78 0 -140 -28.5t-99.5 -74
t-62.5 -108t-34.5 -123.5t-9.5 -127q38 92 130 141.5t195 49.5q187 0 302.5 -124t115.5 -315zM905 434q0 119 -62.5 192.5t-168.5 73.5q-112 0 -183 -78t-71 -194q0 -120 69.5 -196t178.5 -76q107 0 172 78.5t65 199.5z" />
    <glyph glyph-name="seven.taboldstyle" unicode="&#xf64a;" horiz-adv-x="1284" 
d="M1075 901l-502 -1147h-235l516 1135h-694v184h915v-172z" />
    <glyph glyph-name="eight.taboldstyle" unicode="&#xf64b;" horiz-adv-x="1284" 
d="M1106 367q0 -183 -126 -288.5t-337 -105.5q-208 0 -336.5 107t-128.5 289q0 126 69 206t163 105q-81 27 -139 98.5t-58 182.5q0 167 118.5 268.5t309.5 101.5q193 0 311.5 -100.5t118.5 -265.5q0 -62 -17.5 -113t-47.5 -84.5t-62 -54.5t-67 -33q100 -31 164.5 -108
t64.5 -205zM866 956q0 83 -60.5 140t-162.5 57q-100 0 -161.5 -57.5t-61.5 -137.5q0 -87 61 -144.5t166 -57.5q100 0 159.5 57.5t59.5 142.5zM899 373q0 97 -67.5 157t-188.5 60q-124 0 -191 -59.5t-67 -155.5q0 -97 69 -160t191 -63q121 0 187.5 61.5t66.5 159.5z" />
    <glyph glyph-name="nine.taboldstyle" unicode="&#xf64c;" horiz-adv-x="1284" 
d="M1118 446q0 -119 -21 -224.5t-64.5 -195t-107 -154t-153.5 -100.5t-199 -36q-85 0 -157.5 16.5t-119 43t-66.5 41.5t-35 30l98 145q124 -94 270 -94q78 0 140 28.5t99.5 74t62.5 108t34.5 123.5t9.5 127q-38 -92 -130 -141.5t-195 -49.5q-187 0 -302.5 124t-115.5 315
q0 205 127.5 337t331.5 132q120 0 215 -50t155 -138.5t91.5 -206t31.5 -255.5zM864 641q0 120 -69.5 196t-178.5 76q-107 0 -172 -78.5t-65 -199.5q0 -119 62.5 -192.5t168.5 -73.5q112 0 183 78t71 194z" />
    <glyph glyph-name="Euro.taboldstyle" unicode="&#xf64e;" horiz-adv-x="1284" 
d="M1182 119q-9 -9 -22 -20.5t-52 -36.5t-82.5 -43t-111.5 -33t-140 -15q-89 0 -165 23.5t-127.5 60.5t-93.5 85.5t-66.5 96t-41 95.5t-23 80t-7.5 53h-148v156h136q0 4 -1 27t-1 40q0 31 2 60h-136v155h146q1 17 7 45.5t22.5 77t41 96.5t66.5 98.5t94 89t128.5 63
t166.5 24.5q70 0 135 -15t108.5 -35.5t79 -44.5t51 -38.5t19.5 -20.5l-106 -133q-1 1 -5 4q-19 15 -36 26.5t-52 30.5t-81 30t-96 11q-78 0 -138.5 -29.5t-92.5 -67.5t-53.5 -87.5t-27.5 -76.5t-8 -48h471v-155h-487q-2 -29 -2 -60q0 -17 1 -40t1 -27h487v-156h-469
q1 -11 3 -27t11 -47t21.5 -59.5t37.5 -61t56.5 -56t80.5 -39t108 -15.5q145 0 282 98z" />
    <glyph glyph-name="florin.taboldstyle" unicode="&#xf64f;" horiz-adv-x="1284" 
d="M1257 1331l-63 -166q-88 35 -150 35q-47 0 -76.5 -12.5t-51 -47t-34 -76t-28.5 -118.5l-43 -207h299l-39 -186h-301l-113 -573q-14 -70 -20 -98.5t-23 -88.5t-38.5 -100t-49.5 -68q-98 -98 -250 -98q-142 0 -249 67l67 168q76 -34 144 -34q72 0 108 36q27 27 43 77.5
t39 162.5l113 549h-258l39 186h260l45 230q25 130 51 203.5t74 121.5q103 103 258 103q132 0 247 -66z" />
    <glyph glyph-name="sterling.taboldstyle" unicode="&#xf651;" horiz-adv-x="1284" 
d="M1151 1243l-111 -137q-1 1 -15.5 11t-25 16.5t-30.5 18t-39.5 19.5t-44 16.5t-52 12.5t-55.5 4q-120 0 -189 -75t-69 -211q0 -37 3 -75t7.5 -69.5t4.5 -34.5h397v-182h-377q4 -28 4 -78q0 -204 -98 -282h663v-197h-987v178q105 21 151 90t46 189q0 40 -6 100h-187v182
h168q-14 103 -14 179q0 224 125.5 351.5t345.5 127.5q70 0 134 -15t105.5 -34.5t76 -44t49 -38.5t20.5 -22z" />
    <glyph glyph-name="yen.taboldstyle" unicode="&#xf652;" horiz-adv-x="1284" 
d="M1184 1366l-350 -625h217v-155h-295v-127h293v-154h-293v-305h-228v305h-303v154h303v127h-305v155h219l-342 625h244l307 -606l312 606h221z" />
    <glyph glyph-name="dollar.taboldstyle" unicode="&#xf653;" horiz-adv-x="1284" 
d="M1128 397q0 -88 -30 -161t-82 -121.5t-115.5 -79t-136.5 -41.5v-211h-170v203q-65 4 -129 19.5t-109 34.5t-83 39.5t-56.5 34t-23.5 19.5l110 162q1 0 17.5 -11t31 -19t39.5 -21t51 -23t56.5 -19.5t65.5 -14.5t69 -5q118 0 183 53t65 144q0 28 -8 52.5t-27 45t-35.5 35
t-50 31t-52.5 25t-60.5 25t-57.5 23.5q-119 49 -171 82q-183 115 -183 306q0 82 31 149.5t83 112t114 71.5t130 37v187h170v-183q60 -4 118 -19.5t96 -33t71.5 -38.5t46 -31.5t18.5 -16.5l-113 -147q-11 9 -28.5 20t-56.5 32t-92.5 34.5t-108.5 13.5q-106 0 -174 -47.5
t-68 -122.5q0 -25 5.5 -45t22.5 -38.5t32.5 -31t52 -30.5t64 -29.5t83.5 -34.5q52 -21 86 -36t79.5 -39t75 -46.5t61.5 -54t50.5 -65.5t30.5 -79t12 -96z" />
    <glyph glyph-name="cent.taboldstyle" unicode="&#xf654;" horiz-adv-x="1284" 
d="M1092 113q-4 -7 -36.5 -27.5t-103 -48t-143.5 -35.5v-215h-170v215q-189 28 -301.5 165.5t-112.5 340.5q0 205 114.5 349.5t299.5 180.5v201h170v-195q69 -6 134 -31.5t96.5 -47t37.5 -31.5l-92 -141q-110 69 -225 69q-94 0 -166 -49t-107.5 -125t-35.5 -164
q0 -152 80 -246t219 -94q28 0 57 4t53 10.5t45.5 14t39 16t29.5 14.5t21 11l9 6z" />
    <glyph glyph-name="zero.dnom" unicode="&#xf655;" 
d="M717 354q0 -170 -82 -268t-227 -98q-141 0 -222.5 96.5t-81.5 259.5q0 170 82 269.5t226 99.5q139 0 222 -98.5t83 -260.5zM569 350q0 117 -42 178.5t-113 61.5q-73 0 -116.5 -64t-43.5 -182q0 -115 41 -175t113 -60q85 0 123 68t38 173z" />
    <glyph glyph-name="one.dnom" unicode="&#xf656;" 
d="M545 0h-146v528l-153 -98l-72 105l258 165h113v-700z" />
    <glyph glyph-name="two.dnom" unicode="&#xf657;" 
d="M645 0h-469v106q68 57 112 97.5t97 96t80 104t27 88.5q0 45 -27 72.5t-76 27.5q-29 0 -61 -14.5t-46.5 -26t-43.5 -35.5l-72 86q38 48 101.5 80.5t135.5 32.5q100 0 166 -61.5t66 -159.5q0 -42 -16 -84.5t-35.5 -74.5t-61 -75.5t-67.5 -67.5t-80 -71h270v-121z" />
    <glyph glyph-name="three.dnom" unicode="&#xf658;" 
d="M653 207q0 -102 -71 -162.5t-189 -60.5q-51 0 -94 10.5t-71 26.5t-43.5 28.5t-24.5 24.5l71 90q1 -1 7 -5.5t11 -8t14.5 -9.5t17.5 -10t20.5 -9t24 -8.5t25.5 -5.5t28 -2q62 0 95.5 27t33.5 70q0 55 -42.5 75.5t-117.5 20.5h-37v115h31q23 0 38.5 1t39.5 6t39 14t26 27
t11 44q0 35 -27.5 59.5t-75.5 24.5q-83 0 -145 -62l-74 86q36 42 99.5 70.5t136.5 28.5q99 0 164 -55.5t65 -143.5q0 -49 -28.5 -95t-78.5 -59q57 -9 89 -53.5t32 -99.5z" />
    <glyph glyph-name="four.dnom" unicode="&#xf659;" 
d="M694 141h-90v-141h-141v141h-340v101l342 458h139v-440h90v-119zM463 260v248l-176 -248h176z" />
    <glyph glyph-name="five.dnom" unicode="&#xf65a;" 
d="M653 233q0 -115 -73.5 -180t-200.5 -65q-40 0 -77 8.5t-61.5 19.5t-44.5 24t-29 21t-11 11l67 94q16 -16 60 -36.5t90 -20.5q64 0 99.5 29.5t35.5 84.5q0 54 -34.5 87.5t-102.5 33.5q-47 0 -117 -35l-53 33v358h417v-122h-280v-129q42 12 74 12q108 0 174.5 -63
t66.5 -165z" />
    <glyph glyph-name="six.dnom" unicode="&#xf65b;" 
d="M674 238q0 -113 -71.5 -183.5t-186.5 -70.5q-129 0 -201 97t-72 253q0 168 77 273.5t222 105.5q60 0 113 -18.5t75.5 -35.5t26.5 -24l-61 -92q-68 51 -145 51q-82 0 -122.5 -53.5t-49.5 -137.5q61 72 161 72q104 0 169 -67t65 -170zM539 233q0 55 -31.5 89t-83.5 34
q-56 0 -89.5 -36t-33.5 -91t33 -90t86 -35t86 36.5t33 92.5z" />
    <glyph glyph-name="seven.dnom" unicode="&#xf65c;" 
d="M664 602l-273 -602h-153l276 582h-348v118h498v-98z" />
    <glyph glyph-name="eight.dnom" unicode="&#xf65d;" 
d="M680 201q0 -99 -73.5 -158t-192.5 -59q-121 0 -195 58.5t-74 158.5q0 57 28 101t75 63q-84 44 -84 145q0 91 69 147t177 56q110 0 179.5 -55t69.5 -146q0 -98 -88 -147q50 -18 79.5 -60t29.5 -104zM518 508q0 42 -28.5 67t-77.5 25t-78 -25t-29 -67q0 -44 29.5 -69
t79.5 -25q48 0 76 25t28 69zM539 203q0 49 -33.5 75.5t-93.5 26.5q-61 0 -94 -27t-33 -75t33.5 -75.5t95.5 -27.5q59 0 92 27.5t33 75.5z" />
    <glyph glyph-name="nine.dnom" unicode="&#xf65e;" 
d="M680 365q0 -168 -77 -274.5t-222 -106.5q-38 0 -74 7.5t-59 17.5t-43.5 22.5t-28.5 19t-12 10.5l63 95q6 -6 22.5 -16.5t52 -23t69.5 -12.5q151 0 170 191q-24 -33 -67.5 -52.5t-90.5 -19.5q-104 0 -168.5 66.5t-64.5 171.5q0 110 71 181t185 71q132 0 203 -97t71 -251z
M522 465q0 57 -34 93t-87 36t-84.5 -37t-31.5 -94q0 -55 30 -89t82 -34q55 0 90 35.5t35 89.5z" />
    <glyph glyph-name="zero.numr" unicode="&#xf661;" 
d="M717 1020q0 -170 -82 -268.5t-227 -98.5q-140 0 -222 97t-82 260q0 170 82 269t226 99q139 0 222 -98t83 -260zM569 1016q0 117 -42 178t-113 61q-73 0 -116.5 -63.5t-43.5 -181.5q0 -115 41 -175.5t113 -60.5q85 0 123 68.5t38 173.5z" />
    <glyph glyph-name="one.numr" unicode="&#xf662;" 
d="M545 666h-146v528l-153 -98l-72 104l258 166h113v-700z" />
    <glyph glyph-name="two.numr" unicode="&#xf663;" 
d="M645 666h-469v106q67 56 113 97.5t97.5 95.5t78.5 102t27 88q0 47 -27 74.5t-76 27.5q-29 0 -60.5 -14t-47.5 -26t-43 -35l-72 86q38 47 101 78.5t136 31.5q100 0 166 -60t66 -159q0 -52 -20 -101.5t-62 -99t-79.5 -85t-98.5 -87.5h270v-120z" />
    <glyph glyph-name="three.numr" unicode="&#xf664;" 
d="M653 872q0 -102 -71 -162.5t-189 -60.5q-152 0 -233 90l71 90l7 -5q7 -5 11 -8t14 -9t18 -10t20.5 -9.5t23.5 -8.5t25.5 -5t28.5 -2q62 0 95.5 26.5t33.5 69.5q0 55 -43 76t-117 21h-37v114h31q23 0 38.5 1t39.5 6t39 14t26 27t11 44q0 35 -27.5 59.5t-75.5 24.5
q-35 0 -69.5 -14t-49.5 -25t-26 -22l-74 86q36 42 99.5 70t136.5 28q100 0 164.5 -54.5t64.5 -143.5q0 -48 -28.5 -94.5t-78.5 -59.5q57 -9 89 -54t32 -100z" />
    <glyph glyph-name="four.numr" unicode="&#xf665;" 
d="M694 807h-90v-141h-141v141h-340v98l342 461h139v-440h90v-119zM463 926v248l-176 -248h176z" />
    <glyph glyph-name="five.numr" unicode="&#xf666;" 
d="M653 899q0 -115 -73.5 -180.5t-200.5 -65.5q-40 0 -77 8.5t-61.5 19.5t-44.5 24t-29 21t-11 11l67 92q19 -16 62 -35.5t88 -19.5q64 0 99.5 29.5t35.5 87.5q0 52 -35 85.5t-102 33.5q-47 0 -117 -35l-53 33v358h417v-123h-280v-129q35 10 74 10q108 0 174.5 -61.5
t66.5 -163.5z" />
    <glyph glyph-name="six.numr" unicode="&#xf667;" 
d="M674 903q0 -113 -71.5 -183.5t-186.5 -70.5q-129 0 -201 97t-72 253q0 168 77 273.5t222 105.5q60 0 113 -18.5t75.5 -35.5t26.5 -24l-61 -92q-69 52 -145 52q-82 0 -122.5 -53.5t-49.5 -137.5q61 72 161 72q103 0 168.5 -67t65.5 -171zM539 899q0 55 -31.5 89t-83.5 34
q-56 0 -89.5 -36t-33.5 -91t33 -90t86 -35t86 36.5t33 92.5z" />
    <glyph glyph-name="seven.numr" unicode="&#xf668;" 
d="M664 1266l-273 -600h-153l276 579h-348v121h498v-100z" />
    <glyph glyph-name="eight.numr" unicode="&#xf669;" 
d="M680 866q0 -99 -73.5 -158t-192.5 -59q-121 0 -195 58.5t-74 158.5q0 57 28 101t75 65q-84 41 -84 144q0 92 68.5 147t177.5 55q110 0 179.5 -54.5t69.5 -145.5q0 -99 -88 -148q50 -18 79.5 -60t29.5 -104zM518 1174q0 42 -28.5 67t-77.5 25t-78 -25t-29 -67
q0 -43 30 -69t79 -26q47 0 75.5 26t28.5 69zM539 868q0 49 -33.5 76t-93.5 27q-61 0 -94 -27.5t-33 -75.5t33.5 -75t95.5 -27q59 0 92 27t33 75z" />
    <glyph glyph-name="nine.numr" unicode="&#xf66a;" 
d="M680 1030q0 -168 -77 -274.5t-222 -106.5q-38 0 -74 8t-59 17.5t-44 22.5t-28.5 19.5t-11.5 10.5l63 94q6 -6 23 -16.5t52 -22.5t69 -12q151 0 170 191q-24 -33 -67.5 -52.5t-90.5 -19.5q-104 0 -168.5 66t-64.5 171q0 110 71 181t185 71q132 0 203 -97t71 -251z
M522 1130q0 57 -34 93.5t-87 36.5t-84.5 -37.5t-31.5 -94.5q0 -55 30 -88.5t82 -33.5q55 0 90 35.5t35 88.5z" />
    <glyph glyph-name="Acute" unicode="&#xf6c9;" horiz-adv-x="829" 
d="M680 1647l-461 -185l-69 127l442 238z" />
    <glyph glyph-name="Caron" unicode="&#xf6ca;" horiz-adv-x="829" 
d="M752 1704l-336 -240l-336 248l80 113l256 -146l256 144z" />
    <glyph glyph-name="Dieresis" unicode="&#xf6cb;" horiz-adv-x="829" 
d="M727 1595q0 -53 -36.5 -90t-88.5 -37t-89.5 37t-37.5 90t37.5 90t89.5 37t88.5 -37t36.5 -90zM356 1595q0 -53 -36.5 -90t-88.5 -37q-53 0 -90 37t-37 90t37 90t90 37q52 0 88.5 -37t36.5 -90z" />
    <glyph glyph-name="Grave" unicode="&#xf6ce;" horiz-adv-x="829" 
d="M610 1462l-460 185l88 180l442 -238z" />
    <glyph glyph-name="Hungarumlaut" unicode="&#xf6cf;" horiz-adv-x="829" 
d="M725 1804l-154 -352l-161 55l118 369zM422 1804l-154 -352l-164 55l119 369z" />
    <glyph glyph-name="Macron" unicode="&#xf6d0;" horiz-adv-x="829" 
d="M758 1497h-688v152h688v-152z" />
    <glyph glyph-name="one.fitted" unicode="&#xf6dc;" horiz-adv-x="845" 
d="M690 0h-233v1092l-314 -209l-110 166l473 317h184v-1366z" />
    <glyph glyph-name="Lslashsmall" unicode="&#xf6f9;" horiz-adv-x="980" 
d="M899 0h-668v375l-104 -74l-104 143l208 150v479h232v-336l158 111l98 -148l-256 -178v-340h436v-182z" />
    <glyph glyph-name="OEsmall" unicode="&#xf6fa;" horiz-adv-x="1556" 
d="M1454 0h-678q-96 0 -153.5 3.5t-133 17t-135.5 45.5t-112 84q-152 152 -152 378q0 121 43.5 219.5t110.5 165.5q55 55 121.5 89.5t147.5 48.5t141.5 18t156.5 4h631v-178h-453v-254h424v-174h-424v-285h465v-182zM764 174v725h-27q-217 0 -321 -104q-94 -94 -94 -271
q0 -164 90 -254q60 -60 134.5 -78t198.5 -18h19z" />
    <glyph glyph-name="Scaronsmall" unicode="&#xf6fd;" horiz-adv-x="948" 
d="M850 313q0 -151 -111.5 -245.5t-294.5 -94.5q-77 0 -148.5 17t-118.5 42t-73 42.5t-38 29.5l100 146l8 -6q9 -5 17 -10t21.5 -13t27.5 -14.5t31.5 -14.5t36 -14t38 -11t41.5 -8t43 -3q95 0 143 40t48 101q0 47 -33 80q-31 31 -107.5 60t-160.5 65t-132 84q-84 84 -84 200
q0 139 107.5 224.5t275.5 85.5q77 0 145 -16t111 -39t65.5 -39.5t31.5 -26.5l-103 -141q-2 1 -16.5 10.5t-21 13.5t-23.5 14t-28.5 15t-31 12.5t-36 11t-38 6.5t-42.5 3q-80 0 -127 -34.5t-47 -84.5q0 -40 28 -68q24 -24 102.5 -53.5t169.5 -71t146 -96.5q78 -78 78 -199z
M821 1436l-336 -240l-335 248l79 112l256 -145l256 143z" />
    <glyph glyph-name="Zcaronsmall" unicode="&#xf6ff;" horiz-adv-x="1021" 
d="M924 0h-826v150l533 745h-506v178h782v-158l-520 -733h537v-182zM852 1436l-336 -240l-336 248l80 112l256 -145l256 143z" />
    <glyph glyph-name="ampersandsmall" unicode="&#xf726;" horiz-adv-x="1222" 
d="M1118 -4l-39 -2q-70 0 -123.5 15t-78.5 32t-56 45l-9 -8q-10 -7 -19.5 -14t-28 -18t-37 -20.5t-45.5 -19.5t-55 -17t-63 -11.5t-72 -4.5q-166 0 -279 96.5t-113 243.5q0 125 86 211q62 62 138 90q-109 109 -109 209q0 120 97 196.5t237 76.5q134 0 216.5 -66.5
t82.5 -183.5q0 -32 -8.5 -61t-20 -50.5t-32.5 -43t-36 -34.5t-42.5 -28.5t-40 -21.5t-38.5 -18t-30 -14l221 -233q65 81 72 248h178q1 -71 -12 -137t-34.5 -112.5t-39 -75t-33.5 -46.5q32 -30 67.5 -45.5t98.5 -15.5v-162zM655 844q0 38 -27 66t-81 28q-63 0 -95 -33
t-32 -78q0 -22 13 -47.5t25.5 -41t41.5 -48.5q1 1 14.5 7l22.5 10t24.5 13.5t27 17.5t25 20.5t21.5 25t14 28t6 32.5zM696 211l-260 281l-12 -6q-11 -7 -19.5 -13t-23 -17t-25.5 -24t-21.5 -30t-16 -38t-5.5 -45q0 -69 53 -118t146 -49q110 0 184 59z" />
    <glyph glyph-name="zerooldstyle" unicode="&#xf730;" horiz-adv-x="1294" 
d="M1198 541q0 -255 -153.5 -411.5t-397.5 -156.5q-243 0 -397 157.5t-154 406.5q0 248 153.5 403.5t399.5 155.5q244 0 396.5 -155.5t152.5 -399.5zM965 543q0 163 -92 270t-234 107q-137 0 -223 -108.5t-86 -279.5q0 -168 92 -274t229 -106q103 0 175.5 54t105.5 140.5
t33 196.5z" />
    <glyph glyph-name="oneoldstyle" unicode="&#xf731;" horiz-adv-x="741" 
d="M592 0h-230v823l-256 -166l-106 148l414 268h178v-1073z" />
    <glyph glyph-name="twooldstyle" unicode="&#xf732;" horiz-adv-x="905" 
d="M827 0h-792v158q37 26 177 143t224 203q68 70 105 129t37 123q0 70 -50 113.5t-127 43.5q-125 0 -251 -118l-117 129q9 12 22 26t49.5 42.5t77 50t105 38.5t133.5 17q172 0 278.5 -95t106.5 -241q0 -94 -44.5 -170.5t-123.5 -157.5q-37 -38 -85.5 -82.5t-84 -73
t-74.5 -60t-45 -36.5h479v-182z" />
    <glyph glyph-name="threeoldstyle" unicode="&#xf733;" horiz-adv-x="927" 
d="M866 145q0 -180 -129 -293.5t-342 -113.5q-88 0 -165.5 18.5t-126.5 46.5t-75.5 48t-37.5 34l108 140q2 -1 14 -10.5t24 -17.5t31.5 -20t41 -21t47.5 -17.5t57.5 -13.5t63.5 -5q121 0 191.5 60t70.5 155q0 78 -55 133q-43 43 -103.5 59.5t-171.5 16.5h-41v176h39
q102 0 162 19.5t100 60.5q47 47 47 121q0 80 -59.5 136t-161.5 56q-135 0 -268 -116l-117 131q6 9 22 24.5t54 42t83 48.5t113.5 38.5t141.5 16.5q181 0 296.5 -103t115.5 -260q0 -100 -60 -186t-172 -111q126 -20 194 -100t68 -193z" />
    <glyph glyph-name="fouroldstyle" unicode="&#xf734;" horiz-adv-x="1058" 
d="M1059 27h-180v-273h-222v273h-626v151l608 895h240v-872h180v-174zM657 201v600l-395 -600h395z" />
    <glyph glyph-name="fiveoldstyle" unicode="&#xf735;" horiz-adv-x="1038" 
d="M952 201q0 -212 -133.5 -337.5t-361.5 -125.5q-69 0 -132.5 12t-104.5 28t-76.5 36.5t-49.5 31.5t-22 19l106 143l6 -5q7 -5 14 -9.5t19 -12t25.5 -14t30 -13.5t36 -13t40.5 -11t46 -7.5t51 -2.5q135 0 206 75.5t71 190.5q0 46 -14.5 89.5t-45 83t-86 63.5t-128.5 24
q-129 0 -218 -67l-79 49v645h749v-180h-541v-301q62 31 162 31q194 0 312 -117t118 -305z" />
    <glyph glyph-name="sixoldstyle" unicode="&#xf736;" horiz-adv-x="1134" 
d="M1049 442q0 -205 -127.5 -337t-331.5 -132q-120 0 -215 50t-155.5 138.5t-92 206t-31.5 255.5q0 119 21 224.5t64.5 195t107 154t153.5 100.5t199 36q69 0 132 -12.5t102 -27.5t74 -37t47.5 -32.5t23.5 -21.5l-98 -145q-124 94 -271 94q-78 0 -140 -28.5t-99.5 -74
t-62.5 -108t-34.5 -123.5t-9.5 -127q38 92 130.5 141.5t195.5 49.5q187 0 302.5 -124t115.5 -315zM836 434q0 118 -63 192t-169 74q-112 0 -183 -78t-71 -194q0 -120 69.5 -196t178.5 -76q107 0 172.5 78.5t65.5 199.5z" />
    <glyph glyph-name="sevenoldstyle" unicode="&#xf737;" horiz-adv-x="958" 
d="M913 901l-501 -1147h-236l516 1135h-694v184h915v-172z" />
    <glyph glyph-name="eightoldstyle" unicode="&#xf738;" horiz-adv-x="1120" 
d="M1024 367q0 -183 -126 -288.5t-337 -105.5q-208 0 -336.5 107t-128.5 289q0 126 69 206t163 105q-81 27 -139 98.5t-58 182.5q0 167 118.5 268.5t309.5 101.5q193 0 311.5 -100.5t118.5 -265.5q0 -62 -17.5 -113t-47.5 -84.5t-62 -54.5t-67 -33q100 -31 164.5 -108
t64.5 -205zM784 956q0 83 -60.5 140t-162.5 57q-100 0 -161.5 -57.5t-61.5 -137.5q0 -87 61 -144.5t166 -57.5q100 0 159.5 57.5t59.5 142.5zM817 373q0 97 -67.5 157t-188.5 60q-124 0 -191 -59.5t-67 -155.5q0 -97 69 -160t191 -63q121 0 187.5 61.5t66.5 159.5z" />
    <glyph glyph-name="nineoldstyle" unicode="&#xf739;" horiz-adv-x="1134" 
d="M1038 446q0 -150 -33.5 -277t-99 -225t-171 -153t-240.5 -55q-69 0 -132 12.5t-102 27.5t-74 37t-47.5 32.5t-23.5 21.5l98 145q124 -94 270 -94q78 0 140 28.5t99.5 74t62.5 108t34.5 123.5t9.5 127q-38 -92 -130 -141.5t-195 -49.5q-187 0 -302.5 124t-115.5 315
q0 205 127.5 337t331.5 132q120 0 215 -50t155 -138.5t91.5 -206t31.5 -255.5zM784 641q0 120 -69 196t-178 76q-107 0 -172.5 -78.5t-65.5 -199.5q0 -119 62.5 -192.5t168.5 -73.5q112 0 183 78t71 194z" />
    <glyph glyph-name="Asmall" unicode="&#xf761;" horiz-adv-x="1118" 
d="M1094 0h-238l-90 246h-426l-88 -246h-227l415 1073h236zM705 414l-154 417l-152 -417h306z" />
    <glyph glyph-name="Bsmall" unicode="&#xf762;" horiz-adv-x="1032" 
d="M936 324q0 -139 -88 -220q-39 -37 -84.5 -59t-106.5 -31.5t-107 -11.5t-130 -2h-277v1073h346q115 0 193 -17.5t135 -74.5q48 -48 67 -96t19 -109q0 -62 -21.5 -108t-55.5 -69.5t-57 -33t-46 -14.5q17 -2 39.5 -7.5t54.5 -22t57.5 -40t43.5 -65t18 -92.5zM680 764
q0 54 -33 92q-19 21 -52.5 31.5t-57 12t-68.5 1.5h-14h-93v-278h84q144 0 195 47q39 36 39 94zM709 324q0 57 -37 94q-23 23 -63.5 34t-67.5 12t-88 1h-91v-291h115q78 0 120.5 10.5t74.5 42.5q37 37 37 97z" />
    <glyph glyph-name="Csmall" unicode="&#xf763;" horiz-adv-x="1085" 
d="M1042 111q-171 -138 -403 -138q-153 0 -276.5 64t-198 191t-74.5 296q0 132 45.5 241t123.5 180.5t182.5 111t222.5 39.5q82 0 152.5 -16.5t116.5 -43t66 -41.5t33 -28l-102 -146q-121 84 -254 84q-151 0 -250.5 -99.5t-99.5 -266.5t92 -269t244 -102q146 0 284 92z" />
    <glyph glyph-name="Dsmall" unicode="&#xf764;" horiz-adv-x="1214" 
d="M1124 545q0 -122 -43 -220t-110 -165q-45 -45 -100.5 -76t-106 -47t-120 -25t-118 -10.5t-123.5 -1.5h-260v1073h295q77 0 122.5 -1.5t111.5 -9.5t111.5 -23t96.5 -44t93 -71q151 -151 151 -379zM893 549q0 164 -90 254q-60 60 -135 78t-199 18h-98v-725h106
q217 0 322 105q94 94 94 270z" />
    <glyph glyph-name="Esmall" unicode="&#xf765;" horiz-adv-x="931" 
d="M829 0h-686v1073h674v-178h-448v-254h422v-174h-422v-285h460v-182z" />
    <glyph glyph-name="Fsmall" unicode="&#xf766;" horiz-adv-x="899" 
d="M805 895h-434v-254h411v-174h-411v-467h-228v1073h662v-178z" />
    <glyph glyph-name="Gsmall" unicode="&#xf767;" horiz-adv-x="1159" 
d="M1042 74q-1 0 -17 -9t-32.5 -16.5t-44 -19t-59 -20.5t-69 -17.5t-83 -13.5t-92.5 -5q-157 0 -281.5 64t-199 191t-74.5 296q0 132 45 241t123 180.5t182 111t222 39.5q66 0 127.5 -12.5t100 -28t73 -36.5t47.5 -32t22 -20l-102 -146q-121 84 -256 84q-152 0 -252 -100
t-100 -266q0 -177 94 -275t252 -98q69 0 161 24v197h-223v174h436v-487z" />
    <glyph glyph-name="Hsmall" unicode="&#xf768;" horiz-adv-x="1169" 
d="M1026 0h-231v467h-420v-467h-232v1073h232v-422h420v422h231v-1073z" />
    <glyph glyph-name="Ismall" unicode="&#xf769;" horiz-adv-x="518" 
d="M375 0h-232v1073h232v-1073z" />
    <glyph glyph-name="Jsmall" unicode="&#xf76a;" horiz-adv-x="710" 
d="M582 373q0 -61 -1.5 -93t-8.5 -78.5t-25.5 -81.5t-48.5 -65q-82 -82 -230 -82q-64 0 -125 18.5t-88.5 34.5t-36.5 25l80 152q1 0 7.5 -4t13 -7t16.5 -7.5t21 -8t23.5 -7t26 -5.5t27.5 -2q54 0 82 28q22 22 28.5 55t6.5 99v729h232v-700z" />
    <glyph glyph-name="Ksmall" unicode="&#xf76b;" horiz-adv-x="1079" 
d="M1057 0h-285l-397 498v-498h-232v1073h232v-500l399 500h260l-434 -524z" />
    <glyph glyph-name="Lsmall" unicode="&#xf76c;" horiz-adv-x="892" 
d="M811 0h-668v1073h232v-891h436v-182z" />
    <glyph glyph-name="Msmall" unicode="&#xf76d;" horiz-adv-x="1529" 
d="M1415 0h-223l-70 729l-272 -729h-186l-275 727l-63 -727h-211l114 1073h242l297 -770l287 770h239z" />
    <glyph glyph-name="Nsmall" unicode="&#xf76e;" horiz-adv-x="1169" 
d="M1026 0h-203l-471 725l6 -725h-215v1073h215l459 -715l-6 715h215v-1073z" />
    <glyph glyph-name="Osmall" unicode="&#xf76f;" horiz-adv-x="1282" 
d="M1192 541q0 -255 -153.5 -411.5t-397.5 -156.5q-243 0 -397 157.5t-154 406.5q0 248 153.5 403.5t399.5 155.5q244 0 396.5 -155.5t152.5 -399.5zM954 543q0 162 -90 267t-231 105q-136 0 -220.5 -107t-84.5 -276q0 -166 90.5 -271t226.5 -105q151 0 230 109.5t79 277.5z
" />
    <glyph glyph-name="Psmall" unicode="&#xf770;" horiz-adv-x="1019" 
d="M928 743q0 -142 -97 -239q-68 -68 -155.5 -88.5t-212.5 -20.5h-92v-395h-228v1073h314q137 0 226 -18t151 -80q94 -94 94 -232zM700 741q0 70 -45 115q-20 20 -55 30t-59.5 11.5t-67.5 1.5h-102v-332h69q91 0 138 8.5t75 36.5q47 47 47 129z" />
    <glyph glyph-name="Qsmall" unicode="&#xf771;" horiz-adv-x="1292" 
d="M1202 -203q-87 -24 -217 -24q-155 0 -270 50t-203 165q-75 14 -146 53t-134.5 103.5t-102.5 166.5t-39 226q0 248 153.5 403.5t399.5 155.5q244 0 396.5 -155.5t152.5 -399.5q0 -121 -36.5 -222t-96.5 -166t-129.5 -105t-143.5 -54q72 -62 244 -62q43 0 144 15zM954 543
q0 162 -90 267t-231 105q-136 0 -220.5 -107t-84.5 -276q0 -166 90.5 -271t226.5 -105q151 0 230 109.5t79 277.5z" />
    <glyph glyph-name="Rsmall" unicode="&#xf772;" horiz-adv-x="1040" 
d="M997 0h-245l-134 283q-17 37 -31 61.5t-30.5 41t-28.5 25.5t-34.5 13t-39.5 5t-51 1h-34v-430h-226v1073h285q149 0 209 -11q109 -21 176 -87q90 -90 90 -215q0 -116 -69 -185q-57 -60 -168 -77q23 -2 42.5 -10t36.5 -23.5t29.5 -28.5t26 -37t20 -36.5t19.5 -39.5t16 -34
zM678 756q0 59 -39 98q-7 7 -15 12.5t-15.5 10t-18 7.5t-17 5.5t-20 4t-18.5 2t-20 1t-19 0.5h-20.5h-18.5h-88v-297h53q54 0 85 2t68.5 14.5t61.5 36.5q41 41 41 103z" />
    <glyph glyph-name="Ssmall" unicode="&#xf773;" horiz-adv-x="948" 
d="M850 313q0 -151 -111.5 -245.5t-294.5 -94.5q-77 0 -148.5 17t-118.5 42t-73 42.5t-38 29.5l100 146l8 -6q9 -5 17 -10t21.5 -13t27.5 -14.5t31.5 -14.5t36 -14t38 -11t41.5 -8t43 -3q95 0 143 40t48 101q0 47 -33 80q-31 31 -107.5 60t-160.5 65t-132 84q-84 84 -84 200
q0 139 107.5 224.5t275.5 85.5q77 0 145 -16t111 -39t65.5 -39.5t31.5 -26.5l-103 -141q-2 1 -16.5 10.5t-21 13.5t-23.5 14t-28.5 15t-31 12.5t-36 11t-38 6.5t-42.5 3q-80 0 -127 -34.5t-47 -84.5q0 -40 28 -68q24 -24 102.5 -53.5t169.5 -71t146 -96.5q78 -78 78 -199z
" />
    <glyph glyph-name="Tsmall" unicode="&#xf774;" horiz-adv-x="974" 
d="M920 895h-316v-895h-231v895h-318v178h865v-178z" />
    <glyph glyph-name="Usmall" unicode="&#xf775;" horiz-adv-x="1138" 
d="M1010 516q0 -180 -20 -270.5t-85 -155.5q-117 -117 -336 -117q-102 0 -190.5 29t-145.5 86q-27 27 -45.5 52t-30 57.5t-17.5 50t-8.5 60.5t-2.5 55v65v645h231v-674q0 -43 2 -67.5t14.5 -58t37.5 -58.5q53 -53 164 -53q98 0 149 51q35 32 45 69.5t12 98.5v102v590h226
v-557z" />
    <glyph glyph-name="Vsmall" unicode="&#xf776;" horiz-adv-x="1124" 
d="M1079 1073l-405 -1073h-228l-401 1073h240l280 -813l287 813h227z" />
    <glyph glyph-name="Wsmall" unicode="&#xf777;" horiz-adv-x="1597" 
d="M1524 1073l-279 -1073h-244l-198 788l-211 -788h-244l-274 1073h231l172 -778l209 778h242l202 -776l179 776h215z" />
    <glyph glyph-name="Xsmall" unicode="&#xf778;" horiz-adv-x="1081" 
d="M1036 0h-254l-245 381l-248 -381h-244l373 555l-350 518h256l221 -352l229 352h242l-352 -516z" />
    <glyph glyph-name="Ysmall" unicode="&#xf779;" horiz-adv-x="1044" 
d="M1001 1073l-364 -645v-428h-229v428l-365 645h242l250 -461l245 461h221z" />
    <glyph glyph-name="Zsmall" unicode="&#xf77a;" horiz-adv-x="1021" 
d="M924 0h-826v150l533 745h-506v178h782v-158l-520 -733h537v-182z" />
    <glyph glyph-name="Agravesmall" unicode="&#xf7e0;" horiz-adv-x="1118" 
d="M1094 0h-238l-90 246h-426l-88 -246h-227l415 1073h236zM705 414l-154 417l-152 -417h306zM827 1264l-69 -127l-461 184l88 180z" />
    <glyph glyph-name="Aacutesmall" unicode="&#xf7e1;" horiz-adv-x="1118" 
d="M1094 0h-238l-90 246h-426l-88 -246h-227l415 1073h236zM705 414l-154 417l-152 -417h306zM813 1321l-461 -184l-69 127l442 237z" />
    <glyph glyph-name="Acircumflexsmall" unicode="&#xf7e2;" horiz-adv-x="1118" 
d="M1094 0h-238l-90 246h-426l-88 -246h-227l415 1073h236zM705 414l-154 417l-152 -417h306zM887 1255l-80 -112l-256 145l-256 -143l-80 119l336 239z" />
    <glyph glyph-name="Atildesmall" unicode="&#xf7e3;" horiz-adv-x="1118" 
d="M1094 0h-238l-90 246h-426l-88 -246h-227l415 1073h236zM705 414l-154 417l-152 -417h306zM905 1333q-131 -139 -239 -139q-46 0 -117.5 29.5t-106.5 29.5q-18 0 -40 -9t-35 -17t-35.5 -24t-24.5 -17l-100 110l17.5 17.5t26 24.5t29.5 25t37 26.5t38.5 20.5t44.5 16.5
t46 5.5q46 0 116.5 -29t105.5 -29q63 0 139 70z" />
    <glyph glyph-name="Adieresissmall" unicode="&#xf7e4;" horiz-adv-x="1118" 
d="M1094 0h-238l-90 246h-426l-88 -246h-227l415 1073h236zM705 414l-154 417l-152 -417h306zM862 1292q0 -53 -36.5 -90t-88.5 -37q-53 0 -90 37.5t-37 89.5t37 89.5t90 37.5q52 0 88.5 -37t36.5 -90zM492 1292q0 -53 -36.5 -90t-88.5 -37q-53 0 -90 37.5t-37 89.5t37 89.5
t90 37.5q52 0 88.5 -37t36.5 -90z" />
    <glyph glyph-name="Aringsmall" unicode="&#xf7e5;" horiz-adv-x="1118" 
d="M1094 0h-238l-90 246h-426l-88 -246h-227l415 1073h236zM705 414l-154 417l-152 -417h306zM768 1384q0 -89 -63 -153t-152 -64t-153 64t-64 153q0 90 64 154t153 64q90 0 152.5 -64t62.5 -154zM653 1384q0 42 -30.5 72.5t-71.5 30.5t-70.5 -30.5t-29.5 -72.5
q0 -41 29.5 -70.5t70.5 -29.5q43 0 72.5 29.5t29.5 70.5z" />
    <glyph glyph-name="AEsmall" unicode="&#xf7e6;" horiz-adv-x="1562" 
d="M1460 0h-686v250h-360l-142 -250h-231l643 1073h764v-178h-449v-254h422v-174h-422v-285h461v-182zM774 420v469l-264 -469h264z" />
    <glyph glyph-name="Ccedillasmall" unicode="&#xf7e7;" horiz-adv-x="1085" 
d="M1042 111q-171 -138 -399 -138l-10 -69q15 6 45 6q82 0 133 -48t51 -126q0 -86 -63 -138.5t-146 -52.5q-54 0 -98 16.5t-63 32.5l40 84q42 -28 107 -28q55 0 77.5 25t22.5 57q0 34 -24 54.5t-62 20.5q-50 0 -86 -24l-63 35l28 164q-196 33 -319 176t-123 366
q0 132 45.5 241t123.5 180.5t182.5 111t222.5 39.5q82 0 152.5 -16.5t116.5 -43t66 -41.5t33 -28l-102 -146q-121 84 -254 84q-151 0 -250.5 -99.5t-99.5 -266.5t92 -269t244 -102q146 0 284 92z" />
    <glyph glyph-name="Egravesmall" unicode="&#xf7e8;" horiz-adv-x="931" 
d="M829 0h-686v1073h674v-178h-448v-254h422v-174h-422v-285h460v-182zM756 1319l-70 -127l-463 184l88 178z" />
    <glyph glyph-name="Eacutesmall" unicode="&#xf7e9;" horiz-adv-x="931" 
d="M829 0h-686v1073h674v-178h-448v-254h422v-174h-422v-285h460v-182zM752 1376l-463 -184l-70 127l445 235z" />
    <glyph glyph-name="Ecircumflexsmall" unicode="&#xf7ea;" horiz-adv-x="931" 
d="M829 0h-686v1073h674v-178h-448v-254h422v-174h-422v-285h460v-182zM817 1307l-80 -113l-256 145l-256 -143l-80 119l336 239z" />
    <glyph glyph-name="Edieresissmall" unicode="&#xf7eb;" horiz-adv-x="931" 
d="M829 0h-686v1073h674v-178h-448v-254h422v-174h-422v-285h460v-182zM793 1346q0 -53 -36.5 -90t-88.5 -37t-89.5 37.5t-37.5 89.5t37.5 89.5t89.5 37.5t88.5 -37t36.5 -90zM424 1346q0 -53 -36.5 -90t-88.5 -37q-53 0 -90 37.5t-37 89.5t37 89.5t90 37.5q52 0 88.5 -37
t36.5 -90z" />
    <glyph glyph-name="Igravesmall" unicode="&#xf7ec;" horiz-adv-x="518" 
d="M375 0h-232v1073h232v-1073zM526 1319l-69 -127l-463 184l88 178z" />
    <glyph glyph-name="Iacutesmall" unicode="&#xf7ed;" horiz-adv-x="518" 
d="M375 0h-232v1073h232v-1073zM524 1376l-463 -184l-69 127l444 235z" />
    <glyph glyph-name="Icircumflexsmall" unicode="&#xf7ee;" horiz-adv-x="518" 
d="M375 0h-232v1073h232v-1073zM594 1307l-80 -113l-256 145l-256 -143l-80 119l336 239z" />
    <glyph glyph-name="Idieresissmall" unicode="&#xf7ef;" horiz-adv-x="518" 
d="M375 0h-232v1073h232v-1073zM569 1346q0 -53 -36.5 -90t-88.5 -37t-89.5 37.5t-37.5 89.5t37.5 89.5t89.5 37.5t88.5 -37t36.5 -90zM201 1346q0 -53 -36.5 -90t-88.5 -37t-89.5 37.5t-37.5 89.5t37.5 89.5t89.5 37.5t88.5 -37t36.5 -90z" />
    <glyph glyph-name="Ethsmall" unicode="&#xf7f0;" horiz-adv-x="1214" 
d="M1206 545q0 -122 -43 -220t-110 -165q-45 -45 -100.5 -76t-106 -47t-120 -25t-118 -10.5t-123.5 -1.5h-260v471h-166v166h166v436h295q77 0 122.5 -1.5t111.5 -9.5t111.5 -23t96.5 -44t93 -71q151 -151 151 -379zM975 549q0 164 -90 254q-60 60 -135 78t-199 18h-98v-262
h270v-166h-270v-297h106q217 0 322 105q94 94 94 270z" />
    <glyph glyph-name="Ntildesmall" unicode="&#xf7f1;" horiz-adv-x="1169" 
d="M1026 0h-203l-471 725l6 -725h-215v1073h215l459 -715l-6 715h215v-1073zM924 1372q-131 -139 -240 -139q-46 0 -117 29.5t-106 29.5q-18 0 -40 -9t-35 -17t-35.5 -24t-24.5 -17l-101 110q2 2 15.5 15t21.5 20t25 21.5t30 23.5t32.5 20.5t36.5 18t38 11.5t41 5
q46 0 116 -28.5t105 -28.5q63 0 139 70z" />
    <glyph glyph-name="Ogravesmall" unicode="&#xf7f2;" horiz-adv-x="1282" 
d="M1192 541q0 -255 -153.5 -411.5t-397.5 -156.5q-243 0 -397 157.5t-154 406.5q0 248 153.5 403.5t399.5 155.5q244 0 396.5 -155.5t152.5 -399.5zM954 543q0 162 -90 267t-231 105q-136 0 -220.5 -107t-84.5 -276q0 -166 90.5 -271t226.5 -105q151 0 230 109.5t79 277.5z
M920 1319l-70 -127l-463 184l88 178z" />
    <glyph glyph-name="Oacutesmall" unicode="&#xf7f3;" horiz-adv-x="1282" 
d="M1192 541q0 -255 -153.5 -411.5t-397.5 -156.5q-243 0 -397 157.5t-154 406.5q0 248 153.5 403.5t399.5 155.5q244 0 396.5 -155.5t152.5 -399.5zM954 543q0 162 -90 267t-231 105q-136 0 -220.5 -107t-84.5 -276q0 -166 90.5 -271t226.5 -105q151 0 230 109.5t79 277.5z
M901 1376l-463 -184l-69 127l444 235z" />
    <glyph glyph-name="Ocircumflexsmall" unicode="&#xf7f4;" horiz-adv-x="1282" 
d="M1192 541q0 -255 -153.5 -411.5t-397.5 -156.5q-243 0 -397 157.5t-154 406.5q0 248 153.5 403.5t399.5 155.5q244 0 396.5 -155.5t152.5 -399.5zM954 543q0 162 -90 267t-231 105q-136 0 -220.5 -107t-84.5 -276q0 -166 90.5 -271t226.5 -105q151 0 230 109.5t79 277.5z
M977 1307l-80 -113l-256 145l-256 -143l-80 119l336 239z" />
    <glyph glyph-name="Otildesmall" unicode="&#xf7f5;" horiz-adv-x="1282" 
d="M1192 541q0 -255 -153.5 -411.5t-397.5 -156.5q-243 0 -397 157.5t-154 406.5q0 248 153.5 403.5t399.5 155.5q244 0 396.5 -155.5t152.5 -399.5zM954 543q0 162 -90 267t-231 105q-136 0 -220.5 -107t-84.5 -276q0 -166 90.5 -271t226.5 -105q151 0 230 109.5t79 277.5z
M989 1372q-131 -139 -239 -139q-46 0 -117.5 29.5t-106.5 29.5q-18 0 -40 -9t-35 -17t-35.5 -24t-24.5 -17l-100 110l17 17q18 17 27 24.5t29.5 24.5t37 26.5t38 21t44.5 16.5t46 5q46 0 116.5 -28.5t105.5 -28.5q63 0 139 70z" />
    <glyph glyph-name="Odieresissmall" unicode="&#xf7f6;" horiz-adv-x="1282" 
d="M1192 541q0 -255 -153.5 -411.5t-397.5 -156.5q-243 0 -397 157.5t-154 406.5q0 248 153.5 403.5t399.5 155.5q244 0 396.5 -155.5t152.5 -399.5zM954 543q0 162 -90 267t-231 105q-136 0 -220.5 -107t-84.5 -276q0 -166 90.5 -271t226.5 -105q151 0 230 109.5t79 277.5z
M952 1346q0 -53 -36.5 -90t-88.5 -37q-53 0 -90 37.5t-37 89.5t37 89.5t90 37.5q52 0 88.5 -37t36.5 -90zM584 1346q0 -53 -36.5 -90t-88.5 -37q-53 0 -90 37.5t-37 89.5t37 89.5t90 37.5q52 0 88.5 -37t36.5 -90z" />
    <glyph glyph-name="Oslashsmall" unicode="&#xf7f8;" horiz-adv-x="1282" 
d="M1192 541q0 -255 -153.5 -411.5t-397.5 -156.5q-24 0 -47.5 1.5t-43.5 5t-35.5 6.5t-31 7.5t-23.5 7t-19.5 7t-12.5 4.5l-84 -139l-154 86l89 139q-14 11 -28 24t-46 54t-55 86.5t-41.5 119.5t-18.5 155q0 248 153.5 403.5t399.5 155.5q120 0 211 -39l80 137l153 -86
l-81 -137q186 -163 186 -430zM954 543q0 149 -67 235l-359 -600q10 -6 45.5 -14t71.5 -8q151 0 230 109.5t79 277.5zM758 889q-52 26 -125 26q-136 0 -220.5 -107t-84.5 -276q0 -71 18 -131t30.5 -80t20.5 -28z" />
    <glyph glyph-name="Ugravesmall" unicode="&#xf7f9;" horiz-adv-x="1138" 
d="M1010 516q0 -180 -20 -270.5t-85 -155.5q-117 -117 -336 -117q-102 0 -190.5 29t-145.5 86q-27 27 -45.5 52t-30 57.5t-17.5 50t-8.5 60.5t-2.5 55v65v645h231v-674q0 -43 2 -67.5t14.5 -58t37.5 -58.5q53 -53 164 -53q98 0 149 51q35 32 45 69.5t12 98.5v102v590h226
v-557zM836 1319l-70 -127l-463 184l88 178z" />
    <glyph glyph-name="Uacutesmall" unicode="&#xf7fa;" horiz-adv-x="1138" 
d="M1010 516q0 -180 -20 -270.5t-85 -155.5q-117 -117 -336 -117q-102 0 -190.5 29t-145.5 86q-27 27 -45.5 52t-30 57.5t-17.5 50t-8.5 60.5t-2.5 55v65v645h231v-674q0 -43 2 -67.5t14.5 -58t37.5 -58.5q53 -53 164 -53q98 0 149 51q35 32 45 69.5t12 98.5v102v590h226
v-557zM844 1376l-463 -184l-70 127l445 235z" />
    <glyph glyph-name="Ucircumflexsmall" unicode="&#xf7fb;" horiz-adv-x="1138" 
d="M1010 516q0 -180 -20 -270.5t-85 -155.5q-117 -117 -336 -117q-102 0 -190.5 29t-145.5 86q-27 27 -45.5 52t-30 57.5t-17.5 50t-8.5 60.5t-2.5 55v65v645h231v-674q0 -43 2 -67.5t14.5 -58t37.5 -58.5q53 -53 164 -53q98 0 149 51q35 32 45 69.5t12 98.5v102v590h226
v-557zM911 1307l-80 -113l-256 145l-256 -143l-79 119l335 239z" />
    <glyph glyph-name="Udieresissmall" unicode="&#xf7fc;" horiz-adv-x="1138" 
d="M1010 516q0 -180 -20 -270.5t-85 -155.5q-117 -117 -336 -117q-102 0 -190.5 29t-145.5 86q-27 27 -45.5 52t-30 57.5t-17.5 50t-8.5 60.5t-2.5 55v65v645h231v-674q0 -43 2 -67.5t14.5 -58t37.5 -58.5q53 -53 164 -53q98 0 149 51q35 32 45 69.5t12 98.5v102v590h226
v-557zM887 1346q0 -53 -36.5 -90t-88.5 -37t-89.5 37.5t-37.5 89.5t37.5 89.5t89.5 37.5t88.5 -37t36.5 -90zM518 1346q0 -53 -36.5 -90t-88.5 -37q-53 0 -90 37.5t-37 89.5t37 89.5t90 37.5q52 0 88.5 -37t36.5 -90z" />
    <glyph glyph-name="Yacutesmall" unicode="&#xf7fd;" horiz-adv-x="1044" 
d="M1001 1073l-364 -645v-428h-229v428l-365 645h242l250 -461l245 461h221zM809 1376l-463 -184l-70 127l445 235z" />
    <glyph glyph-name="Thornsmall" unicode="&#xf7fe;" horiz-adv-x="1019" 
d="M928 555q0 -143 -97 -240q-68 -68 -155 -88t-213 -20h-92v-207h-228v1073h228v-188h86q136 0 225.5 -18.5t151.5 -80.5q94 -94 94 -231zM700 553q0 70 -45 115q-20 20 -55 30t-59.5 11.5t-67.5 1.5h-102v-332h69q91 0 138 8.5t75 36.5q47 47 47 129z" />
    <glyph glyph-name="Ydieresissmall" unicode="&#xf7ff;" horiz-adv-x="1044" 
d="M1001 1073l-364 -645v-428h-229v428l-365 645h242l250 -461l245 461h221zM844 1346q0 -53 -36.5 -90t-88.5 -37q-53 0 -90 37.5t-37 89.5t37 89.5t90 37.5q52 0 88.5 -37t36.5 -90zM475 1346q0 -53 -36.5 -90t-88.5 -37t-89.5 37.5t-37.5 89.5t37.5 89.5t89.5 37.5
t88.5 -37t36.5 -90z" />
    <glyph glyph-name="Foundry" unicode="&#xf8ff;" horiz-adv-x="1855" 
d="M1759 795q0 -135 -41.5 -261.5t-118 -227.5t-178.5 -177t-229 -117t-264 -41q-171 0 -325 64.5t-265 174.5t-176.5 263t-65.5 322q0 170 65.5 323t177 263t265.5 174.5t324 64.5q171 0 325 -65t265 -175t176 -263t65 -322zM1571 797q0 172 -86 320t-234 234.5t-323 86.5
q-174 0 -322.5 -86t-235.5 -234t-87 -321q0 -118 38.5 -221t102 -175t135 -121.5t148.5 -78.5v413h-150v156h150v78q0 104 18.5 172t73.5 123q82 82 231 82q40 0 78.5 -7.5t65.5 -18t48.5 -22.5t31.5 -19.5t12 -10.5l-78 -131q-65 39 -131 39q-68 0 -103 -35
q-28 -28 -36.5 -67.5t-8.5 -102.5v-80h273v-156h-273v-454q2 0 8.5 -1t8.5 -1q132 0 251.5 51t205.5 137t137 204t51 247z" />
    <glyph glyph-name="Ring" unicode="&#xfff3;" horiz-adv-x="829" 
d="M631 1681q0 -89 -63 -153t-152 -64t-153 64t-64 153q0 90 63.5 153.5t153.5 63.5t152.5 -63.5t62.5 -153.5zM516 1681q0 43 -30 73t-72 30q-41 0 -71 -31t-30 -72t30 -70.5t71 -29.5q43 0 72.5 29.5t29.5 70.5z" />
    <glyph glyph-name="dollar.fitted" horiz-adv-x="1128" 
d="M1020 397q0 -88 -30 -161t-82 -121.5t-116 -79t-137 -41.5v-211h-170v203q-65 4 -129 19.5t-109 34.5t-83 39.5t-56.5 34t-23.5 19.5l111 162q1 -1 17.5 -11t31 -18.5t39 -21.5t50.5 -23t56.5 -19.5t65.5 -14.5t69 -5q118 0 183 53t65 144q0 28 -8 52.5t-27 45t-35.5 35
t-50 31t-52.5 25t-60.5 25t-57.5 23.5q-119 49 -171 82q-183 115 -183 306q0 82 31 149.5t83 112t114 71.5t130 37v187h170v-183q60 -4 118 -19.5t96 -33t71.5 -38.5t46.5 -31.5t19 -16.5l-113 -147q-11 9 -28.5 20t-56.5 32t-93 34.5t-109 13.5q-106 0 -173.5 -47.5
t-67.5 -122.5q0 -25 5.5 -45t22.5 -38.5t32.5 -31t52 -30.5t64 -29.5t83.5 -34.5q52 -21 86 -36t79.5 -39t75 -46.5t61.5 -54t50.5 -65.5t30.5 -79t12 -96z" />
    <glyph glyph-name="cent.fitted" horiz-adv-x="980" 
d="M938 113q-4 -7 -36.5 -27.5t-103 -48t-143.5 -35.5v-215h-170v215q-189 28 -301 165.5t-112 340.5q0 205 114 349.5t299 180.5v201h170v-195q70 -6 135 -31.5t96.5 -47t37.5 -31.5l-93 -141q-110 69 -225 69q-94 0 -166 -49t-107.5 -125t-35.5 -164q0 -152 80 -246
t219 -94q28 0 57 4t53 10.5t45.5 14t39 16t29.5 14.5t21 11l9 6z" />
    <glyph glyph-name="sterling.fitted" horiz-adv-x="1093" 
d="M1063 1243l-111 -137q-1 1 -15.5 11t-25 16.5t-30.5 18t-39.5 19.5t-44 16.5t-52 12.5t-55.5 4q-120 0 -189 -75t-69 -211q0 -37 3 -74.5t7 -70t4 -34.5h398v-182h-377q4 -28 4 -78q0 -204 -98 -282h663v-197h-987v178q105 21 151 90t46 189q0 40 -6 100h-187v182h168
q-14 103 -14 179q0 224 125.5 351.5t345.5 127.5q70 0 134 -15t105.5 -34.5t76 -44t49 -38.5t20.5 -22z" />
    <glyph glyph-name="florin.fitted" horiz-adv-x="1161" 
d="M1155 1331l-63 -166q-88 35 -150 35q-47 0 -76.5 -12.5t-51 -47t-34 -76t-28.5 -118.5l-43 -207h299l-39 -186h-301l-113 -573q-14 -70 -20 -98.5t-23 -88.5t-38.5 -100t-49.5 -68q-98 -98 -250 -98q-62 0 -123 16t-85.5 28t-41.5 23l68 168q77 -34 143 -34q73 0 109 36
q27 27 43 77.5t39 162.5l112 549h-258l39 186h260l45 230q25 130 51 203.5t74 121.5q103 103 258 103q133 0 248 -66z" />
    <glyph glyph-name="yen.fitted" horiz-adv-x="1157" 
d="M1120 1366l-350 -625h217v-155h-295v-127h293v-154h-293v-305h-227v305h-303v154h303v127h-305v155h219l-342 625h244l307 -606l311 606h221z" />
    <glyph glyph-name="germandblssmall" horiz-adv-x="1853" 
d="M850 313q0 -151 -111.5 -245.5t-294.5 -94.5q-77 0 -148.5 17t-118.5 42t-73 42.5t-38 29.5l100 146l8 -6q9 -5 17 -10t21.5 -13t27.5 -14.5t31.5 -14.5t36 -14t38 -11t41.5 -8t43 -3q95 0 143 40t48 101q0 47 -33 80q-31 31 -107.5 60t-160.5 65t-132 84q-84 84 -84 200
q0 139 107.5 224.5t275.5 85.5q77 0 145 -16t111 -39t65.5 -39.5t31.5 -26.5l-103 -141q-2 1 -16.5 10.5t-21 13.5t-23.5 14t-28.5 15t-31 12.5t-36 11t-38 6.5t-42.5 3q-80 0 -127 -34.5t-47 -84.5q0 -40 28 -68q24 -24 102.5 -53.5t169.5 -71t146 -96.5q78 -78 78 -199z
M1755 313q0 -151 -111 -245.5t-294 -94.5q-77 0 -148.5 17t-119 42t-73.5 42.5t-38 29.5l100 146l9 -6l16 -10t21.5 -13t27.5 -14.5t31.5 -14.5t36 -14t38 -11t41.5 -8t43 -3q95 0 143 40t48 101q0 47 -33 80q-31 31 -107.5 60t-160 65t-131.5 84q-84 84 -84 200
q0 139 107.5 224.5t275.5 85.5q77 0 145 -16t110.5 -39.5t65 -39.5t31.5 -26l-103 -141q-2 1 -16.5 10.5t-21 13.5t-23.5 14t-28.5 15t-31 12.5t-36 11t-38 6.5t-42.5 3q-80 0 -127 -34.5t-47 -84.5q0 -39 29 -68q20 -20 74 -43.5t110.5 -43t123 -55.5t109.5 -79
q78 -78 78 -199z" />
    <glyph glyph-name="dotlessismall" horiz-adv-x="518" 
d="M375 0h-232v1073h232v-1073z" />
    <glyph glyph-name="germandbls.small" horiz-adv-x="1853" 
d="M850 313q0 -151 -111.5 -245.5t-294.5 -94.5q-77 0 -148.5 17t-118.5 42t-73 42.5t-38 29.5l100 146l8 -6q9 -5 17 -10t21.5 -13t27.5 -14.5t31.5 -14.5t36 -14t38 -11t41.5 -8t43 -3q95 0 143 40t48 101q0 47 -33 80q-31 31 -107.5 60t-160.5 65t-132 84q-84 84 -84 200
q0 139 107.5 224.5t275.5 85.5q77 0 145 -16t111 -39t65.5 -39.5t31.5 -26.5l-103 -141q-2 1 -16.5 10.5t-21 13.5t-23.5 14t-28.5 15t-31 12.5t-36 11t-38 6.5t-42.5 3q-80 0 -127 -34.5t-47 -84.5q0 -40 28 -68q24 -24 102.5 -53.5t169.5 -71t146 -96.5q78 -78 78 -199z
M1755 313q0 -151 -111 -245.5t-294 -94.5q-77 0 -148.5 17t-119 42t-73.5 42.5t-38 29.5l100 146l9 -6l16 -10t21.5 -13t27.5 -14.5t31.5 -14.5t36 -14t38 -11t41.5 -8t43 -3q95 0 143 40t48 101q0 47 -33 80q-31 31 -107.5 60t-160 65t-131.5 84q-84 84 -84 200
q0 139 107.5 224.5t275.5 85.5q77 0 145 -16t110.5 -39.5t65 -39.5t31.5 -26l-103 -141q-2 1 -16.5 10.5t-21 13.5t-23.5 14t-28.5 15t-31 12.5t-36 11t-38 6.5t-42.5 3q-80 0 -127 -34.5t-47 -84.5q0 -39 29 -68q20 -20 74 -43.5t110.5 -43t123 -55.5t109.5 -79
q78 -78 78 -199z" />
    <glyph glyph-name="Eurooldstyle" horiz-adv-x="1169" 
d="M1176 119q-9 -9 -22 -20.5t-52 -36.5t-82.5 -43t-111.5 -33t-140 -15q-89 0 -165 23.5t-127.5 60.5t-93.5 85.5t-66.5 96t-41 95.5t-23 80t-7.5 53h-148v156h135q0 4 -1 27t-1 40q0 31 2 60h-135v155h146q1 17 7 45.5t22.5 77t41 96.5t66.5 98.5t94 89t128.5 63
t166.5 24.5q70 0 135 -15t108.5 -35.5t79 -44.5t51 -38.5t19.5 -20.5l-106 -133q-73 58 -141 81q-64 21 -130 21q-65 0 -118.5 -19.5t-86.5 -52.5t-56 -67t-35 -73t-16.5 -60t-6.5 -37h471v-155h-487q-3 -43 -3 -60t1.5 -40t1.5 -27h487v-156h-469q1 -12 3 -27t10.5 -46.5
t21.5 -60t37.5 -61t56 -56t80.5 -39t108 -15.5q146 0 283 98z" />
    <glyph glyph-name="dollaroldstyle" horiz-adv-x="1013" 
d="M930 397q0 -88 -30 -161t-82 -121.5t-116 -79t-137 -41.5v-211h-170v203q-65 4 -129 19.5t-109 34.5t-83 39.5t-56.5 34t-23.5 19.5l110 162q1 0 17.5 -11t31 -19t39.5 -21t51 -23t56.5 -19.5t65.5 -14.5t69 -5q118 0 183 53t65 144q0 28 -8 52.5t-27 45t-35.5 35t-50 31
t-52.5 25t-60.5 25t-57.5 23.5q-119 49 -171 82q-182 116 -183 306q0 82 31 149.5t83 112t114 71.5t130 37v187h170v-183q60 -4 118 -19.5t96 -33t71.5 -38.5t46 -31.5t18.5 -16.5l-112 -147q-11 9 -28.5 20t-56.5 32t-93 34.5t-109 13.5q-106 0 -174 -47.5t-68 -122.5
q0 -22 5.5 -40t13.5 -32.5t27.5 -29.5t34.5 -25.5t49.5 -26t58 -25.5t72.5 -30q52 -21 86 -36t79.5 -39t75 -46.5t61.5 -54t50.5 -65.5t30.5 -79t12 -96z" />
    <glyph glyph-name="centoldstyle" horiz-adv-x="962" 
d="M963 113q-4 -7 -36.5 -27.5t-103 -48t-143.5 -35.5v-215h-170v215q-189 28 -301.5 165.5t-112.5 340.5q0 205 114.5 349.5t299.5 180.5v201h170v-195q69 -6 134 -31.5t96.5 -47t37.5 -31.5l-92 -141q-110 69 -225 69q-94 0 -166 -49t-107.5 -125t-35.5 -164
q0 -152 80 -246t219 -94q28 0 57 4t53 10.5t45.5 14t39 16t29 14.5t20.5 11l9 6z" />
    <glyph glyph-name="sterlingoldstyle" horiz-adv-x="1103" 
d="M1110 1243l-111 -137q-1 1 -15.5 11t-25 16.5t-30.5 18t-39.5 19.5t-44 16.5t-52 12.5t-55.5 4q-120 0 -189 -75t-69 -211q0 -37 3 -75t7.5 -69.5t4.5 -34.5h397v-182h-377q4 -28 4 -78q0 -204 -98 -282h663v-197h-987v178q105 21 151 90t46 189q0 40 -6 100h-187v182
h168q-14 103 -14 179q0 224 125.5 351.5t345.5 127.5q70 0 134 -15t105.5 -34.5t76 -44t49 -38.5t20.5 -22z" />
    <glyph glyph-name="florinoldstyle" horiz-adv-x="972" 
d="M1040 1331l-63 -166q-88 35 -150 35q-47 0 -76.5 -12.5t-51 -47t-34 -76t-28.5 -118.5l-43 -207h299l-39 -186h-301l-113 -573q-14 -70 -20 -98.5t-23 -88.5t-38.5 -100t-49.5 -68q-98 -98 -250 -98q-142 0 -249 67l67 168q76 -34 143 -34q73 0 109 36q27 27 43 77.5
t39 162.5l113 549h-258l38 186h261l45 230q25 130 51 203.5t74 121.5q103 103 258 103q131 0 247 -66z" />
    <glyph glyph-name="yenoldstyle" horiz-adv-x="1071" 
d="M1077 1366l-350 -625h217v-155h-295v-127h293v-154h-293v-305h-227v305h-303v154h303v127h-305v155h219l-342 625h244l307 -606l311 606h221z" />
    <glyph glyph-name="commaaccent" horiz-adv-x="829" 
d="M367 -168h239q3 -287 -258 -481l-129 114q75 74 111 161.5t37 205.5z" />
    <glyph glyph-name="Commaaccent" horiz-adv-x="829" 
d="M367 -168h239q3 -287 -258 -481l-129 114q75 74 111 161.5t37 205.5z" />
    </font>
</defs>
</svg>
