<?xml version="1.0" standalone="no"?>
<!DOCTYPE svg PUBLIC "-//W3C//DTD SVG 1.1//EN" "http://www.w3.org/Graphics/SVG/1.1/DTD/svg11.dtd" >
<svg xmlns="http://www.w3.org/2000/svg" xmlns:xlink="http://www.w3.org/1999/xlink" version="1.1">
<metadata>
Created by FontForge 20170731 at Mon Jun  6 18:52:39 2022
 By Aleksey,,,
Copyright (c) The digitally encoded machine readable outline data for producing the typefaces licensed to you is copyrighted (c), 2009 by The Foundry, London. All rights reserved.
</metadata>
<defs>
<font id="FoundrySterling-Book" horiz-adv-x="1214" >
  <font-face 
    font-family="Foundry Sterling Book"
    font-weight="400"
    font-stretch="normal"
    units-per-em="2048"
    panose-1="2 0 5 3 4 0 0 2 0 4"
    ascent="1638"
    descent="-410"
    x-height="983"
    cap-height="1366"
    bbox="-563 -537 2482 1870"
    underline-thickness="102"
    underline-position="-307"
    unicode-range="U+0020-FFF3"
  />
<missing-glyph horiz-adv-x="1191" 
d="M1016 -250h-840v1616h840v-1616zM305 1257v-1398h582v1398h-582z" />
    <glyph glyph-name="IJ" unicode="IJ" horiz-adv-x="1216" 
d="M307 0h-131v1366h131v-1366zM1057 424v-41.5v-45t-1 -42t-3.5 -45t-6 -41t-10.5 -43t-15.5 -38t-21 -38.5t-28.5 -33q-82 -82 -213 -82q-67 0 -130.5 19t-91.5 35t-36 24l51 97q104 -60 184 -60q35 0 63.5 7.5t48 20.5t34.5 30.5t22.5 37.5t13.5 42t7 44t2 43t0 39v17
v995h131v-942z" />
    <glyph glyph-name="ij" unicode="ij" horiz-adv-x="819" 
d="M287 1315q0 -34 -24 -58t-58 -24t-58 24t-24 58t24 58t58 24t58 -24t24 -58zM266 0h-123v983h123v-983zM696 1315q0 -34 -24 -58t-58 -24t-58 24t-24 58t24 58t58 24t58 -24t24 -58zM676 -115q0 -102 -18 -164t-64 -108q-78 -78 -209 -78q-70 0 -135 29l29 96
q54 -18 104 -18q54 0 89.5 18t52 53t22.5 71t6 87v1112h123v-1098z" />
    <glyph glyph-name="f_j" unicode="fj" horiz-adv-x="1015" 
d="M872 -115q0 -103 -17.5 -164.5t-63.5 -107.5q-78 -78 -209 -78q-71 0 -136 29l29 96q54 -18 105 -18q54 0 89.5 18t52 53t22.5 71t6 87v1012h-406v-883h-123v883h-174v100h174v170q0 176 92 268q78 78 211 78q54 0 104 -15t71 -27t32 -21l-49 -86q-10 6 -27 14.5
t-51 17.5t-67 9q-86 0 -136 -50q-26 -26 -39.5 -67t-15.5 -67t-2 -66v-158h528v-1098z" />
    <glyph glyph-name="IJsmall" unicode="&#xf769;&#xf76a;" horiz-adv-x="1058" 
d="M283 0h-127v1059h127v-1059zM920 332q0 -61 -1 -90.5t-7 -70.5t-20.5 -69t-39.5 -53q-69 -69 -180 -69q-79 0 -138 24.5t-79 44.5l49 90l12 -7q12 -7 24.5 -13t31.5 -13t43 -11.5t49 -4.5q32 0 55.5 9t37 27.5t22 35.5t12 43.5t4 40.5t0.5 38v7v768h125v-727z" />
    <glyph glyph-name="f_f" unicode="ff" horiz-adv-x="1249" 
d="M1260 1436l-50 -86q-10 6 -27 14.5t-51 17.5t-67 9q-85 0 -135 -50q-26 -26 -40 -67t-16 -67.5t-2 -65.5v-158h316v-100h-316v-883h-122v883h-406v-883h-123v883h-174v100h174v170q0 176 92 268q78 78 211 78q96 0 158 -37l-39 -94q-57 23 -108 23q-84 0 -134 -50
q-26 -26 -39.5 -67t-15.5 -67t-2 -66v-158h406v158q0 188 92 280q78 78 211 78q54 0 104 -15t71 -27t32 -21z" />
    <glyph glyph-name="fi" unicode="fi" horiz-adv-x="1015" 
d="M872 0h-122v883h-406v-883h-123v883h-174v100h174v170q0 176 92 268q78 78 211 78q54 0 104 -15t71 -27t32 -21l-49 -86q-10 6 -27 14.5t-51 17.5t-67 9q-86 0 -136 -50q-26 -26 -39.5 -67t-15.5 -67t-2 -66v-158h528v-983z" />
    <glyph glyph-name="fl" unicode="fl" horiz-adv-x="1015" 
d="M872 0h-122v883h-406v-883h-123v883h-174v100h174v170q0 176 92 268q78 78 211 78q96 0 158 -37l-39 -94q-57 23 -108 23q-84 0 -134 -50q-26 -26 -39.5 -67t-15.5 -67t-2 -66v-158h406v492h122v-1475z" />
    <glyph glyph-name="f_f_i" unicode="ffi" horiz-adv-x="1544" 
d="M1401 0h-123v883h-406v-883h-122v883h-406v-883h-123v883h-174v100h174v170q0 176 92 268q78 78 211 78q96 0 158 -37l-39 -94q-57 23 -108 23q-84 0 -134 -50q-26 -26 -39.5 -67t-15.5 -67t-2 -66v-158h406v158q0 188 92 280q78 78 211 78q54 0 104 -15t71 -27t32 -21
l-50 -86q-10 6 -27 14.5t-51 17.5t-67 9q-85 0 -135 -50q-26 -26 -40 -67t-16 -67.5t-2 -65.5v-158h529v-983z" />
    <glyph glyph-name="f_f_l" unicode="ffl" horiz-adv-x="1544" 
d="M1401 0h-123v883h-406v-883h-122v883h-406v-883h-123v883h-174v100h174v170q0 176 92 268q78 78 211 78q96 0 158 -37l-39 -94q-57 23 -108 23q-84 0 -134 -50q-26 -26 -39.5 -67t-15.5 -67t-2 -66v-158h406v158q0 188 92 280q78 78 211 78q95 0 157 -37l-39 -94
q-57 23 -108 23q-83 0 -133 -50q-26 -26 -40 -67t-16 -67.5t-2 -65.5v-158h406v492h123v-1475z" />
    <glyph glyph-name="f_t" unicode="ft" horiz-adv-x="1290" 
d="M1204 25q-96 -48 -194 -48q-133 0 -203 70q-27 27 -40 68.5t-15 76t-2 109.5v582h-406v-883h-123v883h-174v100h174v158q0 188 92 280q78 78 211 78q54 0 104 -15t71 -27t32 -21l-49 -86q-10 6 -27 14.5t-51 17.5t-67 9q-86 0 -136 -50q-26 -26 -39.5 -67t-15.5 -67
t-2 -66v-158h406v279h122v-279h316v-100h-316v-557v-22v-52t3 -44.5t8.5 -41t16.5 -31.5t27.5 -26.5t41 -14.5t57.5 -6q26 0 53 4.5t44 10t31.5 11t16.5 5.5z" />
    <glyph glyph-name=".notdef" horiz-adv-x="1191" 
d="M1016 -250h-840v1616h840v-1616zM305 1257v-1398h582v1398h-582z" />
    <glyph glyph-name=".null" horiz-adv-x="0" 
 />
    <glyph glyph-name="nonmarkingreturn" horiz-adv-x="682" 
 />
    <glyph glyph-name="space" unicode=" " horiz-adv-x="491" 
 />
    <glyph glyph-name="exclam" unicode="!" horiz-adv-x="593" 
d="M373 1366l-21 -1034h-110l-27 1034h158zM389 76q0 -38 -27 -65t-65 -27t-65 27t-27 65t27 65t65 27t65 -27t27 -65z" />
    <glyph glyph-name="quotedbl" unicode="&#x22;" horiz-adv-x="610" 
d="M498 1366l-13 -469h-112l-15 469h140zM250 1366l-12 -469h-113l-12 469h137z" />
    <glyph glyph-name="numbersign" unicode="#" horiz-adv-x="1159" 
d="M1016 1059l-15 -109h-186l-35 -241h187l-15 -111h-186l-49 -338h-119l49 338h-203l-49 -338h-119l50 338h-183l15 111h182l35 241h-182l14 109h182l43 307h119l-43 -307h203l43 307h118l-43 -307h187zM696 950h-202l-35 -241h203z" />
    <glyph glyph-name="dollar" unicode="$" 
d="M1020 379q0 -165 -99.5 -266.5t-263.5 -122.5v-195h-116v191q-221 13 -377 143l69 94q160 -112 308 -123v572q-3 1 -30 12t-33.5 14t-31 14t-35 16.5t-31 16.5t-33.5 20.5t-29.5 22t-30.5 25.5q-86 86 -86 217q0 142 99 233t241 105v156h116v-152q216 -10 347 -141
l-70 -80q-1 1 -10 8t-17.5 14t-25 17.5t-32.5 19.5t-38.5 19t-45 17t-51 12t-57.5 6v-504q2 -1 25 -9.5t39.5 -15.5t45.5 -20t51.5 -26t48 -30.5t44.5 -35.5q109 -102 109 -244zM541 807v448q-50 -9 -96.5 -34t-81.5 -75.5t-35 -113.5q0 -79 61 -137q52 -50 152 -88z
M885 369q0 90 -72 159q-19 18 -44.5 35.5t-41 26t-42 21.5t-28.5 14v-519q98 19 163 85.5t65 177.5z" />
    <glyph glyph-name="percent" unicode="%" horiz-adv-x="1497" 
d="M1405 354q0 -172 -80 -269t-221 -97q-135 0 -215 92.5t-80 251.5q0 178 80 277.5t223 99.5q134 0 213.5 -96t79.5 -259zM688 1024q0 -172 -80 -269.5t-221 -97.5q-135 0 -215 92.5t-80 251.5q0 178 80 277.5t223 99.5q134 0 213.5 -96t79.5 -258zM1290 354
q0 123 -47.5 192.5t-130.5 69.5q-89 0 -138.5 -73.5t-49.5 -206.5q0 -122 47 -189t133 -67q89 0 137.5 71.5t48.5 202.5zM573 1024q0 123 -47.5 192.5t-130.5 69.5q-89 0 -138.5 -73.5t-49.5 -206.5q0 -122 47 -189t133 -67q89 0 137.5 71.5t48.5 202.5zM1278 1372
l-975 -1446l-88 60l975 1450z" />
    <glyph glyph-name="ampersand" unicode="&#x26;" horiz-adv-x="1361" 
d="M1264 0h-15q-105 0 -174.5 32.5t-142.5 112.5q-83 -82 -189 -126t-219 -44q-177 0 -294 114.5t-117 285.5q0 81 32 155.5t76 118.5q25 25 58.5 49t51 34.5t68.5 39.5q-54 75 -79.5 114t-47.5 94t-22 105q0 132 97.5 219t246.5 87q142 0 229.5 -76t87.5 -201
q0 -51 -11.5 -95.5t-43 -82.5t-50 -60.5t-71 -54t-64 -38t-68.5 -34.5q-10 -6 -15 -8l344 -409q43 49 85 162t42 247h119q0 -155 -53 -297.5t-109 -205.5q72 -83 125.5 -108.5t122.5 -25.5v-104zM778 1106q0 83 -50 131.5t-136 48.5q-92 0 -151.5 -55t-59.5 -141
q0 -54 29 -110.5t108 -154.5q139 63 199.5 128t60.5 153zM852 231l-383 459q-225 -110 -225 -309q0 -123 86 -204.5t213 -80.5q171 3 309 135z" />
    <glyph glyph-name="quotesingle" unicode="'" horiz-adv-x="362" 
d="M250 1366l-12 -469h-113l-12 469h137z" />
    <glyph glyph-name="parenleft" unicode="(" horiz-adv-x="739" 
d="M637 1417q-338 -271 -338 -819q0 -260 74.5 -454.5t253.5 -346.5l-68 -82q-405 289 -405 893q0 281 103.5 519t309.5 372z" />
    <glyph glyph-name="parenright" unicode=")" horiz-adv-x="739" 
d="M586 608q0 -603 -406 -893l-67 82q178 152 252.5 346t74.5 455q0 548 -338 819l70 82q206 -134 310 -372.5t104 -518.5z" />
    <glyph glyph-name="asterisk" unicode="*" horiz-adv-x="913" 
d="M801 1104l-252 -78l164 -223l-103 -72l-153 230l-154 -230l-102 72l164 223l-252 78l39 117l241 -95v240h127v-240l242 95z" />
    <glyph glyph-name="plus" unicode="+" 
d="M1065 465h-403v-404h-109v404h-403v108h403v404h109v-404h403v-108z" />
    <glyph glyph-name="comma" unicode="," horiz-adv-x="483" 
d="M340 143q0 -83 -22.5 -158t-56.5 -125.5t-57 -77.5t-40 -43q-3 -2 -4 -3l-78 61q111 155 111 338v21h147v-13z" />
    <glyph glyph-name="hyphen" unicode="-" horiz-adv-x="1003" 
d="M829 465h-655v108h655v-108z" />
    <glyph glyph-name="period" unicode="." horiz-adv-x="442" 
d="M313 76q0 -38 -27 -65t-65 -27t-65 27t-27 65t27 65t65 27t65 -27t27 -65z" />
    <glyph glyph-name="slash" unicode="/" horiz-adv-x="890" 
d="M815 1366l-620 -1661l-119 45l622 1661z" />
    <glyph glyph-name="zero" unicode="0" 
d="M1110 684q0 -334 -131.5 -521.5t-372.5 -187.5q-243 0 -372.5 187.5t-129.5 527.5q0 326 131 514.5t365 188.5q244 0 377 -188t133 -521zM975 682q0 288 -93.5 444t-273.5 156q-368 0 -368 -608q0 -282 93.5 -435t270.5 -153q182 0 276.5 154t94.5 442z" />
    <glyph glyph-name="one" unicode="1" 
d="M739 0h-129v1212l-336 -227l-69 96l426 285h108v-1366z" />
    <glyph glyph-name="two" unicode="2" 
d="M1010 0h-830v109q3 3 52.5 49.5t116 110.5t110.5 108q223 223 313 354.5t90 259.5q0 136 -76 210.5t-213 74.5q-47 0 -96.5 -12.5t-85.5 -29t-68 -36t-47 -31t-20 -16.5l-72 78q5 7 22.5 22.5t55 41t82.5 47t111 37.5t135 16q187 0 297 -105.5t110 -286.5
q0 -67 -22.5 -136.5t-53.5 -125.5t-87 -125t-99.5 -115t-113.5 -116l-271 -268h660v-115z" />
    <glyph glyph-name="three" unicode="3" 
d="M1004 377q0 -185 -129 -293.5t-326 -108.5q-93 0 -171.5 19t-126 47.5t-70.5 47t-34 32.5l70 84l5 -5q6 -5 14 -11l20 -15t28 -18t35 -18.5t42 -17.5t48 -14.5t55.5 -10t61.5 -3.5q157 0 250.5 74t93.5 203q0 100 -75 180q-56 56 -134.5 76t-226.5 20h-20v113h35
q120 0 197 17.5t138 78.5q66 66 66 170q0 112 -78.5 182t-212.5 70q-50 0 -100.5 -12.5t-85.5 -28.5t-66.5 -36t-45 -31t-19.5 -17l-70 82q3 5 20.5 20.5t54.5 40t82 46t109.5 37.5t130.5 16q190 0 301 -101t111 -264q0 -78 -30 -147t-92 -118.5t-146 -60.5
q132 -12 211.5 -103.5t79.5 -221.5z" />
    <glyph glyph-name="four" unicode="4" 
d="M1085 332h-186v-332h-127v332h-657v106l653 928h131v-924h186v-110zM772 442v742l-520 -742h520z" />
    <glyph glyph-name="five" unicode="5" 
d="M1024 432q0 -208 -131 -332.5t-338 -124.5q-71 0 -135.5 13.5t-106 31t-75.5 39.5t-47.5 34t-18.5 18l66 88q9 -8 19 -15t42 -25.5t64 -31.5t81 -24t97 -11q162 0 256 88.5t94 241.5q0 139 -90.5 233.5t-255.5 94.5q-138 0 -244 -66l-61 39v643h731v-111h-604v-432
q107 43 206 43q213 0 332 -119.5t119 -314.5z" />
    <glyph glyph-name="six" unicode="6" 
d="M1079 446q0 -203 -123 -337t-321 -134q-108 0 -192.5 40.5t-137.5 105t-87.5 154t-48 179t-13.5 187.5q0 93 10.5 178.5t33 172.5t63 157.5t96 126t137 86.5t180.5 31q65 0 126 -13t101.5 -30.5t73 -37.5t47 -33t18.5 -19l-67 -86q-133 106 -283 106q-95 0 -169 -37.5
t-119 -97t-74 -142.5t-40 -166t-11 -175q0 -25 1 -36t1 -20q28 131 137.5 206t249.5 75q192 0 301.5 -123.5t109.5 -317.5zM954 440q0 148 -77 243t-222 95q-147 0 -239 -104.5t-92 -253.5q0 -141 88.5 -238.5t228.5 -97.5q144 0 228.5 104.5t84.5 251.5z" />
    <glyph glyph-name="seven" unicode="7" 
d="M1067 1262l-563 -1262h-148l574 1249h-766v117h903v-104z" />
    <glyph glyph-name="eight" unicode="8" 
d="M1073 360q0 -174 -125.5 -279.5t-331.5 -105.5q-218 0 -346.5 102.5t-128.5 278.5q0 144 84 244.5t219 104.5q-125 24 -194.5 112t-69.5 209q0 163 118 265t306 102q192 0 311 -99t119 -260q0 -123 -67.5 -213t-188.5 -116q143 -17 219 -107.5t76 -237.5zM903 1026
q0 120 -81.5 193t-211.5 73q-133 0 -215 -72.5t-82 -191.5t85 -196.5t212 -77.5q126 0 209.5 76.5t83.5 195.5zM938 367q0 133 -89 209.5t-241 76.5q-150 0 -241 -77.5t-91 -206.5q0 -138 90.5 -215.5t251.5 -77.5q148 0 234 77.5t86 213.5z" />
    <glyph glyph-name="nine" unicode="9" 
d="M1059 727q0 -93 -10.5 -178.5t-33 -172.5t-63 -157.5t-96 -126t-137 -86.5t-180.5 -31q-65 0 -126 13t-101.5 30.5t-73.5 38t-47.5 33.5t-18.5 19l68 86q134 -107 282 -107q95 0 169 37.5t119.5 97t74.5 143t40 166.5t11 175q0 25 -1 35.5t-1 19.5q-28 -131 -137.5 -206
t-249.5 -75q-192 0 -302 123.5t-110 317.5q0 203 123.5 337t321.5 134q108 0 192.5 -40.5t137.5 -105t87.5 -154t48 -179t13.5 -187.5zM891 948q0 141 -89 238.5t-229 97.5q-144 0 -228.5 -104.5t-84.5 -251.5q0 -148 77 -243t222 -95q147 0 239.5 104.5t92.5 253.5z" />
    <glyph glyph-name="colon" unicode=":" horiz-adv-x="442" 
d="M313 915q0 -38 -27 -65t-65 -27t-65 27t-27 65t27 65.5t65 27.5t65 -27.5t27 -65.5zM313 76q0 -38 -27 -65t-65 -27t-65 27t-27 65t27 65t65 27t65 -27t27 -65z" />
    <glyph glyph-name="semicolon" unicode=";" horiz-adv-x="483" 
d="M358 915q0 -38 -27 -65t-65 -27t-65 27t-27 65t27 65.5t65 27.5t65 -27.5t27 -65.5zM340 143q0 -83 -22.5 -158t-56.5 -125.5t-57 -77.5t-40 -43q-3 -2 -4 -3l-78 61q111 155 111 338v21h147v-13z" />
    <glyph glyph-name="less" unicode="&#x3c;" 
d="M1092 131l-45 -98l-924 446v82l921 447l48 -99l-820 -391z" />
    <glyph glyph-name="equal" unicode="=" 
d="M1094 594h-973v108h973v-108zM1094 336h-973v108h973v-108z" />
    <glyph glyph-name="greater" unicode="&#x3e;" 
d="M1092 479l-924 -446l-45 98l819 387l-819 391l47 99l922 -447v-82z" />
    <glyph glyph-name="question" unicode="?" horiz-adv-x="1009" 
d="M862 1016q0 -53 -10.5 -98t-30.5 -79t-37 -55t-41 -45q-35 -35 -120.5 -88t-110.5 -78q-8 -8 -14 -16t-10.5 -14.5t-8 -17t-5.5 -17t-3.5 -21t-2.5 -22.5t-1 -27v-29.5v-36v-40.5h-111q-4 78 -4 114q0 80 7 113t40 66t112 88t118 94q51 51 71.5 97.5t20.5 111.5
q0 116 -74 188t-194 72q-62 0 -133.5 -24t-100.5 -40.5t-49 -29.5l-57 90q8 10 51.5 36t134.5 55.5t184 29.5q172 0 275.5 -103.5t103.5 -273.5zM504 76q0 -38 -27 -65t-65 -27t-65.5 27t-27.5 65t27.5 65t65.5 27t65 -27t27 -65z" />
    <glyph glyph-name="at" unicode="@" horiz-adv-x="1589" 
d="M1491 846q0 -222 -149 -358t-388 -136q-3 0 -43 4l17 95q-124 -99 -240 -99q-101 0 -163 69.5t-62 182.5q0 188 130 316.5t322 128.5q119 0 215 -41l-106 -557q154 12 256 114q46 46 75 122t29 157q0 192 -144.5 314t-373.5 122q-139 0 -260 -49.5t-207 -135.5t-135 -208
t-49 -262q0 -163 72.5 -287.5t199 -191t285.5 -66.5q42 0 83 4t75 11.5t66.5 16.5t58.5 19.5t48.5 21t40 20t29 16.5t19.5 13l8 5l60 -84l-2 -2q-117 -94 -302 -131q-93 -19 -194 -19q-190 0 -341 82.5t-237 233.5t-86 342q0 160 59 299.5t161 239t244.5 157t305.5 57.5
q133 0 249 -40.5t198 -111t129 -170t47 -214.5zM1001 942q-58 12 -86 12q-138 0 -237.5 -102t-99.5 -242q0 -66 38.5 -109.5t98.5 -43.5q107 0 217 110z" />
    <glyph glyph-name="A" unicode="A" horiz-adv-x="1189" 
d="M1167 0h-139l-139 391h-596l-139 -391h-131l497 1366h148zM850 504l-260 725l-258 -725h518z" />
    <glyph glyph-name="B" unicode="B" horiz-adv-x="1138" 
d="M1026 387q0 -160 -102 -262q-27 -27 -58 -47t-58 -33t-71 -22t-71 -13.5t-85.5 -7t-88 -2.5h-102.5h-44h-170v1366h344q129 0 209.5 -18t144.5 -82q107 -107 107 -265q0 -116 -63 -198.5t-168 -102.5q136 -22 206 -101t70 -212zM848 1008q0 106 -68 174q-16 16 -37 28.5
t-38 21t-46.5 14t-44.5 8.5t-52 4.5t-48.5 1.5h-53.5h-50h-103v-515h135q111 0 197 19t141 74q68 68 68 170zM893 383q0 100 -72 172q-20 20 -43.5 35t-57.5 24t-54 14.5t-67 7.5t-59.5 3t-69 0.5t-60.5 -0.5h-103v-530h150q147 0 226.5 18t141.5 80q32 32 50 82t18 94z" />
    <glyph glyph-name="C" unicode="C" horiz-adv-x="1241" 
d="M1192 106q-6 -6 -25.5 -19.5t-60 -33.5t-89 -37t-118.5 -29t-143 -12q-134 0 -251.5 47.5t-204.5 135t-137 220.5t-50 294q0 167 52.5 304.5t143 228t211 139.5t256.5 49q109 0 204 -25t137 -48t59 -40l-60 -96q-11 8 -32.5 19t-63.5 28.5t-104.5 29t-129.5 11.5
q-111 0 -209 -40t-171.5 -113.5t-116.5 -185t-43 -245.5q0 -270 142.5 -431t383.5 -161q37 0 74.5 4.5t68 11.5t60 16.5t51.5 18.5t42 19t32 17t21 13l9 5z" />
    <glyph glyph-name="D" unicode="D" horiz-adv-x="1380" 
d="M1268 690q0 -319 -197 -516q-47 -47 -99.5 -79.5t-102.5 -51t-117 -28.5t-124 -12.5t-143 -2.5h-309v1366h262q119 0 197.5 -5t163 -22t150.5 -52t122 -91q93 -93 145 -224.5t52 -281.5zM1135 694q0 266 -162 428q-85 85 -196.5 110t-334.5 25h-135v-1148h187
q87 0 141.5 3.5t121 17t121 43.5t103.5 79q75 75 114.5 191t39.5 251z" />
    <glyph glyph-name="E" unicode="E" horiz-adv-x="1019" 
d="M913 0h-737v1366h721v-111h-592v-485h555v-108h-555v-547h608v-115z" />
    <glyph glyph-name="F" unicode="F" horiz-adv-x="960" 
d="M879 1255h-572v-485h535v-108h-535v-662h-131v1366h703v-111z" />
    <glyph glyph-name="G" unicode="G" horiz-adv-x="1351" 
d="M1212 90q-7 -6 -24 -16.5t-58 -29t-90 -33.5t-124 -26.5t-156 -11.5q-137 0 -255 47.5t-205.5 135.5t-137 221t-49.5 295q0 167 52.5 304.5t143 228t211 139.5t256.5 49q109 0 204 -25t137 -48t59 -40l-60 -96q-11 8 -32.5 19t-63.5 28.5t-104.5 29t-129.5 11.5
q-111 0 -209 -40t-171.5 -113.5t-116.5 -185t-43 -245.5q0 -271 142.5 -433.5t381.5 -162.5q42 0 81.5 3.5t69.5 9.5t56 12.5t45 13.5t32 13t21 10l8 4v399h-313v107h442v-574z" />
    <glyph glyph-name="H" unicode="H" horiz-adv-x="1304" 
d="M1128 0h-131v664h-690v-664h-131v1366h131v-592h690v592h131v-1366z" />
    <glyph glyph-name="I" unicode="I" horiz-adv-x="483" 
d="M307 0h-131v1366h131v-1366z" />
    <glyph glyph-name="J" unicode="J" horiz-adv-x="733" 
d="M573 424v-41.5v-45t-1 -42t-3.5 -45t-6 -41t-10.5 -43t-15.5 -38t-21 -38.5t-28.5 -33q-82 -82 -213 -82q-67 0 -130.5 19t-91.5 35t-36 24l52 97q104 -60 184 -60q35 0 63.5 7.5t47.5 20t34 30t22.5 38t13.5 42.5t7 43.5t2 42.5t0 39v10v8v995h131v-942z" />
    <glyph glyph-name="K" unicode="K" horiz-adv-x="1103" 
d="M1083 0h-163l-615 653v-653h-129v1366h129v-643l598 643h150l-617 -670z" />
    <glyph glyph-name="L" unicode="L" horiz-adv-x="962" 
d="M895 0h-719v1366h131v-1251h588v-115z" />
    <glyph glyph-name="M" unicode="M" horiz-adv-x="1789" 
d="M1630 0h-135l-129 1176l-424 -1176h-108l-428 1176l-125 -1176h-121l155 1366h148l434 -1178l424 1178h149z" />
    <glyph glyph-name="N" unicode="N" horiz-adv-x="1298" 
d="M1122 0h-149l-680 1174l4 -1174h-121v1366h143l687 -1184l-5 1184h121v-1366z" />
    <glyph glyph-name="O" unicode="O" horiz-adv-x="1435" 
d="M1323 688q0 -207 -76.5 -369.5t-216 -253t-319.5 -90.5q-169 0 -305.5 89t-214.5 248.5t-78 359.5q0 156 45.5 290t125.5 228t194.5 147.5t248.5 53.5q260 0 428 -197t168 -506zM1184 696q0 258 -132 420t-339 162q-210 0 -335.5 -162.5t-125.5 -427.5
q0 -263 132.5 -431.5t334.5 -168.5q214 0 339.5 165.5t125.5 442.5z" />
    <glyph glyph-name="P" unicode="P" horiz-adv-x="1105" 
d="M1001 973q0 -97 -32 -171t-76 -118q-35 -35 -76.5 -58.5t-75 -35.5t-90 -18t-89.5 -6.5t-104 -0.5h-32h-121v-565h-129v1366h311q151 0 243.5 -19t160.5 -87q110 -110 110 -287zM870 975q0 133 -84 217q-25 25 -58 40t-82.5 20.5t-78 6.5t-92.5 1h-170v-588h113h21
q73 0 109 1.5t87 8t86 23.5t63 45q86 86 86 225z" />
    <glyph glyph-name="Q" unicode="Q" horiz-adv-x="1435" 
d="M1323 688q0 -106 -21.5 -205t-66.5 -186.5t-109.5 -153.5t-157 -108t-202.5 -49q125 -166 422 -166q29 0 56.5 2t44 4t18.5 2l14 -96q-78 -19 -182 -19q-358 0 -529 277q-74 9 -145.5 42.5t-135 92.5t-111.5 137t-76.5 184t-28.5 226q0 156 45.5 290t125.5 228
t194.5 147.5t248.5 53.5q260 0 428 -197t168 -506zM1184 696q0 258 -132 420t-339 162q-210 0 -335.5 -162.5t-125.5 -427.5q0 -263 132.5 -431.5t334.5 -168.5q214 0 339.5 165.5t125.5 442.5z" />
    <glyph glyph-name="R" unicode="R" horiz-adv-x="1126" 
d="M1073 0h-135l-156 350q-27 61 -47 99t-44.5 69.5t-46.5 47t-57.5 26t-73.5 13.5t-97 3h-111v-608h-129v1366h281q71 0 105.5 -1t88 -6t85.5 -15t69 -30t67 -50q107 -107 107 -275q0 -144 -86 -233q-39 -41 -98.5 -71t-120.5 -36q59 -4 108 -53q42 -42 101 -170zM850 997
q0 58 -19.5 106t-48.5 77t-62 46.5t-75.5 24t-70 8t-80.5 1.5h-11.5h-9.5h-168v-545h39q8 0 56 -0.5t61 0t55.5 2.5t60.5 5.5t52.5 10.5t55 16.5t45.5 25t44 34.5q76 76 76 188z" />
    <glyph glyph-name="S" unicode="S" horiz-adv-x="1056" 
d="M932 375q0 -178 -113.5 -290t-320.5 -112q-223 0 -398 146l68 94l10 -7q11 -8 20 -14t25 -17t32.5 -19.5t37.5 -19t43.5 -18t47 -14.5t51.5 -10.5t54 -3.5q147 0 227.5 75t80.5 200q0 89 -70 159q-41 41 -112 78.5t-136 62t-139.5 65t-120.5 87.5q-82 82 -82 223
q0 154 112 252.5t292 98.5q228 0 374 -146l-69 -82q-1 1 -11.5 10t-22.5 18t-31.5 22t-43 23.5t-51.5 20.5t-63 15.5t-72 5.5q-127 0 -207 -66.5t-80 -169.5q0 -81 60 -141q37 -37 107 -72t136 -59t139.5 -63t118.5 -84q107 -107 107 -248z" />
    <glyph glyph-name="T" unicode="T" horiz-adv-x="1089" 
d="M1024 1255h-414v-1255h-131v1255h-413v111h958v-111z" />
    <glyph glyph-name="U" unicode="U" horiz-adv-x="1263" 
d="M1108 709v-77v-76t-1 -68.5t-3 -68.5t-6 -60.5t-10 -61t-15.5 -53t-21.5 -52.5t-28 -44.5t-36 -43.5q-129 -129 -354 -129t-359 134q-25 25 -44 54.5t-31.5 54.5t-21 65.5t-13 64t-6.5 75.5t-2 75.5v86.5v42v739h129v-864q0 -61 1.5 -89.5t8.5 -77t26 -84.5t50 -67
q96 -96 268 -96q75 0 140.5 24t105.5 64q66 66 80 149t14 302v16v723h129v-657z" />
    <glyph glyph-name="V" unicode="V" 
d="M1165 1366l-481 -1366h-164l-471 1366h139l418 -1253l432 1253h127z" />
    <glyph glyph-name="W" unicode="W" horiz-adv-x="1812" 
d="M1733 1366l-338 -1366h-181l-305 1264l-311 -1264h-180l-338 1366h137l293 -1260l307 1260h193l305 -1260l293 1260h125z" />
    <glyph glyph-name="X" unicode="X" horiz-adv-x="1142" 
d="M1087 0h-151l-371 606l-368 -606h-142l437 711l-408 655h154l331 -553l330 553h143l-403 -657z" />
    <glyph glyph-name="Y" unicode="Y" horiz-adv-x="1107" 
d="M1055 1366l-437 -827v-539h-129v539l-436 827h144l364 -700l361 700h133z" />
    <glyph glyph-name="Z" unicode="Z" horiz-adv-x="1112" 
d="M1016 0h-922v96l754 1159h-713v111h864v-100l-747 -1151h764v-115z" />
    <glyph glyph-name="bracketleft" unicode="[" horiz-adv-x="661" 
d="M586 -250h-410v1616h410v-109h-281v-1398h281v-109z" />
    <glyph glyph-name="backslash" unicode="\" horiz-adv-x="890" 
d="M815 -250l-119 -45l-620 1661l117 45z" />
    <glyph glyph-name="bracketright" unicode="]" horiz-adv-x="661" 
d="M485 -250h-409v109h280v1398h-280v109h409v-1616z" />
    <glyph glyph-name="asciicircum" unicode="^" 
d="M1055 518h-133l-316 690l-315 -690h-131l401 848h94z" />
    <glyph glyph-name="underscore" unicode="_" horiz-adv-x="962" 
d="M967 -250h-971v109h971v-109z" />
    <glyph glyph-name="grave" unicode="`" horiz-adv-x="778" 
d="M629 1198l-41 -80l-438 164l55 121z" />
    <glyph glyph-name="a" unicode="a" horiz-adv-x="950" 
d="M821 0h-112v74l-9 -5q-8 -5 -19 -11.5t-29 -15t-37.5 -17t-45.5 -17t-52.5 -14.5t-58.5 -10t-63 -4q-141 0 -228 82.5t-87 216.5q0 64 23.5 115.5t58.5 84.5t88.5 57t101 36t109.5 18.5t100 8t86 1.5h51v37q0 81 -9 128t-40 79q-57 57 -186 57q-137 0 -273 -78l-51 86
q4 4 18.5 13.5t46 25t69 29t92.5 23.5t112 10q171 0 266 -95q48 -48 63 -106.5t15 -175.5v-633zM698 168v332h-55q-436 0 -436 -224q0 -80 54 -134t163 -54q30 0 62.5 5.5t58.5 12.5t53.5 17.5t44 18t34.5 16.5t21 10z" />
    <glyph glyph-name="b" unicode="b" horiz-adv-x="1060" 
d="M973 508q0 -234 -139 -381t-359 -147q-27 0 -54.5 1.5t-52 5t-46 7t-43.5 9t-37.5 9.5t-33.5 10t-26.5 9t-22.5 8t-16 6v1430h123v-555l17.5 12.5t37.5 22t57 25.5t74 19.5t89 8.5q197 0 314.5 -136.5t117.5 -363.5zM846 504q0 178 -87 286.5t-231 108.5q-27 0 -54 -4
t-49 -9.5t-43.5 -14t-36.5 -16.5t-30 -17.5t-23 -15.5t-17 -12l-9 -7v-680q2 0 14 -4.5t22.5 -7.5t30.5 -7.5t40 -7.5t48 -5.5t58 -2.5q167 0 267 113.5t100 302.5z" />
    <glyph glyph-name="c" unicode="c" horiz-adv-x="950" 
d="M889 78q-7 -9 -47.5 -30t-123 -44.5t-165.5 -23.5q-206 0 -335.5 133t-129.5 358q0 238 136.5 387.5t353.5 149.5q48 0 95.5 -9.5t80.5 -22.5t61.5 -28t41.5 -24t17 -13l-55 -86q-1 0 -8 4.5t-12 7.5t-15.5 8.5t-19.5 10t-23 10t-27 9.5t-30 8.5t-34 7t-37.5 4.5t-41.5 2
q-158 0 -257 -116t-99 -292q0 -179 96.5 -287t247.5 -108q32 0 63.5 3.5t57.5 10t48 13.5t41.5 16t31.5 14.5t23 12t12 6.5z" />
    <glyph glyph-name="d" unicode="d" horiz-adv-x="1062" 
d="M920 0h-113v74q-9 -7 -29 -19.5t-57.5 -31t-91.5 -31t-109 -12.5q-194 0 -313 136t-119 359q0 236 134.5 384.5t348.5 148.5q131 0 224 -56v523h125v-1475zM795 184v650q-1 0 -7.5 4t-12 7.5t-16 9t-22 10t-25.5 10t-30 9.5t-33 7.5t-37.5 5.5t-40.5 2
q-160 0 -258 -117.5t-98 -310.5q0 -170 88.5 -276.5t228.5 -106.5q23 0 45 2t42 7t36.5 10t34 13t28.5 13.5t25.5 15t20 13t18 12.5t13.5 10z" />
    <glyph glyph-name="e" unicode="e" horiz-adv-x="1011" 
d="M924 532q0 -4 -2 -29t-2 -36h-705q0 -168 88.5 -270.5t249.5 -102.5q33 0 66 4t60 11t50.5 14.5t43 16.5t32 15.5t23.5 12.5l10 6l55 -94q-2 -3 -18.5 -13t-49 -25t-73 -28.5t-97 -23.5t-112.5 -10q-212 0 -333.5 139t-121.5 366q0 238 122.5 380.5t326.5 142.5
q174 0 280.5 -126.5t106.5 -349.5zM799 571q0 58 -14 113.5t-43 106t-81.5 81.5t-121.5 31q-130 0 -220.5 -90.5t-99.5 -241.5h580z" />
    <glyph glyph-name="f" unicode="f" horiz-adv-x="720" 
d="M731 1436l-49 -86q-10 6 -27 14.5t-51 17.5t-67 9q-86 0 -136 -50q-26 -26 -39.5 -67t-15.5 -67t-2 -66v-158h315v-100h-315v-883h-123v883h-174v100h174v158q0 188 92 280q78 78 211 78q54 0 104 -15t71 -27t32 -21z" />
    <glyph glyph-name="g" unicode="g" horiz-adv-x="1062" 
d="M920 -14q0 -135 -19.5 -211t-73.5 -131q-61 -61 -137.5 -85t-181.5 -24q-62 0 -121 12t-99.5 27.5t-74.5 34.5t-49 30t-21 17l56 86q1 0 12 -7.5t24.5 -15.5t34.5 -19t46 -20t53 -17.5t62.5 -13.5t68.5 -5q159 0 231 75q43 43 53.5 99t10.5 188v76q-1 0 -9.5 -5.5
t-16 -9.5t-22 -11t-28.5 -13t-32.5 -13t-39 -12.5t-42.5 -10t-47 -7t-50 -2.5q-184 0 -302 136.5t-118 348.5q0 228 138.5 376.5t351.5 148.5q35 0 71.5 -4t68.5 -11.5t60 -15t53.5 -17t42 -16t31 -13.5t15.5 -7v-938zM795 201v651q-110 47 -224 47q-161 0 -258.5 -114.5
t-97.5 -299.5q0 -169 84.5 -274t220.5 -105q29 0 59 4.5t56 13t48.5 17.5t42.5 19.5t33 18t24 15t12 7.5z" />
    <glyph glyph-name="h" unicode="h" horiz-adv-x="1030" 
d="M901 0h-123v573q0 64 -1 89t-5.5 67.5t-17 68t-33.5 46.5q-55 55 -154 55q-65 0 -140 -24t-115 -45t-46 -27v-803h-123v1475h123v-562q8 8 47.5 28.5t116.5 43.5t150 23q66 0 128.5 -21t96.5 -55q61 -61 78.5 -128.5t17.5 -211.5v-592z" />
    <glyph glyph-name="i" unicode="i" horiz-adv-x="409" 
d="M287 1315q0 -34 -24 -58t-58 -24t-58 24t-24 58t24 58t58 24t58 -24t24 -58zM266 0h-123v983h123v-983z" />
    <glyph glyph-name="j" unicode="j" horiz-adv-x="409" 
d="M287 1315q0 -34 -24 -58t-58 -24t-58 24t-24 58t24 58t58 24t58 -24t24 -58zM266 -115q0 -102 -18 -164t-64 -108q-78 -78 -209 -78q-70 0 -135 29l29 96q54 -18 104 -18q54 0 89.5 18t52 53t22.5 71t6 87v1112h123v-1098z" />
    <glyph glyph-name="k" unicode="k" horiz-adv-x="958" 
d="M928 0h-162l-500 520v-520h-123v1475h123v-928l459 436h162l-484 -446z" />
    <glyph glyph-name="l" unicode="l" horiz-adv-x="409" 
d="M266 0h-123v1475h123v-1475z" />
    <glyph glyph-name="m" unicode="m" horiz-adv-x="1615" 
d="M1487 0h-123v586q0 201 -57 258q-51 51 -148 51q-138 0 -299 -90q19 -41 19 -234v-571h-123v539q0 101 -1.5 143.5t-14 90t-38.5 73.5q-51 51 -143 51q-49 0 -102 -13t-94.5 -31.5t-64 -30.5t-32.5 -19v-803h-123v983h117v-72q162 97 311 97q162 0 244 -115q92 57 176 86
t180 29q138 0 220 -82q28 -28 47 -62.5t28.5 -64t14.5 -80t5.5 -82t0.5 -97.5v-20v-520z" />
    <glyph glyph-name="n" unicode="n" horiz-adv-x="1030" 
d="M901 0h-123v573q0 64 -1 89t-5.5 67.5t-17 68t-33.5 46.5q-55 55 -154 55q-65 0 -140 -24t-115 -45t-46 -27v-803h-123v983h117v-72q23 15 55.5 31.5t113.5 41t155 24.5q145 0 227 -82q55 -55 72.5 -123.5t17.5 -210.5v-592z" />
    <glyph glyph-name="o" unicode="o" horiz-adv-x="1071" 
d="M983 483q0 -231 -122.5 -369.5t-328.5 -138.5q-201 0 -322.5 140.5t-121.5 376.5q0 235 122 375.5t333 140.5q201 0 320.5 -141t119.5 -384zM856 487q0 184 -91.5 299t-229.5 115q-147 0 -233.5 -110.5t-86.5 -294.5t91 -298t231 -114q151 0 235 108.5t84 294.5z" />
    <glyph glyph-name="p" unicode="p" horiz-adv-x="1060" 
d="M973 512q0 -236 -135 -384t-349 -148q-56 0 -109.5 12.5t-76 23t-37.5 19.5v-471h-123v1419h117v-68q124 93 283 93q193 0 311.5 -136.5t118.5 -359.5zM846 516q0 170 -88 276.5t-228 106.5q-63 0 -128.5 -24t-92.5 -41.5t-43 -30.5v-649q1 -1 11 -7t19 -10.5l25 -12.5
t33.5 -13.5t38.5 -11t46.5 -8.5t52.5 -3q160 0 257 117.5t97 310.5z" />
    <glyph glyph-name="q" unicode="q" horiz-adv-x="1060" 
d="M918 -436h-123v504l-17.5 -12.5t-37.5 -22t-57 -25.5t-74 -19.5t-89 -8.5q-197 0 -314.5 136.5t-117.5 362.5q0 234 139 381.5t359 147.5q31 0 62 -2.5t56 -6t52 -9t45 -10t40 -11.5t32 -10.5t26.5 -9.5t18.5 -7v-1378zM795 184v680q-2 0 -14 4.5t-22.5 7.5t-30.5 7.5
t-40 7.5t-48 5.5t-58 2.5q-167 0 -267 -113.5t-100 -302.5q0 -178 86.5 -286.5t230.5 -108.5q27 0 54.5 4t49 9.5t43 14t36.5 16.5t30.5 17.5t23.5 15t17 12.5z" />
    <glyph glyph-name="r" unicode="r" horiz-adv-x="714" 
d="M674 993l-29 -102q-42 6 -80 6q-49 0 -94 -12.5t-75 -30.5t-56 -40.5t-39.5 -40t-24.5 -33.5l-10 -15v-725h-123v983h117v-129q36 43 60 63q108 93 251 93q21 0 38.5 -1.5t28.5 -4t18 -4.5t12 -4z" />
    <glyph glyph-name="s" unicode="s" horiz-adv-x="851" 
d="M750 268q0 -137 -95.5 -215t-259.5 -78q-83 0 -164.5 24t-118.5 44t-46 29l53 94q14 -10 41.5 -24.5t96 -36t130.5 -21.5q110 0 173 46t63 126q0 24 -7.5 46t-16 37.5t-28.5 31.5t-32 25.5t-40 22t-39.5 17.5t-43.5 16.5t-39 14.5q-38 15 -54 21.5t-49 21.5t-48 25
t-39 27.5t-35.5 35t-24.5 41t-18 51t-5 60.5q0 116 93.5 187t234.5 71q78 0 151.5 -21.5t105 -39.5t40.5 -27l-49 -89q-123 70 -238 70q-89 0 -150 -40.5t-61 -106.5q0 -19 3 -35t11.5 -30t15 -24.5t22.5 -21.5t25 -17.5t30.5 -16t31.5 -14t36 -14.5t36 -14q123 -49 163 -72
q139 -79 145 -215v-12z" />
    <glyph glyph-name="t" unicode="t" horiz-adv-x="757" 
d="M672 25q-96 -48 -195 -48q-133 0 -203 70q-27 27 -40 68.5t-15 76t-2 109.5v582h-172v100h172v279h123v-279h315v-100h-315v-557v-22v-52t3 -44.5t8.5 -41t16.5 -31.5t27.5 -26.5t41 -14.5t57.5 -6q26 0 53 4.5t44 10t31.5 11t16.5 5.5z" />
    <glyph glyph-name="u" unicode="u" horiz-adv-x="1030" 
d="M887 0h-113v78q-24 -16 -54 -32.5t-109.5 -41t-155.5 -24.5q-150 0 -238 88q-18 18 -32 40t-23 39t-15.5 47.5t-10 43.5t-5.5 50t-2 43.5v48.5v42v561h123v-586q0 -68 2 -102t15 -77.5t40 -70.5q59 -59 154 -59q30 0 61.5 5t59.5 13t53 17t47.5 20t37.5 18.5t28 15
t14 7.5v799h123v-983z" />
    <glyph glyph-name="v" unicode="v" horiz-adv-x="1011" 
d="M954 983l-385 -983h-145l-383 983h135l326 -854l325 854h127z" />
    <glyph glyph-name="w" unicode="w" horiz-adv-x="1513" 
d="M1434 983l-287 -983h-152l-247 874l-252 -874h-152l-274 983h125l231 -858l246 858h164l241 -858l236 858h121z" />
    <glyph glyph-name="x" unicode="x" horiz-adv-x="978" 
d="M913 0h-149l-289 418l-289 -418h-141l361 504l-336 479h151l264 -389l267 389h139l-334 -477z" />
    <glyph glyph-name="y" unicode="y" horiz-adv-x="989" 
d="M938 983l-389 -1053q-44 -120 -83 -187.5t-89 -117.5q-43 -43 -108 -66.5t-134 -23.5q-23 0 -46 2.5t-40 5.5t-34 8t-26.5 8t-19 7t-10.5 4l33 100q1 0 12 -4t21.5 -6.5t26.5 -6t36.5 -5.5t42.5 -2q103 0 160 57q42 42 71.5 99.5t75.5 172.5l-405 1008h135l338 -850
l305 850h127z" />
    <glyph glyph-name="z" unicode="z" horiz-adv-x="948" 
d="M836 0h-750v96l578 783h-549v104h700v-98l-569 -776h590v-109z" />
    <glyph glyph-name="braceleft" unicode="{" horiz-adv-x="686" 
d="M610 -250h-104q-81 0 -140.5 14t-101.5 58q-33 33 -48 81.5t-15 166.5v270q0 3 0.5 24.5t0 32t-2 31t-4 33t-8 26t-13.5 21.5q-22 22 -70 22v107q48 0 70 22q8 8 13.5 21.5t8 26t4 33t2 31t0 32t-0.5 24.5v220q0 118 15 166t48 81q42 44 101.5 58t140.5 14h104v-109h-71
q-84 0 -117.5 -6t-54.5 -26q-20 -19 -27.5 -55t-7.5 -117v-219v-39v-40.5t-1 -34t-3.5 -35t-6.5 -27.5t-10.5 -28t-15.5 -20q-17 -16 -45 -26q27 -9 45 -27q9 -9 15.5 -20t10.5 -27.5t6.5 -27.5t3.5 -35.5t1 -34v-40v-38.5v-271q0 -81 7.5 -117t27.5 -55q21 -20 54.5 -26
t117.5 -6h71v-109z" />
    <glyph glyph-name="bar" unicode="|" horiz-adv-x="520" 
d="M328 -250h-135v1616h135v-1616z" />
    <glyph glyph-name="braceright" unicode="}" horiz-adv-x="686" 
d="M582 530q-48 0 -70 -22q-8 -8 -13.5 -21.5t-8 -26t-4 -33t-2 -31t0 -32t0.5 -24.5v-270q0 -118 -15 -166.5t-48 -81.5q-42 -44 -101.5 -58t-140.5 -14h-104v109h71q84 0 117.5 6t54.5 26q20 19 27.5 55t7.5 117v271v38.5v40t1 34t3.5 35.5t6.5 27.5t10.5 27.5t15.5 20
q18 18 45 27q-28 10 -45 26q-9 9 -15.5 20t-10.5 28t-6.5 27.5t-3.5 35t-1 34v40.5v39v219q0 81 -7.5 117t-27.5 55q-21 20 -54.5 26t-117.5 6h-71v109h104q81 0 140.5 -14t101.5 -58q33 -33 48 -81t15 -166v-220q0 -3 -0.5 -24.5t0 -32t2 -31t4 -33t8 -26t13.5 -21.5
q22 -22 70 -22v-107z" />
    <glyph glyph-name="asciitilde" unicode="~" 
d="M1047 535q-99 -134 -226 -134q-53 0 -112.5 18.5t-104 40t-99.5 40t-99 18.5q-82 0 -154 -80l-84 66q10 17 23.5 33.5t42.5 43t74.5 42.5t99.5 16t113 -18.5t102 -40t97 -40t99 -18.5q75 0 150 84z" />
    <glyph glyph-name="exclamdown" unicode="&#xa1;" horiz-adv-x="593" 
d="M389 915q0 -38 -27 -65t-65 -27t-65 27t-27 65t27 65.5t65 27.5t65 -27.5t27 -65.5zM379 -375h-158l21 1034h110z" />
    <glyph glyph-name="cent" unicode="&#xa2;" 
d="M1024 98q-6 -7 -41 -26t-99.5 -41t-125.5 -27v-209h-117v207q-86 7 -161 42t-133 95t-91 151t-33 202q0 117 34.5 215t93.5 163t133 104t157 48v168h117v-164q67 -6 129 -29t88 -39.5t35 -25.5l-56 -86q-97 58 -196 69v-796q23 2 46 7t43 11t37 12t32.5 13.5t25 12
t19 9.5t10.5 6zM641 119v792q-122 -20 -206.5 -127.5t-84.5 -273.5q0 -171 85.5 -273.5t205.5 -117.5z" />
    <glyph glyph-name="sterling" unicode="&#xa3;" 
d="M1104 1270l-64 -82q-118 92 -266 92t-229.5 -93.5t-81.5 -268.5q0 -74 14 -211h400v-111h-390q0 -5 3.5 -50.5t3.5 -72.5q0 -281 -121 -358h696v-115h-899v104q65 20 104.5 51t65 98t25.5 173q0 48 -9 170h-182v111h174q-20 148 -20 211q0 220 118 346.5t320 126.5
q73 0 137.5 -15.5t105.5 -38t63.5 -39.5t31.5 -28z" />
    <glyph glyph-name="currency" unicode="&#xa4;" 
d="M1133 244l-76 -76l-111 108q-131 -116 -340 -116q-199 0 -336 121l-112 -113l-76 76l119 118q-92 131 -92 316q0 201 98 338l-125 127l76 76l123 -123q134 118 337 118q194 0 322 -110l117 115l76 -76l-119 -119q100 -140 100 -334q0 -196 -96 -334zM983 696
q0 191 -105.5 303.5t-271.5 112.5q-168 0 -267 -112.5t-99 -309.5q0 -196 104.5 -311t267.5 -115q172 0 271.5 113.5t99.5 318.5z" />
    <glyph glyph-name="yen" unicode="&#xa5;" 
d="M1096 1366l-385 -659h258v-101h-299v-112h299v-101h-299v-393h-129v393h-297v101h297v112h-297v101h252l-377 659h145l342 -637l355 637h135z" />
    <glyph glyph-name="brokenbar" unicode="&#xa6;" horiz-adv-x="520" 
d="M328 745h-135v621h135v-621zM328 -250h-135v623h135v-623z" />
    <glyph glyph-name="section" unicode="&#xa7;" 
d="M995 569q0 -198 -225 -286q100 -53 143 -113.5t43 -144.5q0 -138 -101 -231t-269 -93q-202 0 -367 115l62 96l9 -5q8 -5 16.5 -10t22.5 -12.5t29.5 -14t34.5 -14.5t40 -14t43.5 -11t47.5 -8t49 -3q121 0 185.5 54.5t64.5 133.5q0 70 -47 117q-34 34 -95.5 65t-119 51.5
t-124.5 57t-111 80.5q-80 80 -80 180q0 189 239 279q-100 52 -146 116t-46 150q0 131 95 209t253 78q179 0 305 -101l-57 -88q-12 9 -38 23.5t-87.5 34.5t-120.5 20q-102 0 -159.5 -45t-57.5 -115q0 -63 41 -104q38 -38 127.5 -79.5t181 -85t135.5 -87.5q84 -84 84 -195z
M862 547q0 70 -45 115q-12 12 -25.5 23t-31.5 22t-29.5 18t-35.5 18t-32 15t-35.5 16t-31.5 14q-105 -32 -163 -87.5t-58 -122.5q0 -60 47 -107q13 -13 33.5 -26.5t38.5 -24t48 -24.5t45.5 -21t47.5 -20.5t39 -16.5q94 35 141 90.5t47 118.5z" />
    <glyph glyph-name="dieresis" unicode="&#xa8;" horiz-adv-x="778" 
d="M637 1260q0 -38 -27 -65.5t-65 -27.5t-65 27.5t-27 65.5t27 65t65 27t65 -27t27 -65zM326 1260q0 -38 -27.5 -65.5t-65.5 -27.5t-65 27.5t-27 65.5t27 65t65 27t65.5 -27t27.5 -65z" />
    <glyph glyph-name="copyright" unicode="&#xa9;" horiz-adv-x="1611" 
d="M1513 682q0 -143 -56 -274t-150.5 -226t-225.5 -151t-274 -56q-191 0 -354.5 95t-259 258t-95.5 354t95.5 354.5t259 259t354.5 95.5q193 0 356.5 -98t256.5 -261t93 -350zM1397 682q0 123 -47.5 233t-127.5 188t-188.5 123.5t-226.5 45.5q-120 0 -230.5 -48.5t-189 -129
t-125.5 -188.5t-47 -224q0 -159 80 -294.5t216.5 -214.5t295.5 -79t295 79t215.5 214.5t79.5 294.5zM1067 385q-17 -22 -92 -53t-166 -31q-155 0 -252.5 102t-97.5 273q0 180 102 293.5t266 113.5q83 0 147.5 -30t84.5 -52l-53 -81q-89 59 -185 59q-109 0 -177.5 -82.5
t-68.5 -208.5q0 -127 67.5 -202.5t172.5 -75.5q32 0 61.5 4.5t53.5 13t39 15t32 16t19 10.5z" />
    <glyph glyph-name="ordfeminine" unicode="&#xaa;" horiz-adv-x="839" 
d="M680 639h-96v49q-105 -65 -222 -65q-104 0 -169.5 62.5t-65.5 162.5q0 242 420 242h33v20q0 61 -6 95t-29 57q-38 38 -133 38q-105 0 -199 -59l-43 70q10 10 36 26t88.5 35t129.5 19q129 0 199 -70q35 -35 46 -80.5t11 -134.5v-467zM580 768v238h-35q-314 0 -314 -158
q0 -58 37.5 -96.5t114.5 -38.5q92 0 197 55z" />
    <glyph glyph-name="guillemotleft" unicode="&#xab;" horiz-adv-x="952" 
d="M821 170l-90 -59l-282 395l282 387l90 -59l-198 -328zM502 170l-90 -59l-283 395l283 387l90 -59l-199 -328z" />
    <glyph glyph-name="logicalnot" unicode="&#xac;" 
d="M1094 295h-119v278h-854v109h973v-387z" />
    <glyph glyph-name="registered" unicode="&#xae;" horiz-adv-x="1097" 
d="M999 940q0 -187 -131 -317.5t-319 -130.5t-319.5 130.5t-131.5 317.5q0 188 132 319.5t319 131.5t318.5 -131.5t131.5 -319.5zM907 940q0 151 -103.5 253.5t-254.5 102.5t-255 -103t-104 -253t104 -252t255 -102t254.5 102t103.5 252zM762 698h-90l-62 127
q-26 54 -41.5 64t-68.5 10h-23v-201h-86v494h121q60 0 96.5 -7.5t65.5 -33.5q43 -40 43 -104q0 -44 -25.5 -77.5t-75.5 -39.5q40 0 68 -64zM633 1051q0 22 -10.5 36t-31.5 19.5t-35.5 6.5t-39.5 1h-39v-137h20h23t22 1t24 3t20.5 5.5t19.5 9t13.5 13t10.5 18.5t3 24z" />
    <glyph glyph-name="macron" unicode="&#xaf;" horiz-adv-x="778" 
d="M696 1204h-614v111h614v-111z" />
    <glyph glyph-name="degree" unicode="&#xb0;" 
d="M903 1096q0 -123 -86 -209t-209 -86t-210 86t-87 209t87 209t210 86t209 -86t86 -209zM809 1096q0 85 -58 142.5t-143 57.5t-143.5 -57.5t-58.5 -142.5t58.5 -143t143.5 -58t143 58t58 143z" />
    <glyph glyph-name="plusminus" unicode="&#xb1;" 
d="M1065 629h-403v-426h-109v426h-403v108h403v434h109v-434h403v-108zM1065 0h-915v109h915v-109z" />
    <glyph glyph-name="twosuperior" unicode="&#xb2;" horiz-adv-x="780" 
d="M596 668h-424v80q3 3 40 37t56.5 53.5t58 58.5t62 69t49.5 66.5t38.5 69.5t12.5 61q0 58 -29.5 90.5t-86.5 32.5q-69 0 -150 -72l-55 64q25 33 83.5 66.5t131.5 33.5q98 0 156.5 -57.5t58.5 -151.5q0 -86 -67.5 -176.5t-219.5 -232.5h285v-92z" />
    <glyph glyph-name="threesuperior" unicode="&#xb3;" horiz-adv-x="780" 
d="M604 870q0 -98 -66 -155.5t-165 -57.5q-46 0 -85 10t-64 26t-39.5 29t-24.5 26l55 61q73 -61 147 -61q67 0 104.5 30.5t37.5 83.5q0 43 -29 76q-22 24 -56.5 33.5t-99.5 9.5h-28v90h35q33 0 59 4t52.5 14.5t41.5 34t15 58.5q0 45 -31 75.5t-86 30.5q-85 0 -146 -61
l-57 57q13 16 34.5 34t70.5 39t102 21q96 0 154.5 -53t58.5 -141q0 -49 -34.5 -95t-88.5 -59q60 -13 96.5 -57t36.5 -103z" />
    <glyph glyph-name="acute" unicode="&#xb4;" horiz-adv-x="778" 
d="M629 1282l-439 -164l-40 80l423 205z" />
    <glyph glyph-name="uni00B5" unicode="&#xb5;" horiz-adv-x="1044" 
d="M901 0h-113v78q-24 -16 -54 -32.5t-109.5 -41t-155.5 -24.5q-18 0 -36 1.5t-32 3.5t-28.5 5.5t-24.5 6.5t-21.5 8t-18 8t-15 8t-12 7t-9 6.5t-6.5 4.5v-289h-123v1233h123v-586q0 -66 2 -101.5t15.5 -78.5t40.5 -70q59 -59 153 -59q30 0 61.5 5t59.5 13t53 17t47.5 20
t37.5 18.5t28 15t14 7.5v799h123v-983z" />
    <glyph glyph-name="paragraph" unicode="&#xb6;" 
d="M1092 1257h-125v-1507h-109v1507h-100v-1507h-107v825q-135 0 -199 11q-141 25 -219 102q-110 110 -110 295q0 162 106 268q73 73 182.5 94t321.5 21h359v-109z" />
    <glyph glyph-name="periodcentered" unicode="&#xb7;" horiz-adv-x="442" 
d="M313 520q0 -38 -27 -65t-65 -27t-65 27t-27 65t27 65t65 27t65 -27t27 -65z" />
    <glyph glyph-name="cedilla" unicode="&#xb8;" horiz-adv-x="778" 
d="M557 -268q0 -83 -59 -130.5t-136 -47.5q-95 0 -141 40l33 74q38 -24 98 -24q55 0 78 26t23 58q0 37 -24 60.5t-62 23.5q-43 0 -82 -29l-54 35l37 182h88l-18 -109q15 11 51 11q75 0 121.5 -47.5t46.5 -122.5z" />
    <glyph glyph-name="onesuperior" unicode="&#xb9;" horiz-adv-x="780" 
d="M481 668h-106v567l-160 -102l-55 81l239 152h82v-698z" />
    <glyph glyph-name="ordmasculine" unicode="&#xba;" horiz-adv-x="837" 
d="M752 999q0 -172 -90.5 -275t-245.5 -103q-149 0 -239.5 105t-90.5 280t90.5 280t247.5 105q150 0 239 -105.5t89 -286.5zM649 1004q0 133 -66 216t-165 83q-104 0 -167 -80.5t-63 -214.5q0 -133 66 -215t166 -82q107 0 168 79.5t61 213.5z" />
    <glyph glyph-name="guillemotright" unicode="&#xbb;" horiz-adv-x="952" 
d="M823 506l-282 -395l-90 59l198 336l-198 328l90 59zM504 506l-283 -395l-90 59l199 336l-199 328l90 59z" />
    <glyph glyph-name="onequarter" unicode="&#xbc;" horiz-adv-x="1497" 
d="M481 668h-106v567l-160 -102l-55 81l239 152h82v-698zM1278 1372l-975 -1446l-88 60l975 1450zM1366 160h-96v-160h-105v160h-336v78l345 460h96v-446h96v-92zM1165 252v291l-215 -291h215z" />
    <glyph glyph-name="onehalf" unicode="&#xbd;" horiz-adv-x="1497" 
d="M1315 0h-424v80q1 1 39.5 36.5t57 54t58 59t62 69.5t49 66.5t39 70t12.5 60.5q0 118 -116 118q-75 0 -150 -67l-51 63q16 30 76.5 64.5t134.5 34.5q94 0 150.5 -56.5t56.5 -150.5q0 -88 -66 -180.5t-213 -229.5h285v-92zM481 668h-106v567l-160 -102l-55 81l239 152h82
v-698zM1278 1372l-975 -1446l-88 60l975 1450z" />
    <glyph glyph-name="threequarters" unicode="&#xbe;" horiz-adv-x="1497" 
d="M1278 1372l-975 -1446l-88 60l975 1450zM604 870q0 -98 -66 -155.5t-165 -57.5q-46 0 -85 10t-64 26t-39.5 29t-24.5 26l55 61q73 -61 147 -61q67 0 104.5 30.5t37.5 83.5q0 43 -29 76q-22 24 -56.5 33.5t-99.5 9.5h-28v90h35q33 0 59 4t52.5 14.5t41.5 34t15 58.5
q0 45 -31 75.5t-86 30.5q-85 0 -146 -61l-57 57q13 16 34.5 34t70.5 39t102 21q96 0 154.5 -53t58.5 -141q0 -49 -34.5 -95t-88.5 -59q60 -13 96.5 -57t36.5 -103zM1366 160h-96v-160h-105v160h-336v78l345 460h96v-446h96v-92zM1165 252v291l-215 -291h215z" />
    <glyph glyph-name="questiondown" unicode="&#xbf;" horiz-adv-x="1009" 
d="M690 915q0 -38 -27 -65t-65 -27t-65 27t-27 65t27 65.5t65 27.5t65 -27.5t27 -65.5zM897 -281q-3 -4 -21 -16.5t-53.5 -30.5t-78 -34t-101.5 -27.5t-117 -11.5q-172 0 -275.5 103t-103.5 273q0 53 10.5 98t30.5 79t37 55t41 45q35 35 121 88t111 78q8 8 14 16t10.5 14.5
t8 17t5.5 17t3.5 21t2.5 22.5t1 27v29.5v36v40.5h110q4 -78 4 -114q0 -80 -7 -112.5t-40 -65.5t-111.5 -88.5t-117.5 -94.5q-51 -51 -71.5 -97.5t-20.5 -111.5q0 -116 74 -188t194 -72q62 0 133.5 24.5t100 40.5t49.5 30z" />
    <glyph glyph-name="Agrave" unicode="&#xc0;" horiz-adv-x="1189" 
d="M1167 0h-139l-139 391h-596l-139 -391h-131l497 1366h148zM850 504l-260 725l-258 -725h518zM842 1548l-41 -80l-439 164l56 121z" />
    <glyph glyph-name="Aacute" unicode="&#xc1;" horiz-adv-x="1189" 
d="M1167 0h-139l-139 391h-596l-139 -391h-131l497 1366h148zM850 504l-260 725l-258 -725h518zM836 1632l-439 -164l-41 80l424 205z" />
    <glyph glyph-name="Acircumflex" unicode="&#xc2;" horiz-adv-x="1189" 
d="M1167 0h-139l-139 391h-596l-139 -391h-131l497 1366h148zM850 504l-260 725l-258 -725h518zM901 1548l-53 -80l-258 142l-258 -142l-58 80l316 203z" />
    <glyph glyph-name="Atilde" unicode="&#xc3;" horiz-adv-x="1189" 
d="M1167 0h-139l-139 391h-596l-139 -391h-131l497 1366h148zM850 504l-260 725l-258 -725h518zM905 1563q-93 -93 -203 -93q-39 0 -112.5 23t-112.5 23q-62 0 -137 -48l-59 80q58 48 102.5 68t95.5 20q41 0 115 -23.5t111 -23.5q76 0 141 56z" />
    <glyph glyph-name="Adieresis" unicode="&#xc4;" horiz-adv-x="1189" 
d="M1167 0h-139l-139 391h-596l-139 -391h-131l497 1366h148zM850 504l-260 725l-258 -725h518zM840 1577q0 -38 -27 -65t-65 -27t-65.5 27t-27.5 65t27.5 65t65.5 27t65 -27t27 -65zM528 1577q0 -38 -27 -65t-65 -27t-65 27t-27 65t27 65t65 27t65 -27t27 -65z" />
    <glyph glyph-name="Aring" unicode="&#xc5;" horiz-adv-x="1189" 
d="M1167 0h-139l-139 391h-596l-139 -391h-131l497 1366h148zM850 504l-260 725l-258 -725h518zM791 1669q0 -83 -59 -142t-142 -59t-142 59t-59 142q0 85 59 143t142 58q84 0 142.5 -59.5t58.5 -141.5zM707 1669q0 50 -34.5 83.5t-82.5 33.5q-47 0 -81 -35t-34 -82t34 -81
t81 -34q49 0 83 33.5t34 81.5z" />
    <glyph glyph-name="AE" unicode="&#xc6;" horiz-adv-x="1738" 
d="M1622 0h-737v391h-488l-211 -391h-145l770 1366h795v-111h-592v-485h555v-108h-555v-549h608v-113zM885 504v751l-428 -751h428z" />
    <glyph glyph-name="Ccedilla" unicode="&#xc7;" horiz-adv-x="1241" 
d="M1192 106q-10 -10 -40.5 -28t-85 -43t-138 -42.5t-172.5 -17.5l-19 -92q15 11 54 11q76 0 124 -50t48 -127q0 -85 -60 -133.5t-139 -48.5q-53 0 -91 13.5t-55 27.5l33 76q40 -25 101 -25q56 0 80 26.5t24 59.5q0 39 -24.5 63.5t-63.5 24.5q-46 0 -86 -30l-53 36l35 175
q-81 9 -158 39t-149 87t-125.5 134t-86 188t-32.5 242q0 167 52.5 304.5t143 228t211 139.5t256.5 49q109 0 204 -25t137 -48t59 -40l-60 -96q-10 7 -32.5 18.5t-65 28.5t-104.5 29t-128 12q-111 0 -209 -40t-171.5 -113.5t-116.5 -185t-43 -245.5q0 -270 143.5 -431
t382.5 -161q37 0 74.5 4.5t68 11.5t60 16.5t51.5 18.5t42 19t32 17t21 13l9 5z" />
    <glyph glyph-name="Egrave" unicode="&#xc8;" horiz-adv-x="1019" 
d="M913 0h-737v1366h721v-111h-592v-485h555v-108h-555v-547h608v-115zM768 1548l-41 -80l-438 164l55 121z" />
    <glyph glyph-name="Eacute" unicode="&#xc9;" horiz-adv-x="1019" 
d="M913 0h-737v1366h721v-111h-592v-485h555v-108h-555v-547h608v-115zM776 1632l-438 -164l-41 80l424 205z" />
    <glyph glyph-name="Ecircumflex" unicode="&#xca;" horiz-adv-x="1019" 
d="M913 0h-737v1366h721v-111h-592v-485h555v-108h-555v-547h608v-115zM838 1548l-54 -80l-258 142l-258 -142l-57 80l315 203z" />
    <glyph glyph-name="Edieresis" unicode="&#xcb;" horiz-adv-x="1019" 
d="M913 0h-737v1366h721v-111h-592v-485h555v-108h-555v-547h608v-115zM760 1577q0 -38 -27 -65t-65 -27t-65.5 27t-27.5 65t27.5 65t65.5 27t65 -27t27 -65zM449 1577q0 -38 -27.5 -65t-65.5 -27t-65 27t-27 65t27 65t65 27t65.5 -27t27.5 -65z" />
    <glyph glyph-name="Igrave" unicode="&#xcc;" horiz-adv-x="483" 
d="M315 0h-131v1366h131v-1366zM500 1546l-41 -80l-439 164l56 121z" />
    <glyph glyph-name="Iacute" unicode="&#xcd;" horiz-adv-x="483" 
d="M315 0h-131v1366h131v-1366zM479 1632l-438 -164l-41 80l424 205z" />
    <glyph glyph-name="Icircumflex" unicode="&#xce;" horiz-adv-x="483" 
d="M315 0h-131v1366h131v-1366zM553 1548l-53 -80l-258 142l-258 -142l-58 80l316 203z" />
    <glyph glyph-name="Idieresis" unicode="&#xcf;" horiz-adv-x="483" 
d="M315 0h-131v1366h131v-1366zM498 1577q0 -38 -27 -65t-65 -27t-65.5 27t-27.5 65t27.5 65t65.5 27t65 -27t27 -65zM186 1577q0 -38 -27 -65t-65 -27t-65 27t-27 65t27 65t65 27t65 -27t27 -65z" />
    <glyph glyph-name="Eth" unicode="&#xd0;" horiz-adv-x="1400" 
d="M1288 690q0 -320 -196 -516q-47 -47 -99.5 -79.5t-102.5 -51t-117 -28.5t-124 -12.5t-143 -2.5h-309v662h-205v108h205v596h262q119 0 197.5 -5t163 -22t150.5 -52t122 -91q93 -93 144.5 -224t51.5 -282zM1155 694q0 266 -162 428q-85 85 -196 110t-334 25h-135v-487h413
v-108h-413v-553h186q87 0 141.5 3.5t121 17t121 43.5t103.5 79q75 75 114.5 191t39.5 251z" />
    <glyph glyph-name="Ntilde" unicode="&#xd1;" horiz-adv-x="1298" 
d="M1122 0h-149l-680 1174l4 -1174h-121v1366h143l687 -1184l-5 1184h121v-1366zM940 1563q-93 -93 -203 -93q-39 0 -112.5 23t-112.5 23q-62 0 -137 -48l-60 80q57 48 102.5 68t96.5 20q40 0 114 -23.5t111 -23.5q77 0 142 56z" />
    <glyph glyph-name="Ograve" unicode="&#xd2;" horiz-adv-x="1435" 
d="M1323 688q0 -207 -76.5 -369.5t-216 -253t-319.5 -90.5q-169 0 -305.5 89t-214.5 248.5t-78 359.5q0 156 45.5 290t125.5 228t194.5 147.5t248.5 53.5q260 0 428 -197t168 -506zM1184 696q0 258 -132 420t-339 162q-210 0 -335.5 -162.5t-125.5 -427.5
q0 -263 132.5 -431.5t334.5 -168.5q214 0 339.5 165.5t125.5 442.5zM952 1546l-41 -80l-438 164l55 121z" />
    <glyph glyph-name="Oacute" unicode="&#xd3;" horiz-adv-x="1435" 
d="M1323 688q0 -207 -76.5 -369.5t-216 -253t-319.5 -90.5q-169 0 -305.5 89t-214.5 248.5t-78 359.5q0 156 45.5 290t125.5 228t194.5 147.5t248.5 53.5q260 0 428 -197t168 -506zM1184 696q0 258 -132 420t-339 162q-210 0 -335.5 -162.5t-125.5 -427.5
q0 -263 132.5 -431.5t334.5 -168.5q214 0 339.5 165.5t125.5 442.5zM934 1632l-438 -164l-41 80l424 205z" />
    <glyph glyph-name="Ocircumflex" unicode="&#xd4;" horiz-adv-x="1435" 
d="M1323 688q0 -207 -76.5 -369.5t-216 -253t-319.5 -90.5q-169 0 -305.5 89t-214.5 248.5t-78 359.5q0 156 45.5 290t125.5 228t194.5 147.5t248.5 53.5q260 0 428 -197t168 -506zM1184 696q0 258 -132 420t-339 162q-210 0 -335.5 -162.5t-125.5 -427.5
q0 -263 132.5 -431.5t334.5 -168.5q214 0 339.5 165.5t125.5 442.5zM1016 1548l-53 -80l-258 142l-259 -142l-57 80l316 203z" />
    <glyph glyph-name="Otilde" unicode="&#xd5;" horiz-adv-x="1435" 
d="M1323 688q0 -207 -76.5 -369.5t-216 -253t-319.5 -90.5q-169 0 -305.5 89t-214.5 248.5t-78 359.5q0 156 45.5 290t125.5 228t194.5 147.5t248.5 53.5q260 0 428 -197t168 -506zM1184 696q0 258 -132 420t-339 162q-210 0 -335.5 -162.5t-125.5 -427.5
q0 -263 132.5 -431.5t334.5 -168.5q214 0 339.5 165.5t125.5 442.5zM1024 1563q-93 -93 -203 -93q-39 0 -112.5 23t-112.5 23q-62 0 -137 -48l-60 80q57 48 102.5 68t96.5 20q40 0 114 -23.5t111 -23.5q77 0 142 56z" />
    <glyph glyph-name="Odieresis" unicode="&#xd6;" horiz-adv-x="1435" 
d="M1323 688q0 -207 -76.5 -369.5t-216 -253t-319.5 -90.5q-169 0 -305.5 89t-214.5 248.5t-78 359.5q0 156 45.5 290t125.5 228t194.5 147.5t248.5 53.5q260 0 428 -197t168 -506zM1184 696q0 258 -132 420t-339 162q-210 0 -335.5 -162.5t-125.5 -427.5
q0 -263 132.5 -431.5t334.5 -168.5q214 0 339.5 165.5t125.5 442.5zM969 1577q0 -38 -27 -65t-65 -27t-65.5 27t-27.5 65t27.5 65t65.5 27t65 -27t27 -65zM657 1577q0 -38 -27 -65t-65 -27t-65 27t-27 65t27 65t65 27t65 -27t27 -65z" />
    <glyph glyph-name="multiply" unicode="&#xd7;" 
d="M1071 131l-76 -76l-389 387l-387 -387l-76 76l387 387l-387 389l76 76l387 -387l389 387l76 -76l-387 -389z" />
    <glyph glyph-name="Oslash" unicode="&#xd8;" horiz-adv-x="1435" 
d="M1323 688q0 -207 -76.5 -369.5t-216 -253t-319.5 -90.5q-71 0 -138.5 18t-95.5 32t-43 24l-108 -188l-95 55l111 197q-9 8 -17 15t-33 34.5t-45.5 56.5t-46.5 78.5t-44 101.5t-30.5 124t-12.5 149q0 156 45.5 290t125.5 228t194.5 147.5t248.5 53.5q59 0 115 -11
t93.5 -27t59 -27.5t29.5 -18.5l111 194l94 -55l-117 -207q36 -36 46 -48q139 -165 161 -416q4 -43 4 -87zM1184 696q0 78 -14 149.5t-31.5 117.5t-40.5 85.5t-34.5 54.5t-19.5 23l-550 -970l8 -5q8 -5 18.5 -10.5t26 -13t34.5 -14t40.5 -12.5t47.5 -9.5t52 -3.5
q214 0 338.5 165.5t124.5 442.5zM963 1200q-33 29 -101 53.5t-147 24.5q-210 0 -336.5 -162.5t-126.5 -427.5q0 -152 44 -268t112 -189z" />
    <glyph glyph-name="Ugrave" unicode="&#xd9;" horiz-adv-x="1263" 
d="M1108 709v-77v-76t-1 -68.5t-3 -68.5t-6 -60.5t-10 -61t-15.5 -53t-21.5 -52.5t-28 -44.5t-36 -43.5q-129 -129 -354 -129t-359 134q-25 25 -44 54.5t-31.5 54.5t-21 65.5t-13 64t-6.5 75.5t-2 75.5v86.5v42v739h129v-864q0 -61 1.5 -89.5t8.5 -77t26 -84.5t50 -67
q96 -96 268 -96q75 0 140.5 24t105.5 64q66 66 80 149t14 302v16v723h129v-657zM854 1548l-41 -80l-438 164l55 121z" />
    <glyph glyph-name="Uacute" unicode="&#xda;" horiz-adv-x="1263" 
d="M1108 709v-77v-76t-1 -68.5t-3 -68.5t-6 -60.5t-10 -61t-15.5 -53t-21.5 -52.5t-28 -44.5t-36 -43.5q-129 -129 -354 -129t-359 134q-25 25 -44 54.5t-31.5 54.5t-21 65.5t-13 64t-6.5 75.5t-2 75.5v86.5v42v739h129v-864q0 -61 1.5 -89.5t8.5 -77t26 -84.5t50 -67
q96 -96 268 -96q75 0 140.5 24t105.5 64q66 66 80 149t14 302v16v723h129v-657zM872 1632l-438 -164l-41 80l424 205z" />
    <glyph glyph-name="Ucircumflex" unicode="&#xdb;" horiz-adv-x="1263" 
d="M1108 709v-77v-76t-1 -68.5t-3 -68.5t-6 -60.5t-10 -61t-15.5 -53t-21.5 -52.5t-28 -44.5t-36 -43.5q-129 -129 -354 -129t-359 134q-25 25 -44 54.5t-31.5 54.5t-21 65.5t-13 64t-6.5 75.5t-2 75.5v86.5v42v739h129v-864q0 -61 1.5 -89.5t8.5 -77t26 -84.5t50 -67
q96 -96 268 -96q75 0 140.5 24t105.5 64q66 66 80 149t14 302v16v723h129v-657zM932 1548l-53 -80l-258 142l-259 -142l-57 80l316 203z" />
    <glyph glyph-name="Udieresis" unicode="&#xdc;" horiz-adv-x="1263" 
d="M1108 709v-77v-76t-1 -68.5t-3 -68.5t-6 -60.5t-10 -61t-15.5 -53t-21.5 -52.5t-28 -44.5t-36 -43.5q-129 -129 -354 -129t-359 134q-25 25 -44 54.5t-31.5 54.5t-21 65.5t-13 64t-6.5 75.5t-2 75.5v86.5v42v739h129v-864q0 -61 1.5 -89.5t8.5 -77t26 -84.5t50 -67
q96 -96 268 -96q75 0 140.5 24t105.5 64q66 66 80 149t14 302v16v723h129v-657zM881 1577q0 -38 -27.5 -65t-65.5 -27t-65 27t-27 65t27 65t65 27t65.5 -27t27.5 -65zM569 1577q0 -38 -27 -65t-65 -27t-65 27t-27 65t27 65t65 27t65 -27t27 -65z" />
    <glyph glyph-name="Yacute" unicode="&#xdd;" horiz-adv-x="1107" 
d="M1055 1366l-437 -827v-539h-129v539l-436 827h144l364 -700l361 700h133zM786 1632l-438 -164l-41 80l424 205z" />
    <glyph glyph-name="Thorn" unicode="&#xde;" horiz-adv-x="1114" 
d="M1001 707q0 -97 -32 -171t-76 -118q-35 -35 -76.5 -58.5t-75 -35.5t-90 -18t-89.5 -6.5t-104 -0.5h-32h-121v-299h-129v1366h129v-266h182q150 0 243 -19.5t161 -87.5q110 -110 110 -286zM870 709q0 133 -84 217q-17 17 -37 29t-50 19.5t-48 11.5t-60 5.5t-54.5 1.5
h-61.5h-170v-587h113h26q72 0 107.5 1.5t86 8t84.5 23t62 44.5q86 86 86 226z" />
    <glyph glyph-name="germandbls" unicode="&#xdf;" horiz-adv-x="1079" 
d="M991 315q0 -105 -51.5 -183.5t-134 -117.5t-182.5 -39q-33 0 -66.5 4.5t-58.5 11t-49.5 15.5t-38.5 15.5t-27 13t-14 6.5l45 100q102 -51 198 -51q109 0 177.5 58.5t68.5 156.5q0 92 -76 168q-24 24 -104 81.5t-115 92.5q-49 49 -49 107q0 38 23.5 75.5t57 70.5t67.5 69
t57.5 86t23.5 106q0 103 -64.5 165.5t-166.5 62.5q-104 0 -170 -66q-39 -39 -57.5 -111.5t-18.5 -226.5v-985h-123v911v28q0 74 0.5 111.5t6 98.5t16.5 98t32.5 79.5t53.5 74.5q98 98 268 98q156 0 256.5 -93.5t100.5 -242.5q0 -68 -22.5 -126t-54.5 -95.5t-64 -67.5
t-54.5 -57t-22.5 -49q0 -14 5.5 -25t9 -15t20.5 -21q20 -20 63.5 -52t80 -62t73.5 -69.5t58.5 -93t21.5 -115.5z" />
    <glyph glyph-name="agrave" unicode="&#xe0;" horiz-adv-x="950" 
d="M821 0h-112v74l-9 -5q-8 -5 -19 -11.5t-29 -15t-37.5 -17t-45.5 -17t-52.5 -14.5t-58.5 -10t-63 -4q-141 0 -228 82.5t-87 216.5q0 64 23.5 115.5t58.5 84.5t88.5 57t101 36t109.5 18.5t100 8t86 1.5h51v37q0 81 -9 128t-40 79q-57 57 -186 57q-137 0 -273 -78l-51 86
q4 4 18.5 13.5t46 25t69 29t92.5 23.5t112 10q171 0 266 -95q48 -48 63 -106.5t15 -175.5v-633zM698 168v332h-55q-436 0 -436 -224q0 -80 54 -134t163 -54q30 0 62.5 5.5t58.5 12.5t53.5 17.5t44 18t34.5 16.5t21 10zM723 1198l-41 -80l-438 164l55 121z" />
    <glyph glyph-name="aacute" unicode="&#xe1;" horiz-adv-x="950" 
d="M821 0h-112v74l-9 -5q-8 -5 -19 -11.5t-29 -15t-37.5 -17t-45.5 -17t-52.5 -14.5t-58.5 -10t-63 -4q-141 0 -228 82.5t-87 216.5q0 64 23.5 115.5t58.5 84.5t88.5 57t101 36t109.5 18.5t100 8t86 1.5h51v37q0 81 -9 128t-40 79q-57 57 -186 57q-137 0 -273 -78l-51 86
q4 4 18.5 13.5t46 25t69 29t92.5 23.5t112 10q171 0 266 -95q48 -48 63 -106.5t15 -175.5v-633zM698 168v332h-55q-436 0 -436 -224q0 -80 54 -134t163 -54q30 0 62.5 5.5t58.5 12.5t53.5 17.5t44 18t34.5 16.5t21 10zM715 1282l-439 -164l-40 80l423 205z" />
    <glyph glyph-name="acircumflex" unicode="&#xe2;" horiz-adv-x="950" 
d="M821 0h-112v74l-9 -5q-8 -5 -19 -11.5t-29 -15t-37.5 -17t-45.5 -17t-52.5 -14.5t-58.5 -10t-63 -4q-141 0 -228 82.5t-87 216.5q0 64 23.5 115.5t58.5 84.5t88.5 57t101 36t109.5 18.5t100 8t86 1.5h51v37q0 81 -9 128t-40 79q-57 57 -186 57q-137 0 -273 -78l-51 86
q4 4 18.5 13.5t46 25t69 29t92.5 23.5t112 10q171 0 266 -95q48 -48 63 -106.5t15 -175.5v-633zM698 168v332h-55q-436 0 -436 -224q0 -80 54 -134t163 -54q30 0 62.5 5.5t58.5 12.5t53.5 17.5t44 18t34.5 16.5t21 10zM780 1200l-53 -80l-258 142l-258 -142l-57 80l315 203z
" />
    <glyph glyph-name="atilde" unicode="&#xe3;" horiz-adv-x="950" 
d="M821 0h-112v74l-9 -5q-8 -5 -19 -11.5t-29 -15t-37.5 -17t-45.5 -17t-52.5 -14.5t-58.5 -10t-63 -4q-141 0 -228 82.5t-87 216.5q0 64 23.5 115.5t58.5 84.5t88.5 57t101 36t109.5 18.5t100 8t86 1.5h51v37q0 81 -9 128t-40 79q-57 57 -186 57q-137 0 -273 -78l-51 86
q4 4 18.5 13.5t46 25t69 29t92.5 23.5t112 10q171 0 266 -95q48 -48 63 -106.5t15 -175.5v-633zM698 168v332h-55q-436 0 -436 -224q0 -80 54 -134t163 -54q30 0 62.5 5.5t58.5 12.5t53.5 17.5t44 18t34.5 16.5t21 10zM797 1266q-92 -92 -203 -92q-39 0 -112.5 22.5
t-112.5 22.5q-63 0 -138 -48l-59 80q57 48 102.5 68t96.5 20q41 0 114 -23.5t111 -23.5q76 0 141 56z" />
    <glyph glyph-name="adieresis" unicode="&#xe4;" horiz-adv-x="950" 
d="M821 0h-112v74l-9 -5q-8 -5 -19 -11.5t-29 -15t-37.5 -17t-45.5 -17t-52.5 -14.5t-58.5 -10t-63 -4q-141 0 -228 82.5t-87 216.5q0 64 23.5 115.5t58.5 84.5t88.5 57t101 36t109.5 18.5t100 8t86 1.5h51v37q0 81 -9 128t-40 79q-57 57 -186 57q-137 0 -273 -78l-51 86
q4 4 18.5 13.5t46 25t69 29t92.5 23.5t112 10q171 0 266 -95q48 -48 63 -106.5t15 -175.5v-633zM698 168v332h-55q-436 0 -436 -224q0 -80 54 -134t163 -54q30 0 62.5 5.5t58.5 12.5t53.5 17.5t44 18t34.5 16.5t21 10zM733 1260q0 -38 -27 -65.5t-65 -27.5t-65 27.5
t-27 65.5t27 65t65 27t65 -27t27 -65zM422 1260q0 -38 -27 -65.5t-65 -27.5t-65 27.5t-27 65.5t27 65t65 27t65 -27t27 -65z" />
    <glyph glyph-name="aring" unicode="&#xe5;" horiz-adv-x="950" 
d="M821 0h-112v74l-9 -5q-8 -5 -19 -11.5t-29 -15t-37.5 -17t-45.5 -17t-52.5 -14.5t-58.5 -10t-63 -4q-141 0 -228 82.5t-87 216.5q0 64 23.5 115.5t58.5 84.5t88.5 57t101 36t109.5 18.5t100 8t86 1.5h51v37q0 81 -9 128t-40 79q-57 57 -186 57q-137 0 -273 -78l-51 86
q4 4 18.5 13.5t46 25t69 29t92.5 23.5t112 10q171 0 266 -95q48 -48 63 -106.5t15 -175.5v-633zM698 168v332h-55q-436 0 -436 -224q0 -80 54 -134t163 -54q30 0 62.5 5.5t58.5 12.5t53.5 17.5t44 18t34.5 16.5t21 10zM676 1292q0 -83 -59 -141.5t-142 -58.5t-142 58.5
t-59 141.5q0 85 59 143t142 58q84 0 142.5 -59.5t58.5 -141.5zM592 1292q0 50 -34.5 83.5t-82.5 33.5q-47 0 -81 -35t-34 -82t34 -80.5t81 -33.5q49 0 83 33.5t34 80.5z" />
    <glyph glyph-name="ae" unicode="&#xe6;" horiz-adv-x="1622" 
d="M1534 532q0 -4 -2 -29t-2 -36h-705q0 -168 88.5 -270.5t249.5 -102.5q33 0 66 4t60 11t50.5 14.5t43 16.5t32 15.5t23.5 12.5l10 6l55 -94q-2 -3 -18.5 -13t-49 -25t-73 -28.5t-97 -23.5t-112.5 -10q-70 0 -130.5 15.5t-101.5 41t-60.5 41.5t-35.5 33
q-169 -129 -393 -129q-156 0 -250 76.5t-94 205.5q0 50 15 92t39 72t60.5 54t72.5 39.5t82 26.5t82 16.5t80 9t68 4t54 0.5h66v59q0 80 -9.5 127.5t-40.5 79.5q-57 57 -186 57q-135 0 -272 -78l-52 86q4 4 18.5 13.5t46 25t69 29t92.5 23.5t112 10q172 0 267 -95
q34 -34 51 -75q53 77 142 122.5t202 45.5q174 0 280.5 -126.5t106.5 -349.5zM1409 571q0 58 -14 113.5t-43 106t-81.5 81.5t-121.5 31q-130 0 -220.5 -90.5t-99.5 -241.5h580zM764 193q-57 107 -57 256v24h-70q-52 0 -94.5 -2.5t-94 -9.5t-90.5 -22t-73 -37t-52 -57.5
t-18 -80.5q0 -77 63 -123.5t160 -46.5q100 0 187 29.5t139 69.5z" />
    <glyph glyph-name="ccedilla" unicode="&#xe7;" horiz-adv-x="950" 
d="M889 78q-7 -9 -47 -30t-122 -44.5t-165 -23.5l-16 -89q15 11 51 11q75 0 121.5 -47.5t46.5 -122.5q0 -83 -59 -130.5t-136 -47.5q-95 0 -141 40l33 74q38 -24 98 -24q55 0 77.5 26t22.5 58q0 37 -24 60.5t-62 23.5q-43 0 -82 -29l-53 35l35 168q-76 13 -142.5 48.5
t-120.5 93.5t-85 146.5t-31 196.5q0 238 136.5 387.5t353.5 149.5q49 0 96.5 -9.5t80.5 -22t61 -28t41 -24.5t17 -13l-55 -86q-1 0 -8 4.5t-12 7.5t-15.5 8.5t-19.5 10t-23 10t-27 9.5t-30 8.5t-34 7t-37.5 4.5t-41.5 2q-158 0 -257 -116t-99 -292q0 -179 96.5 -287
t247.5 -108q32 0 63.5 3.5t57.5 10t48 13.5t41.5 16t31.5 14.5t23 12t12 6.5z" />
    <glyph glyph-name="egrave" unicode="&#xe8;" horiz-adv-x="1011" 
d="M924 532q0 -4 -2 -29t-2 -36h-705q0 -168 88.5 -270.5t249.5 -102.5q33 0 66 4t60 11t50.5 14.5t43 16.5t32 15.5t23.5 12.5l10 6l55 -94q-2 -3 -18.5 -13t-49 -25t-73 -28.5t-97 -23.5t-112.5 -10q-212 0 -333.5 139t-121.5 366q0 238 122.5 380.5t326.5 142.5
q174 0 280.5 -126.5t106.5 -349.5zM799 571q0 58 -14 113.5t-43 106t-81.5 81.5t-121.5 31q-130 0 -220.5 -90.5t-99.5 -241.5h580zM754 1198l-41 -80l-439 164l56 121z" />
    <glyph glyph-name="eacute" unicode="&#xe9;" horiz-adv-x="1011" 
d="M924 532q0 -4 -2 -29t-2 -36h-705q0 -168 88.5 -270.5t249.5 -102.5q33 0 66 4t60 11t50.5 14.5t43 16.5t32 15.5t23.5 12.5l10 6l55 -94q-2 -3 -18.5 -13t-49 -25t-73 -28.5t-97 -23.5t-112.5 -10q-212 0 -333.5 139t-121.5 366q0 238 122.5 380.5t326.5 142.5
q174 0 280.5 -126.5t106.5 -349.5zM799 571q0 58 -14 113.5t-43 106t-81.5 81.5t-121.5 31q-130 0 -220.5 -90.5t-99.5 -241.5h580zM770 1282l-438 -164l-41 80l424 205z" />
    <glyph glyph-name="ecircumflex" unicode="&#xea;" horiz-adv-x="1011" 
d="M924 532q0 -4 -2 -29t-2 -36h-705q0 -168 88.5 -270.5t249.5 -102.5q33 0 66 4t60 11t50.5 14.5t43 16.5t32 15.5t23.5 12.5l10 6l55 -94q-2 -3 -18.5 -13t-49 -25t-73 -28.5t-97 -23.5t-112.5 -10q-212 0 -333.5 139t-121.5 366q0 238 122.5 380.5t326.5 142.5
q174 0 280.5 -126.5t106.5 -349.5zM799 571q0 58 -14 113.5t-43 106t-81.5 81.5t-121.5 31q-130 0 -220.5 -90.5t-99.5 -241.5h580zM838 1200l-54 -80l-258 142l-258 -142l-57 80l315 203z" />
    <glyph glyph-name="edieresis" unicode="&#xeb;" horiz-adv-x="1011" 
d="M924 532q0 -4 -2 -29t-2 -36h-705q0 -168 88.5 -270.5t249.5 -102.5q33 0 66 4t60 11t50.5 14.5t43 16.5t32 15.5t23.5 12.5l10 6l55 -94q-2 -3 -18.5 -13t-49 -25t-73 -28.5t-97 -23.5t-112.5 -10q-212 0 -333.5 139t-121.5 366q0 238 122.5 380.5t326.5 142.5
q174 0 280.5 -126.5t106.5 -349.5zM799 571q0 58 -14 113.5t-43 106t-81.5 81.5t-121.5 31q-130 0 -220.5 -90.5t-99.5 -241.5h580zM776 1260q0 -38 -27 -65.5t-65 -27.5t-65 27.5t-27 65.5t27 65t65 27t65 -27t27 -65zM465 1260q0 -38 -27 -65.5t-65 -27.5t-65 27.5
t-27 65.5t27 65t65 27t65 -27t27 -65z" />
    <glyph glyph-name="igrave" unicode="&#xec;" horiz-adv-x="409" 
d="M266 0h-123v983h123v-983zM444 1198l-41 -80l-438 164l55 121z" />
    <glyph glyph-name="iacute" unicode="&#xed;" horiz-adv-x="409" 
d="M266 0h-123v983h123v-983zM442 1282l-438 -164l-41 80l424 205z" />
    <glyph glyph-name="icircumflex" unicode="&#xee;" horiz-adv-x="409" 
d="M266 0h-123v983h123v-983zM520 1200l-53 -80l-258 142l-258 -142l-57 80l315 203z" />
    <glyph glyph-name="idieresis" unicode="&#xef;" horiz-adv-x="409" 
d="M266 0h-123v983h123v-983zM453 1260q0 -38 -27.5 -65.5t-65.5 -27.5t-65 27.5t-27 65.5t27 65t65 27t65.5 -27t27.5 -65zM141 1260q0 -38 -27 -65.5t-65 -27.5t-65 27.5t-27 65.5t27 65t65 27t65 -27t27 -65z" />
    <glyph glyph-name="eth" unicode="&#xf0;" horiz-adv-x="1036" 
d="M948 672q-1 -321 -116 -506t-316 -193q-186 -6 -302.5 134t-125.5 378q-8 232 100.5 373.5t300.5 147.5q143 6 312 -97q-7 63 -24.5 119t-35.5 91.5t-45.5 70t-42 48t-35.5 32.5l-251 -123l-52 92l199 96q-136 73 -354 82l8 107q159 -4 272.5 -34t208.5 -89l191 92
l51 -92l-152 -74q209 -197 209 -655zM817 653q0 39 -4 117q-62 56 -150.5 90t-166.5 31q-134 -5 -209.5 -115t-69.5 -293t86.5 -290.5t208.5 -102.5q143 5 224 154t81 409z" />
    <glyph glyph-name="ntilde" unicode="&#xf1;" horiz-adv-x="1030" 
d="M901 0h-123v573q0 64 -1 89t-5.5 67.5t-17 68t-33.5 46.5q-55 55 -154 55q-65 0 -140 -24t-115 -45t-46 -27v-803h-123v983h117v-72q23 15 55.5 31.5t113.5 41t155 24.5q145 0 227 -82q55 -55 72.5 -123.5t17.5 -210.5v-592zM834 1266q-92 -92 -203 -92
q-39 0 -112.5 22.5t-112.5 22.5q-63 0 -138 -48l-59 80q57 48 102.5 68t96.5 20q41 0 114.5 -23.5t110.5 -23.5q76 0 141 56z" />
    <glyph glyph-name="ograve" unicode="&#xf2;" horiz-adv-x="1071" 
d="M983 483q0 -231 -122.5 -369.5t-328.5 -138.5q-201 0 -322.5 140.5t-121.5 376.5q0 235 122 375.5t333 140.5q201 0 320.5 -141t119.5 -384zM856 487q0 184 -91.5 299t-229.5 115q-147 0 -233.5 -110.5t-86.5 -294.5t91 -298t231 -114q151 0 235 108.5t84 294.5z
M764 1198l-41 -80l-438 164l55 121z" />
    <glyph glyph-name="oacute" unicode="&#xf3;" horiz-adv-x="1071" 
d="M983 483q0 -231 -122.5 -369.5t-328.5 -138.5q-201 0 -322.5 140.5t-121.5 376.5q0 235 122 375.5t333 140.5q201 0 320.5 -141t119.5 -384zM856 487q0 184 -91.5 299t-229.5 115q-147 0 -233.5 -110.5t-86.5 -294.5t91 -298t231 -114q151 0 235 108.5t84 294.5z
M780 1282l-438 -164l-41 80l424 205z" />
    <glyph glyph-name="ocircumflex" unicode="&#xf4;" horiz-adv-x="1071" 
d="M983 483q0 -231 -122.5 -369.5t-328.5 -138.5q-201 0 -322.5 140.5t-121.5 376.5q0 235 122 375.5t333 140.5q201 0 320.5 -141t119.5 -384zM856 487q0 184 -91.5 299t-229.5 115q-147 0 -233.5 -110.5t-86.5 -294.5t91 -298t231 -114q151 0 235 108.5t84 294.5z
M852 1200l-53 -80l-258 142l-258 -142l-58 80l316 203z" />
    <glyph glyph-name="otilde" unicode="&#xf5;" horiz-adv-x="1071" 
d="M983 483q0 -231 -122.5 -369.5t-328.5 -138.5q-201 0 -322.5 140.5t-121.5 376.5q0 235 122 375.5t333 140.5q201 0 320.5 -141t119.5 -384zM856 487q0 184 -91.5 299t-229.5 115q-147 0 -233.5 -110.5t-86.5 -294.5t91 -298t231 -114q151 0 235 108.5t84 294.5z
M852 1266q-92 -92 -203 -92q-39 0 -112.5 22.5t-112.5 22.5q-62 0 -137 -48l-60 80q57 48 102.5 68t96.5 20q41 0 114.5 -23.5t110.5 -23.5q77 0 142 56z" />
    <glyph glyph-name="odieresis" unicode="&#xf6;" horiz-adv-x="1071" 
d="M983 483q0 -231 -122.5 -369.5t-328.5 -138.5q-201 0 -322.5 140.5t-121.5 376.5q0 235 122 375.5t333 140.5q201 0 320.5 -141t119.5 -384zM856 487q0 184 -91.5 299t-229.5 115q-147 0 -233.5 -110.5t-86.5 -294.5t91 -298t231 -114q151 0 235 108.5t84 294.5z
M780 1260q0 -38 -27 -65.5t-65 -27.5t-65 27.5t-27 65.5t27 65t65 27t65 -27t27 -65zM469 1260q0 -38 -27 -65.5t-65 -27.5t-65 27.5t-27 65.5t27 65t65 27t65 -27t27 -65z" />
    <glyph glyph-name="divide" unicode="&#xf7;" 
d="M700 950q0 -38 -27 -65t-65 -27t-66 27t-28 65t27 65t65 27q40 0 67 -27t27 -65zM1094 465h-973v108h973v-108zM700 92q0 -38 -27 -65t-65 -27t-66 27t-28 65t27 65t65 27q40 0 67 -27t27 -65z" />
    <glyph glyph-name="oslash" unicode="&#xf8;" horiz-adv-x="1071" 
d="M983 483q0 -231 -122.5 -369.5t-328.5 -138.5q-106 0 -192 43l-74 -124l-92 53l76 129q-75 65 -118.5 170.5t-43.5 245.5q0 235 122.5 375.5t332.5 140.5q54 0 106 -13t79 -25.5t32 -19.5l78 129l90 -55l-82 -139q11 -11 19.5 -20.5t33 -47.5t40.5 -79t30 -110t14 -145z
M856 487q0 94 -23.5 166.5t-54.5 112.5l-379 -647q61 -35 138 -35q151 0 235 108.5t84 294.5zM700 846q-26 22 -71 38.5t-94 16.5q-147 0 -233.5 -110.5t-86.5 -294.5q0 -188 100 -310z" />
    <glyph glyph-name="ugrave" unicode="&#xf9;" horiz-adv-x="1030" 
d="M887 0h-113v78q-24 -16 -54 -32.5t-109.5 -41t-155.5 -24.5q-150 0 -238 88q-18 18 -32 40t-23 39t-15.5 47.5t-10 43.5t-5.5 50t-2 43.5v48.5v42v561h123v-586q0 -68 2 -102t15 -77.5t40 -70.5q59 -59 154 -59q30 0 61.5 5t59.5 13t53 17t47.5 20t37.5 18.5t28 15
t14 7.5v799h123v-983zM725 1198l-41 -80l-438 164l55 121z" />
    <glyph glyph-name="uacute" unicode="&#xfa;" horiz-adv-x="1030" 
d="M887 0h-113v78q-24 -16 -54 -32.5t-109.5 -41t-155.5 -24.5q-150 0 -238 88q-18 18 -32 40t-23 39t-15.5 47.5t-10 43.5t-5.5 50t-2 43.5v48.5v42v561h123v-586q0 -68 2 -102t15 -77.5t40 -70.5q59 -59 154 -59q30 0 61.5 5t59.5 13t53 17t47.5 20t37.5 18.5t28 15
t14 7.5v799h123v-983zM750 1282l-439 -164l-41 80l424 205z" />
    <glyph glyph-name="ucircumflex" unicode="&#xfb;" horiz-adv-x="1030" 
d="M887 0h-113v78q-24 -16 -54 -32.5t-109.5 -41t-155.5 -24.5q-150 0 -238 88q-18 18 -32 40t-23 39t-15.5 47.5t-10 43.5t-5.5 50t-2 43.5v48.5v42v561h123v-586q0 -68 2 -102t15 -77.5t40 -70.5q59 -59 154 -59q30 0 61.5 5t59.5 13t53 17t47.5 20t37.5 18.5t28 15
t14 7.5v799h123v-983zM825 1200l-53 -80l-258 142l-258 -142l-57 80l315 203z" />
    <glyph glyph-name="udieresis" unicode="&#xfc;" horiz-adv-x="1030" 
d="M887 0h-113v78q-24 -16 -54 -32.5t-109.5 -41t-155.5 -24.5q-150 0 -238 88q-18 18 -32 40t-23 39t-15.5 47.5t-10 43.5t-5.5 50t-2 43.5v48.5v42v561h123v-586q0 -68 2 -102t15 -77.5t40 -70.5q59 -59 154 -59q30 0 61.5 5t59.5 13t53 17t47.5 20t37.5 18.5t28 15
t14 7.5v799h123v-983zM760 1260q0 -38 -27 -65.5t-65 -27.5t-65.5 27.5t-27.5 65.5t27.5 65t65.5 27t65 -27t27 -65zM449 1260q0 -38 -27.5 -65.5t-65.5 -27.5t-65 27.5t-27 65.5t27 65t65 27t65.5 -27t27.5 -65z" />
    <glyph glyph-name="yacute" unicode="&#xfd;" horiz-adv-x="989" 
d="M938 983l-389 -1053q-44 -120 -83 -187.5t-89 -117.5q-43 -43 -108 -66.5t-134 -23.5q-23 0 -46 2.5t-40 5.5t-34 8t-26.5 8t-19 7t-10.5 4l33 100q1 0 12 -4t21.5 -6.5t26.5 -6t36.5 -5.5t42.5 -2q103 0 160 57q42 42 71.5 99.5t75.5 172.5l-405 1008h135l338 -850
l305 850h127zM727 1282l-438 -164l-41 80l424 205z" />
    <glyph glyph-name="thorn" unicode="&#xfe;" horiz-adv-x="1060" 
d="M973 512q0 -236 -135 -384t-349 -148q-56 0 -109.5 12.5t-76 23t-37.5 19.5v-471h-123v1911h117v-560q124 93 283 93q193 0 311.5 -136.5t118.5 -359.5zM846 516q0 170 -88 276.5t-228 106.5q-63 0 -128.5 -24t-92.5 -41.5t-43 -30.5v-649q1 -1 11 -7t19 -10.5l25 -12.5
t33.5 -13.5t38.5 -11t46.5 -8.5t52.5 -3q160 0 257 117.5t97 310.5z" />
    <glyph glyph-name="ydieresis" unicode="&#xff;" horiz-adv-x="989" 
d="M938 983l-389 -1053q-44 -120 -83 -187.5t-89 -117.5q-43 -43 -108 -66.5t-134 -23.5q-23 0 -46 2.5t-40 5.5t-34 8t-26.5 8t-19 7t-10.5 4l33 100q1 0 12 -4t21.5 -6.5t26.5 -6t36.5 -5.5t42.5 -2q103 0 160 57q42 42 71.5 99.5t75.5 172.5l-405 1008h135l338 -850
l305 850h127zM750 1260q0 -38 -27.5 -65.5t-65.5 -27.5t-65 27.5t-27 65.5t27 65t65 27t65.5 -27t27.5 -65zM438 1260q0 -38 -27 -65.5t-65 -27.5t-65 27.5t-27 65.5t27 65t65 27t65 -27t27 -65z" />
    <glyph glyph-name="Idotaccent" unicode="&#x130;" horiz-adv-x="483" 
d="M307 0h-131v1366h131v-1366zM242 1671q38 0 65 -27t27 -65t-27 -65t-65 -27t-65 27t-27 65t27 65t65 27z" />
    <glyph glyph-name="dotlessi" unicode="&#x131;" horiz-adv-x="409" 
d="M266 0h-123v983h123v-983z" />
    <glyph glyph-name="Lslash" unicode="&#x141;" horiz-adv-x="1013" 
d="M946 0h-719v590l-168 -127l-67 84l235 178v641h131v-565l248 184l66 -84l-314 -231v-555h588v-115z" />
    <glyph glyph-name="lslash" unicode="&#x142;" horiz-adv-x="591" 
d="M600 918l-252 -187v-731h-123v657l-168 -131l-65 82l233 176v691h123v-617l187 141z" />
    <glyph glyph-name="OE" unicode="&#x152;" horiz-adv-x="1800" 
d="M1683 0h-741q-118 0 -197.5 5.5t-163.5 22.5t-150 52t-122 90q-93 93 -144.5 224t-51.5 282q0 320 196 516q47 47 99.5 79.5t102.5 51t117 28.5t124 12.5t143 2.5h772v-111h-592v-485h555v-108h-555v-549h608v-113zM946 109v1148h-59q-87 0 -141.5 -3.5t-121.5 -17
t-121.5 -43.5t-103.5 -79q-75 -75 -114 -191t-39 -251q0 -266 162 -428q85 -85 196 -110t334 -25h8z" />
    <glyph glyph-name="oe" unicode="&#x153;" horiz-adv-x="1775" 
d="M1688 532q0 -15 -5 -65h-704q0 -168 88.5 -270.5t249.5 -102.5q72 0 143 20t100.5 35.5t41.5 24.5l55 -94q-2 -3 -18.5 -13t-49 -25t-73 -28.5t-97 -23.5t-112.5 -10q-84 0 -155 23t-116.5 60t-72 69.5t-41.5 64.5q-7 -15 -17.5 -32t-44 -54t-73.5 -64.5t-107.5 -49.5
t-144.5 -22q-202 0 -324.5 141t-122.5 376t122.5 375.5t332.5 140.5q56 0 107.5 -12.5t86.5 -29t68.5 -44.5t50.5 -45.5t35.5 -45.5t20 -32t8.5 -17q77 155 238 205q67 21 142 21q174 0 281 -126.5t107 -349.5zM1563 571q0 58 -14 113.5t-43 106t-81.5 81.5t-121.5 31
q-130 0 -220.5 -90.5t-99.5 -241.5h580zM856 487q0 184 -91.5 299t-229.5 115q-147 0 -233.5 -110.5t-86.5 -294.5t91 -298t231 -114q151 0 235 108.5t84 294.5z" />
    <glyph glyph-name="Scaron" unicode="&#x160;" horiz-adv-x="1056" 
d="M932 375q0 -178 -113.5 -290t-320.5 -112q-223 0 -398 146l68 94l10 -7q11 -8 20 -14t25 -17t32.5 -19.5t37.5 -19t43.5 -18t47 -14.5t51.5 -10.5t54 -3.5q147 0 227.5 75t80.5 200q0 89 -70 159q-41 41 -112 78.5t-136 62t-139.5 65t-120.5 87.5q-82 82 -82 223
q0 154 112 252.5t292 98.5q228 0 374 -146l-69 -82q-1 1 -11.5 10t-22.5 18t-31.5 22t-43 23.5t-51.5 20.5t-63 15.5t-72 5.5q-127 0 -207 -66.5t-80 -169.5q0 -81 60 -141q37 -37 107 -72t136 -59t139.5 -63t118.5 -84q107 -107 107 -248zM850 1671l-315 -203l-312 203
l53 80l259 -141l258 141z" />
    <glyph glyph-name="scaron" unicode="&#x161;" horiz-adv-x="851" 
d="M750 268q0 -137 -95.5 -215t-259.5 -78q-83 0 -164.5 24t-118.5 44t-46 29l53 94q14 -10 41.5 -24.5t96 -36t130.5 -21.5q110 0 173 46t63 126q0 24 -7.5 46t-16 37.5t-28.5 31.5t-32 25.5t-40 22t-39.5 17.5t-43.5 16.5t-39 14.5q-38 15 -54 21.5t-49 21.5t-48 25
t-39 27.5t-35.5 35t-24.5 41t-18 51t-5 60.5q0 116 93.5 187t234.5 71q78 0 151.5 -21.5t105 -39.5t40.5 -27l-49 -89q-123 70 -238 70q-89 0 -150 -40.5t-61 -106.5q0 -19 3 -35t11.5 -30t15 -24.5t22.5 -21.5t25 -17.5t30.5 -16t31.5 -14t36 -14.5t36 -14q123 -49 163 -72
q139 -79 145 -215v-12zM743 1323l-315 -203l-311 203l53 80l258 -141l258 141z" />
    <glyph glyph-name="Ydieresis" unicode="&#x178;" horiz-adv-x="1107" 
d="M1055 1366l-437 -827v-539h-129v539l-436 827h144l364 -700l361 700h133zM809 1577q0 -38 -27 -65t-65 -27t-65 27t-27 65t27 65t65 27t65 -27t27 -65zM498 1577q0 -38 -27 -65t-65 -27t-65.5 27t-27.5 65t27.5 65t65.5 27t65 -27t27 -65z" />
    <glyph glyph-name="Zcaron" unicode="&#x17d;" horiz-adv-x="1112" 
d="M1016 0h-922v96l754 1159h-713v111h864v-100l-747 -1151h764v-115zM850 1671l-315 -203l-312 203l53 80l259 -141l258 141z" />
    <glyph glyph-name="zcaron" unicode="&#x17e;" horiz-adv-x="948" 
d="M836 0h-750v96l578 783h-549v104h700v-98l-569 -776h590v-109zM784 1323l-315 -203l-311 203l53 80l258 -141l258 141z" />
    <glyph glyph-name="florin" unicode="&#x192;" 
d="M1151 1343l-37 -98q-18 9 -60.5 21t-86.5 12q-92 0 -140 -57t-79 -205l-66 -307h313l-22 -113h-316l-127 -625q0 -2 -7.5 -38t-9.5 -44t-9.5 -42t-12 -47t-12.5 -41.5t-15.5 -44t-17 -36.5t-20.5 -36t-23 -27q-80 -80 -206 -80q-24 0 -46.5 2t-41 6t-34 8t-28.5 9
t-21.5 8.5t-16.5 7.5t-9 4l39 98q80 -30 147 -30q76 0 117 41q25 25 44.5 74t29 87.5t25.5 118.5q4 19 6 29l124 598h-264l23 113h264l61 292q1 3 5.5 26.5t6 30.5t7 30.5t9 33.5t10 31.5t12 34t13.5 31t16.5 31t19 27t22.5 26.5q88 88 221 88q97 0 193 -48z" />
    <glyph glyph-name="circumflex" unicode="&#x2c6;" horiz-adv-x="778" 
d="M702 1200l-53 -80l-258 142l-258 -142l-57 80l315 203z" />
    <glyph glyph-name="caron" unicode="&#x2c7;" horiz-adv-x="778" 
d="M702 1323l-315 -203l-311 203l53 80l258 -141l258 141z" />
    <glyph glyph-name="breve" unicode="&#x2d8;" horiz-adv-x="778" 
d="M662 1386q-12 -118 -84.5 -185.5t-188.5 -67.5q-115 0 -187.5 67t-84.5 186h104q21 -129 168 -129t168 129h105z" />
    <glyph glyph-name="dotaccent" unicode="&#x2d9;" horiz-adv-x="778" 
d="M481 1260q0 -38 -27 -65.5t-65 -27.5t-65 27.5t-27 65.5t27 65t65 27t65 -27t27 -65z" />
    <glyph glyph-name="ring" unicode="&#x2da;" horiz-adv-x="778" 
d="M590 1292q0 -83 -59 -141.5t-142 -58.5t-142 58.5t-59 141.5q0 85 59 143t142 58q84 0 142.5 -59.5t58.5 -141.5zM506 1292q0 50 -34.5 83.5t-82.5 33.5q-47 0 -81 -35t-34 -82t34 -80.5t81 -33.5q49 0 83 33.5t34 80.5z" />
    <glyph glyph-name="ogonek" unicode="&#x2db;" horiz-adv-x="778" 
d="M594 -387q-88 -59 -201 -59q-95 0 -151 58.5t-56 158.5q0 73 31.5 120.5t93.5 90.5l101 -31q-4 -3 -28.5 -22t-31.5 -25t-24.5 -24.5t-23.5 -31.5t-12.5 -33.5t-6.5 -43.5q0 -60 34 -93.5t93 -33.5q25 0 51.5 6t42.5 12t33.5 14t19.5 9z" />
    <glyph glyph-name="tilde" unicode="&#x2dc;" horiz-adv-x="778" 
d="M700 1266q-92 -92 -202 -92q-39 0 -113 22.5t-113 22.5q-62 0 -137 -48l-59 80q58 48 102.5 68t95.5 20q40 0 114.5 -23.5t111.5 -23.5q76 0 141 56z" />
    <glyph glyph-name="hungarumlaut" unicode="&#x2dd;" horiz-adv-x="778" 
d="M641 1382l-141 -344l-99 35l109 361zM377 1382l-139 -344l-101 35l109 361z" />
    <glyph glyph-name="Delta" unicode="&#x394;" horiz-adv-x="1435" 
d="M1243 0h-1050l477 1366h102zM1079 109l-360 1054l-367 -1054h727z" />
    <glyph glyph-name="Omega" unicode="&#x3a9;" horiz-adv-x="1679" 
d="M1487 0h-500v109q89 36 154 97t102 139.5t54.5 165.5t17.5 185q0 263 -131.5 426.5t-343.5 163.5t-345 -164t-133 -426q0 -99 17.5 -186t55.5 -165.5t103 -139t154 -96.5v-109h-499v113h317q-139 85 -212 241.5t-73 354.5q0 197 78 352.5t218.5 242.5t318.5 87
q177 0 316.5 -87t217.5 -242.5t78 -352.5q0 -195 -70.5 -352.5t-212.5 -243.5h318v-113z" />
    <glyph glyph-name="mu" unicode="&#x3bc;" horiz-adv-x="1044" 
d="M901 0h-113v78q-24 -16 -54 -32.5t-109.5 -41t-155.5 -24.5q-18 0 -36 1.5t-32 3.5t-28.5 5.5t-24.5 6.5t-21.5 8t-18 8t-15 8t-12 7t-9 6.5t-6.5 4.5v-289h-123v1233h123v-586q0 -66 2 -101.5t15.5 -78.5t40.5 -70q59 -59 153 -59q30 0 61.5 5t59.5 13t53 17t47.5 20
t37.5 18.5t28 15t14 7.5v799h123v-983z" />
    <glyph glyph-name="pi" unicode="&#x3c0;" horiz-adv-x="1370" 
d="M1178 8q-49 -14 -99 -14q-84 0 -141 57q-31 31 -42 88.5t-11 153.5v581h-422v-874h-123v874h-147v109h970v-109h-155v-559q0 -81 5.5 -123t22.5 -59q31 -31 74 -31q36 0 68 4v-98z" />
    <glyph glyph-name="figuredash" unicode="&#x2012;" 
d="M1094 465h-973v108h973v-108z" />
    <glyph glyph-name="endash" unicode="&#x2013;" horiz-adv-x="1318" 
d="M1145 465h-971v108h971v-108z" />
    <glyph glyph-name="emdash" unicode="&#x2014;" horiz-adv-x="2035" 
d="M1862 465h-1688v108h1688v-108z" />
    <glyph glyph-name="quoteleft" unicode="&#x2018;" horiz-adv-x="403" 
d="M332 1331q-60 -79 -86.5 -157t-26.5 -179h-147q0 120 55.5 227.5t120.5 172.5z" />
    <glyph glyph-name="quoteright" unicode="&#x2019;" horiz-adv-x="403" 
d="M332 1366q0 -120 -55.5 -227t-120.5 -172l-84 63q59 79 85.5 157t26.5 179h148z" />
    <glyph glyph-name="quotesinglbase" unicode="&#x201a;" horiz-adv-x="403" 
d="M332 156q0 -120 -55.5 -227.5t-120.5 -172.5l-84 64q59 79 85.5 157t26.5 179h148z" />
    <glyph glyph-name="quotedblleft" unicode="&#x201c;" horiz-adv-x="673" 
d="M602 1331q-60 -79 -86.5 -157t-26.5 -179h-147q0 120 55.5 227.5t120.5 172.5zM332 1331q-60 -79 -86.5 -157t-26.5 -179h-147q0 120 55.5 227.5t120.5 172.5z" />
    <glyph glyph-name="quotedblright" unicode="&#x201d;" horiz-adv-x="673" 
d="M602 1366q0 -120 -55.5 -227t-120.5 -172l-84 63q60 79 86.5 157t26.5 179h147zM332 1366q0 -120 -55.5 -227t-120.5 -172l-84 63q59 79 85.5 157t26.5 179h148z" />
    <glyph glyph-name="quotedblbase" unicode="&#x201e;" horiz-adv-x="673" 
d="M602 156q0 -120 -55.5 -227.5t-120.5 -172.5l-84 64q60 79 86.5 157t26.5 179h147zM332 156q0 -120 -55.5 -227.5t-120.5 -172.5l-84 64q59 79 85.5 157t26.5 179h148z" />
    <glyph glyph-name="dagger" unicode="&#x2020;" horiz-adv-x="1132" 
d="M989 743h-358l-13 -993h-102l-14 993h-359v117h357l-6 506h145l-6 -506h356v-117z" />
    <glyph glyph-name="daggerdbl" unicode="&#x2021;" horiz-adv-x="1132" 
d="M989 340h-362l-9 -590h-102l-8 590h-365v115h363l-4 288h-359v117h357l-6 506h145l-6 -506h356v-117h-358l-2 -288h360v-115z" />
    <glyph glyph-name="bullet" unicode="&#x2022;" horiz-adv-x="1122" 
d="M729 518q0 -70 -48.5 -119t-119.5 -49q-68 0 -118 49t-50 119q0 68 50.5 118t117.5 50q69 0 118.5 -50.5t49.5 -117.5z" />
    <glyph glyph-name="ellipsis" unicode="&#x2026;" horiz-adv-x="1327" 
d="M1198 76q0 -38 -27 -65t-65 -27t-65 27t-27 65t27 65t65 27t65 -27t27 -65zM756 76q0 -38 -27 -65t-65 -27t-65.5 27t-27.5 65t27.5 65t65.5 27t65 -27t27 -65zM313 76q0 -38 -27 -65t-65 -27t-65 27t-27 65t27 65t65 27t65 -27t27 -65z" />
    <glyph glyph-name="perthousand" unicode="&#x2030;" horiz-adv-x="2193" 
d="M1405 354q0 -172 -80 -269t-221 -97q-135 0 -215 92.5t-80 251.5q0 178 80 277.5t223 99.5q134 0 213.5 -96t79.5 -259zM688 1024q0 -172 -80 -269.5t-221 -97.5q-135 0 -215 92.5t-80 251.5q0 178 80 277.5t223 99.5q134 0 213.5 -96t79.5 -258zM1290 354
q0 123 -47.5 192.5t-130.5 69.5q-89 0 -138.5 -73.5t-49.5 -206.5q0 -122 47 -189t133 -67q89 0 137.5 71.5t48.5 202.5zM573 1024q0 123 -47.5 192.5t-130.5 69.5q-89 0 -138.5 -73.5t-49.5 -206.5q0 -122 47 -189t133 -67q89 0 137.5 71.5t48.5 202.5zM1278 1372
l-975 -1446l-88 60l975 1450zM2101 354q0 -172 -80 -269t-221 -97q-135 0 -215 92.5t-80 251.5q0 178 80 277.5t223 99.5q134 0 213.5 -96t79.5 -259zM1987 354q0 123 -48 192.5t-131 69.5q-89 0 -138.5 -73.5t-49.5 -206.5q0 -122 47 -189t133 -67q89 0 138 71.5t49 202.5z
" />
    <glyph glyph-name="guilsinglleft" unicode="&#x2039;" horiz-adv-x="632" 
d="M502 170l-90 -59l-283 395l283 387l90 -59l-199 -328z" />
    <glyph glyph-name="guilsinglright" unicode="&#x203a;" horiz-adv-x="632" 
d="M504 506l-283 -395l-90 59l199 336l-199 328l90 59z" />
    <glyph glyph-name="fraction" unicode="&#x2044;" horiz-adv-x="0" 
d="M500 1372l-975 -1446l-88 60l975 1450z" />
    <glyph glyph-name="zerosuperior" unicode="&#x2070;" horiz-adv-x="780" 
d="M688 1024q0 -172 -80 -269.5t-221 -97.5q-135 0 -215 92.5t-80 251.5q0 178 80 277.5t223 99.5q134 0 213.5 -96t79.5 -258zM573 1024q0 123 -47.5 192.5t-130.5 69.5q-89 0 -138.5 -73.5t-49.5 -206.5q0 -122 47 -189t133 -67q89 0 137.5 71.5t48.5 202.5z" />
    <glyph glyph-name="foursuperior" unicode="&#x2074;" horiz-adv-x="780" 
d="M649 827h-96v-159h-104v159h-336v78l344 461h96v-446h96v-93zM449 920v290l-216 -290h216z" />
    <glyph glyph-name="fivesuperior" unicode="&#x2075;" horiz-adv-x="780" 
d="M618 895q0 -107 -70 -172.5t-179 -65.5q-37 0 -72 8.5t-57 18.5t-42.5 23.5t-26.5 19t-11 10.5l51 68q11 -9 29 -20.5t53.5 -24t68.5 -12.5q71 0 113.5 38t42.5 105q0 60 -40.5 101.5t-112.5 41.5q-20 0 -40.5 -4.5t-32 -8.5t-28 -11.5t-18.5 -8.5l-45 25v340h385v-88
h-287v-168q47 14 82 14q110 0 173.5 -63.5t63.5 -165.5z" />
    <glyph glyph-name="sixsuperior" unicode="&#x2076;" horiz-adv-x="780" 
d="M637 903q0 -107 -66.5 -176.5t-171.5 -69.5q-87 0 -146.5 49t-84.5 123.5t-25 167.5q0 72 14 136t44.5 121t86.5 90.5t132 33.5q53 0 102 -20t69 -36.5t27 -25.5l-49 -63q-71 59 -141 59q-164 0 -180 -239q57 80 168 80q101 0 161 -65t60 -165zM539 899q0 66 -33 108
t-96 42q-68 0 -107 -47t-39 -113q0 -61 39 -103.5t98 -42.5q65 0 101.5 45.5t36.5 110.5z" />
    <glyph glyph-name="sevensuperior" unicode="&#x2077;" horiz-adv-x="780" 
d="M627 1298l-281 -630h-106l278 610h-364v88h473v-68z" />
    <glyph glyph-name="eightsuperior" unicode="&#x2078;" horiz-adv-x="780" 
d="M633 860q0 -92 -65.5 -147.5t-172.5 -55.5q-114 0 -179.5 54t-65.5 147q0 58 28 106t74 68q-41 25 -63.5 65.5t-22.5 88.5q0 86 62 139t161 53q101 0 163 -51t62 -137q0 -52 -22.5 -94.5t-63.5 -65.5q105 -36 105 -170zM518 1186q0 50 -35 81t-90 31q-57 0 -93 -30.5
t-36 -81.5t36.5 -84t92.5 -33q53 0 89 33t36 84zM535 864q0 58 -39.5 90.5t-104.5 32.5q-66 0 -105.5 -33t-39.5 -90q0 -60 39 -92.5t110 -32.5q65 0 102.5 33t37.5 92z" />
    <glyph glyph-name="ninesuperior" unicode="&#x2079;" horiz-adv-x="780" 
d="M637 1038q0 -56 -8 -108t-28.5 -102.5t-51 -87.5t-79 -60t-110.5 -23q-53 0 -102.5 20t-70 36.5t-27.5 25.5l51 64q9 -9 25 -20.5t50 -25.5t66 -14q156 0 176 240q-23 -38 -67 -59t-96 -21q-101 0 -161.5 66t-60.5 166q0 104 66.5 173.5t171.5 69.5q56 0 101 -20.5
t73.5 -53.5t47.5 -78t26.5 -91.5t7.5 -96.5zM518 1147q0 62 -39.5 104.5t-99.5 42.5q-64 0 -100.5 -46t-36.5 -111t33 -106.5t96 -41.5q65 0 106 46t41 112z" />
    <glyph glyph-name="parenleftsuperior" unicode="&#x207d;" horiz-adv-x="399" 
d="M92 1012q0 301 215 456l51 -63q-155 -132 -155 -389q0 -269 162 -398l-54 -63q-110 72 -164.5 193.5t-54.5 263.5z" />
    <glyph glyph-name="parenrightsuperior" unicode="&#x207e;" horiz-adv-x="399" 
d="M307 1012q0 -302 -215 -457l-51 63q156 133 156 390q0 268 -162 397l53 63q110 -72 164.5 -193t54.5 -263z" />
    <glyph glyph-name="zeroinferior" unicode="&#x2080;" horiz-adv-x="780" 
d="M688 354q0 -172 -80 -269t-221 -97q-135 0 -215 92.5t-80 251.5q0 178 80 277.5t223 99.5q134 0 213.5 -96t79.5 -259zM573 354q0 123 -47.5 192.5t-130.5 69.5q-89 0 -138.5 -73.5t-49.5 -206.5q0 -122 47 -189t133 -67q89 0 137.5 71.5t48.5 202.5z" />
    <glyph glyph-name="oneinferior" unicode="&#x2081;" horiz-adv-x="780" 
d="M481 0h-106v567l-160 -102l-55 82l239 151h82v-698z" />
    <glyph glyph-name="twoinferior" unicode="&#x2082;" horiz-adv-x="780" 
d="M596 0h-424v80q1 1 39.5 36.5t57 54t58 59t62 69.5t49 66.5t39 70t12.5 60.5q0 58 -29.5 90t-86.5 32q-70 0 -150 -71l-55 63q25 33 83.5 67t131.5 34q98 0 156.5 -57.5t58.5 -151.5q0 -86 -68 -177.5t-219 -232.5h285v-92z" />
    <glyph glyph-name="threeinferior" unicode="&#x2083;" horiz-adv-x="780" 
d="M604 201q0 -98 -66 -155.5t-165 -57.5q-46 0 -85 10t-64 25.5t-39.5 28.5t-24.5 26l55 61q73 -61 147 -61q67 0 104.5 31t37.5 84q0 42 -29 75q-22 24 -56.5 33.5t-99.5 9.5h-28v90h35q33 0 59 4t52.5 14.5t41.5 34t15 58.5q0 45 -31 75.5t-86 30.5q-85 0 -146 -61
l-57 57q13 16 34.5 34.5t70.5 39.5t102 21q95 0 154 -53.5t59 -141.5q0 -49 -34.5 -95t-88.5 -59q60 -14 96.5 -57.5t36.5 -101.5z" />
    <glyph glyph-name="fourinferior" unicode="&#x2084;" horiz-adv-x="780" 
d="M649 160h-96v-160h-104v160h-336v78l344 460h96v-446h96v-92zM449 252v291l-216 -291h216z" />
    <glyph glyph-name="fiveinferior" unicode="&#x2085;" horiz-adv-x="780" 
d="M618 227q0 -107 -70 -172t-179 -65q-37 0 -72 8.5t-57 18.5t-42.5 23.5t-26.5 19t-11 10.5l51 67q11 -9 29 -20.5t53.5 -24t68.5 -12.5q71 0 113.5 38t42.5 105q0 60 -40.5 102t-112.5 42q-20 0 -40.5 -4.5t-32 -8.5t-28 -11.5t-18.5 -8.5l-45 24v340h385v-88h-287v-168
q50 15 82 15q110 0 173.5 -64t63.5 -166z" />
    <glyph glyph-name="sixinferior" unicode="&#x2086;" horiz-adv-x="780" 
d="M637 233q0 -106 -66.5 -175.5t-171.5 -69.5q-87 0 -146.5 49t-84.5 123.5t-25 167.5q0 72 14 136t44.5 121t86.5 90.5t132 33.5q53 0 102 -20t69 -36.5t27 -25.5l-49 -64q-72 60 -141 60q-164 0 -180 -240q57 80 168 80q101 0 161 -65t60 -165zM539 229q0 66 -33 108
t-96 42q-68 0 -107 -47t-39 -113q0 -61 39 -103t98 -42q65 0 101.5 45t36.5 110z" />
    <glyph glyph-name="seveninferior" unicode="&#x2087;" horiz-adv-x="780" 
d="M627 631l-281 -631h-106l278 610h-364v88h473v-67z" />
    <glyph glyph-name="eightinferior" unicode="&#x2088;" horiz-adv-x="780" 
d="M633 190q0 -92 -65 -147t-173 -55q-114 0 -179.5 54t-65.5 146q0 58 28 106t74 68q-41 25 -63.5 65.5t-22.5 88.5q0 86 62 139.5t161 53.5q100 0 162.5 -51.5t62.5 -137.5q0 -52 -22.5 -94.5t-63.5 -65.5q105 -36 105 -170zM518 516q0 50 -35 81.5t-90 31.5
q-57 0 -93 -31t-36 -82t36.5 -84t92.5 -33q53 0 89 33t36 84zM535 195q0 58 -39 90t-105 32t-105.5 -32.5t-39.5 -89.5q0 -60 39 -92.5t110 -32.5q65 0 102.5 33t37.5 92z" />
    <glyph glyph-name="nineinferior" unicode="&#x2089;" horiz-adv-x="780" 
d="M637 369q0 -56 -8 -108t-28.5 -102.5t-51 -87.5t-79 -60t-110.5 -23q-53 0 -102.5 20t-70 36.5t-27.5 25.5l51 63q9 -9 25 -20.5t50 -25t66 -13.5q47 0 81 20t53 56t28.5 74.5t13.5 88.5q-23 -38 -67 -59t-96 -21q-101 0 -161.5 66t-60.5 166q0 104 67 174t171 70
q56 0 101 -20.5t73.5 -53.5t47.5 -78t26.5 -91.5t7.5 -96.5zM518 477q0 62 -40 105t-99 43q-64 0 -100.5 -46t-36.5 -112q0 -65 33 -106.5t96 -41.5q65 0 106 46t41 112z" />
    <glyph glyph-name="parenleftinferior" unicode="&#x208d;" horiz-adv-x="399" 
d="M92 340q0 302 215 457l51 -64q-155 -132 -155 -389q0 -268 162 -397l-54 -64q-110 72 -164.5 193.5t-54.5 263.5z" />
    <glyph glyph-name="parenrightinferior" unicode="&#x208e;" horiz-adv-x="399" 
d="M307 340q0 -302 -215 -457l-51 64q156 133 156 389q0 268 -162 397l53 64q110 -72 164.5 -193.5t54.5 -263.5z" />
    <glyph glyph-name="franc" unicode="&#x20a3;" horiz-adv-x="1531" 
d="M879 1255h-572v-405h535v-109h-535v-741h-131v1366h703v-111zM1491 860l-29 -102q-42 6 -80 6q-194 0 -299 -172v-592h-122v850h116v-129q38 45 67 69q107 87 245 87q21 0 38 -1.5t28.5 -4t18 -4.5t12.5 -5z" />
    <glyph glyph-name="lira" unicode="&#x20a4;" 
d="M174 616h182q-7 92 -14 134h-168v100h158q-4 36 -4 68q0 220 118 346.5t320 126.5q73 0 137.5 -15.5t105.5 -38t63.5 -39.5t31.5 -28l-64 -82q-118 92 -266 92t-229.5 -93.5t-81.5 -268.5q0 -50 2 -68h412v-100h-404q9 -56 14 -134h390v-100h-385q2 -16 2 -43
q0 -281 -121 -358h696v-115h-899v104q65 20 104.5 51t65 98t25.5 173q0 56 -3 90h-188v100z" />
    <glyph glyph-name="peseta" unicode="&#x20a7;" horiz-adv-x="2584" 
d="M1001 973q0 -97 -32 -171t-76 -118q-35 -35 -76.5 -58.5t-75 -35.5t-90 -18t-89.5 -6.5t-104 -0.5h-32h-121v-565h-129v1366h311q151 0 243.5 -19t160.5 -87q110 -110 110 -287zM870 975q0 133 -84 217q-25 25 -58 40t-82.5 20.5t-78 6.5t-92.5 1h-170v-588h113h21
q73 0 109 1.5t87 8t86 23.5t63 45q86 86 86 225zM1704 25q-96 -48 -195 -48q-132 0 -202 70q-39 39 -48.5 93t-9.5 161v582h-172v100h172v279h123v-279h316v-100h-316v-557v-22v-52t3 -44.5t8.5 -41t16.5 -31.5t27.5 -26.5t41 -14.5t57.5 -6q26 0 53 4.5t44 10t31.5 11
t16.5 5.5zM2482 268q0 -137 -95 -215t-259 -78q-83 0 -165 24t-119 44t-46 29l53 94q14 -9 42 -24t96.5 -36.5t130.5 -21.5q110 0 172.5 46t62.5 126q0 24 -7.5 46t-16 37.5t-28.5 31.5t-32 25.5t-40 22t-39.5 17.5t-43.5 16.5t-39 14.5q-43 17 -62 24.5t-54.5 25t-52.5 30
t-41 35t-34.5 45t-19 54.5t-8.5 69q0 116 93.5 187t234.5 71q78 0 151.5 -21.5t105 -39.5t40.5 -27l-49 -89q-122 70 -238 70q-89 0 -150 -40.5t-61 -106.5q0 -19 3 -35t11.5 -30t15 -24.5t22.5 -21.5t25 -17.5t30.5 -16t31.5 -14t36 -14.5t36 -14q124 -49 164 -73
q140 -88 143 -226z" />
    <glyph glyph-name="Euro" unicode="&#x20ac;" 
d="M1077 109q-167 -134 -364 -134q-89 0 -164.5 25t-126.5 64.5t-91.5 91.5t-63.5 104t-38.5 104.5t-20.5 89t-5 62.5h-137v100h131q-2 39 -2 76q0 21 2 58h-131v100h137q0 19 5 53t20.5 86t38.5 105t64 107.5t92.5 96.5t127.5 68.5t166 26.5q52 0 104 -11t88 -26t67 -33
t45 -28t19 -15l-61 -88q-126 90 -258 90q-71 0 -130.5 -21.5t-98 -55.5t-68.5 -78.5t-46 -86.5t-26 -84t-13 -67t-3 -39h534v-100h-542q-2 -27 -2 -74q0 -25 2 -60h542v-100h-534q0 -14 3 -39t13 -66.5t25.5 -83t45 -85t67 -76.5t95 -54.5t126.5 -21.5q34 0 67.5 5t62 14.5
t53 19.5t46.5 22t35.5 20t26.5 17l12 9z" />
    <glyph glyph-name="afii61289" unicode="&#x2113;" horiz-adv-x="1024" 
d="M510 551q-46 -242 -57 -308t-11 -118q0 -51 37 -51q53 0 105 110q15 37 39 37q26 0 26 -31q0 -47 -53 -122q-75 -97 -156 -97q-64 0 -100.5 48t-36.5 133q0 64 21 260q-83 -78 -101 -78q-10 0 -19 10.5t-9 22.5q0 19 41 55q12 11 48.5 48.5t53.5 57.5q85 442 182.5 651.5
t220.5 209.5q58 0 93.5 -45.5t35.5 -120.5q0 -83 -35.5 -189t-95.5 -205q-73 -117 -229 -278zM532 682q256 287 256 532q0 40 -13 65.5t-34 25.5q-23 0 -46.5 -25.5t-37.5 -65.5q-63 -177 -125 -532z" />
    <glyph glyph-name="afii61352" unicode="&#x2116;" horiz-adv-x="2037" 
d="M1122 0h-149l-680 1174l4 -1174h-121v1366h143l687 -1184l-5 1184h121v-1366zM1952 999q0 -172 -90.5 -275t-245.5 -103q-149 0 -239.5 105t-90.5 280t90.5 280t247.5 105q150 0 239 -105.5t89 -286.5zM1849 1004q0 133 -66 216t-165 83q-104 0 -166.5 -80.5
t-62.5 -214.5q0 -133 65.5 -215t165.5 -82q107 0 168 79.5t61 213.5z" />
    <glyph glyph-name="trademark" unicode="&#x2122;" horiz-adv-x="1488" 
d="M1393 641h-107l-57 526l-191 -526h-82l-190 526l-55 -526h-101l82 725h105l207 -555l198 555h107zM580 1280h-209v-639h-99v639h-211v86h519v-86z" />
    <glyph glyph-name="uni2126" unicode="&#x2126;" horiz-adv-x="1679" 
d="M1487 0h-500v109q89 36 154 97t102 139.5t54.5 165.5t17.5 185q0 263 -131.5 426.5t-343.5 163.5t-345 -164t-133 -426q0 -99 17.5 -186t55.5 -165.5t103 -139t154 -96.5v-109h-499v113h317q-139 85 -212 241.5t-73 354.5q0 197 78 352.5t218.5 242.5t318.5 87
q177 0 316.5 -87t217.5 -242.5t78 -352.5q0 -195 -70.5 -352.5t-212.5 -243.5h318v-113z" />
    <glyph glyph-name="estimated" unicode="&#x212e;" horiz-adv-x="1634" 
d="M1575 637h-1227q-12 0 -12 -8v-371q0 -21 18 -43q90 -95 210 -148t255 -53q143 0 269.5 60.5t218.5 165.5h110q-105 -123 -263 -195t-337 -72q-154 0 -294.5 54t-242 145t-161.5 217.5t-60 265.5q0 138 60 264t161.5 217t242 145t294.5 54t294.5 -54t242 -145t161.5 -217
t60 -264v-18zM1298 686v371q0 25 -20 45q-89 91 -208 141.5t-251 50.5q-134 0 -253.5 -52.5t-209.5 -145.5q-20 -20 -20 -47v-363q0 -10 12 -10h940q10 0 10 10z" />
    <glyph glyph-name="onethird" unicode="&#x2153;" horiz-adv-x="1497" 
d="M1278 1372l-975 -1446l-88 60l975 1450zM481 668h-106v567l-160 -102l-55 81l239 152h82v-698zM1321 201q0 -98 -66 -155.5t-165 -57.5q-46 0 -85 10t-64 25.5t-39.5 28.5t-24.5 26l55 61q73 -61 147 -61q67 0 104.5 31t37.5 84q0 42 -29 75q-22 24 -56.5 33.5t-99.5 9.5
h-28v90h34q33 0 59 4t52.5 14.5t41.5 34t15 58.5q0 45 -30.5 75.5t-85.5 30.5q-85 0 -146 -61l-57 57q13 16 34.5 34.5t70.5 39.5t102 21q95 0 154 -53.5t59 -141.5q0 -49 -34.5 -95t-88.5 -59q60 -14 96.5 -57.5t36.5 -101.5z" />
    <glyph glyph-name="twothirds" unicode="&#x2154;" horiz-adv-x="1497" 
d="M1278 1372l-975 -1446l-88 60l975 1450zM1321 201q0 -98 -66 -155.5t-165 -57.5q-46 0 -85 10t-64 25.5t-39.5 28.5t-24.5 26l55 61q73 -61 147 -61q67 0 104.5 31t37.5 84q0 42 -29 75q-22 24 -56.5 33.5t-99.5 9.5h-28v90h34q33 0 59 4t52.5 14.5t41.5 34t15 58.5
q0 45 -30.5 75.5t-85.5 30.5q-85 0 -146 -61l-57 57q13 16 34.5 34.5t70.5 39.5t102 21q95 0 154 -53.5t59 -141.5q0 -49 -34.5 -95t-88.5 -59q60 -14 96.5 -57.5t36.5 -101.5zM596 668h-424v80q3 3 40 37t56.5 53.5t58 58.5t62 69t49.5 66.5t38.5 69.5t12.5 61
q0 58 -29.5 90.5t-86.5 32.5q-69 0 -150 -72l-55 64q25 33 83.5 66.5t131.5 33.5q98 0 156.5 -57.5t58.5 -151.5q0 -86 -67.5 -176.5t-219.5 -232.5h285v-92z" />
    <glyph glyph-name="oneeighth" unicode="&#x215b;" horiz-adv-x="1497" 
d="M1278 1372l-975 -1446l-88 60l975 1450zM1350 190q0 -92 -65 -147t-173 -55q-114 0 -180 54t-66 146q0 58 28.5 106t74.5 68q-41 25 -63.5 65.5t-22.5 88.5q0 86 62 139.5t161 53.5q100 0 162.5 -51.5t62.5 -137.5q0 -52 -22.5 -94.5t-63.5 -65.5q105 -36 105 -170z
M1235 516q0 50 -35 81.5t-90 31.5q-57 0 -93 -31t-36 -82t36.5 -84t92.5 -33q53 0 89 33t36 84zM1251 195q0 58 -39 90t-104 32q-66 0 -105.5 -32.5t-39.5 -89.5q0 -60 39 -92.5t110 -32.5q65 0 102 32.5t37 92.5zM481 668h-106v567l-160 -102l-55 81l239 152h82v-698z" />
    <glyph glyph-name="threeeighths" unicode="&#x215c;" horiz-adv-x="1497" 
d="M1278 1372l-975 -1446l-88 60l975 1450zM1350 190q0 -92 -65 -147t-173 -55q-114 0 -180 54t-66 146q0 58 28.5 106t74.5 68q-41 25 -63.5 65.5t-22.5 88.5q0 86 62 139.5t161 53.5q100 0 162.5 -51.5t62.5 -137.5q0 -52 -22.5 -94.5t-63.5 -65.5q105 -36 105 -170z
M1235 516q0 50 -35 81.5t-90 31.5q-57 0 -93 -31t-36 -82t36.5 -84t92.5 -33q53 0 89 33t36 84zM1251 195q0 58 -39 90t-104 32q-66 0 -105.5 -32.5t-39.5 -89.5q0 -60 39 -92.5t110 -32.5q65 0 102 32.5t37 92.5zM604 870q0 -98 -66 -155.5t-165 -57.5q-46 0 -85 10t-64 26
t-39.5 29t-24.5 26l55 61q73 -61 147 -61q67 0 104.5 30.5t37.5 83.5q0 43 -29 76q-22 24 -56.5 33.5t-99.5 9.5h-28v90h35q33 0 59 4t52.5 14.5t41.5 34t15 58.5q0 45 -31 75.5t-86 30.5q-85 0 -146 -61l-57 57q13 16 34.5 34t70.5 39t102 21q96 0 154.5 -53t58.5 -141
q0 -49 -34.5 -95t-88.5 -59q60 -13 96.5 -57t36.5 -103z" />
    <glyph glyph-name="fiveeighths" unicode="&#x215d;" horiz-adv-x="1497" 
d="M1278 1372l-975 -1446l-88 60l975 1450zM1350 190q0 -92 -65 -147t-173 -55q-114 0 -180 54t-66 146q0 58 28.5 106t74.5 68q-41 25 -63.5 65.5t-22.5 88.5q0 86 62 139.5t161 53.5q100 0 162.5 -51.5t62.5 -137.5q0 -52 -22.5 -94.5t-63.5 -65.5q105 -36 105 -170z
M1235 516q0 50 -35 81.5t-90 31.5q-57 0 -93 -31t-36 -82t36.5 -84t92.5 -33q53 0 89 33t36 84zM1251 195q0 58 -39 90t-104 32q-66 0 -105.5 -32.5t-39.5 -89.5q0 -60 39 -92.5t110 -32.5q65 0 102 32.5t37 92.5zM618 895q0 -107 -70 -172.5t-179 -65.5q-37 0 -72 8.5
t-57 18.5t-42.5 23.5t-26.5 19t-11 10.5l51 68q11 -9 29 -20.5t53.5 -24t68.5 -12.5q71 0 113.5 38t42.5 105q0 60 -40.5 101.5t-112.5 41.5q-20 0 -40.5 -4.5t-32 -8.5t-28 -11.5t-18.5 -8.5l-45 25v340h385v-88h-287v-168q47 14 82 14q110 0 173.5 -63.5t63.5 -165.5z" />
    <glyph glyph-name="seveneighths" unicode="&#x215e;" horiz-adv-x="1497" 
d="M1278 1372l-975 -1446l-88 60l975 1450zM627 1298l-281 -630h-106l278 610h-364v88h473v-68zM1350 190q0 -92 -65 -147t-173 -55q-114 0 -180 54t-66 146q0 58 28.5 106t74.5 68q-41 25 -63.5 65.5t-22.5 88.5q0 86 62 139.5t161 53.5q100 0 162.5 -51.5t62.5 -137.5
q0 -52 -22.5 -94.5t-63.5 -65.5q105 -36 105 -170zM1235 516q0 50 -35 81.5t-90 31.5q-57 0 -93 -31t-36 -82t36.5 -84t92.5 -33q53 0 89 33t36 84zM1251 195q0 58 -39 90t-104 32q-66 0 -105.5 -32.5t-39.5 -89.5q0 -60 39 -92.5t110 -32.5q65 0 102 32.5t37 92.5z" />
    <glyph glyph-name="partialdiff" unicode="&#x2202;" horiz-adv-x="1251" 
d="M1059 729q0 -353 -121.5 -554.5t-335.5 -201.5q-186 0 -297.5 144.5t-111.5 382.5q0 233 113 370.5t308 137.5q158 0 301 -107q-22 225 -127.5 353t-267.5 128q-106 0 -244 -69l-53 94q18 12 50 28.5t108 40t147 23.5q240 0 385.5 -208t145.5 -562zM926 709v51
q-8 8 -19.5 18t-44 32.5t-66.5 39t-85 30t-103 13.5q-131 0 -208.5 -108t-77.5 -291t76.5 -293.5t203.5 -110.5q152 0 238 163.5t86 455.5z" />
    <glyph glyph-name="uni2206" unicode="&#x2206;" horiz-adv-x="1435" 
d="M1243 0h-1050l477 1366h102zM1079 109l-360 1054l-367 -1054h727z" />
    <glyph glyph-name="product" unicode="&#x220f;" horiz-adv-x="1652" 
d="M1460 1257h-155v-1257h-136v1257h-686v-1257h-135v1257h-155v109h1267v-109z" />
    <glyph glyph-name="summation" unicode="&#x2211;" horiz-adv-x="1128" 
d="M936 0h-743v78l372 620l-372 580v88h743v-109h-582l348 -555l-362 -593h596v-109z" />
    <glyph glyph-name="minus" unicode="&#x2212;" 
d="M1094 465h-973v108h973v-108z" />
    <glyph glyph-name="radical" unicode="&#x221a;" horiz-adv-x="1642" 
d="M1450 1458l-547 -1458h-110l-324 840l-242 -82l-34 102l348 121l311 -811l487 1329z" />
    <glyph glyph-name="infinity" unicode="&#x221e;" horiz-adv-x="1740" 
d="M1548 565q0 -117 -85 -201.5t-203 -84.5q-87 0 -176.5 50.5t-213.5 170.5q-124 -120 -213.5 -170.5t-175.5 -50.5q-118 0 -203 84.5t-85 201.5q0 122 81 205.5t201 83.5q99 0 193.5 -51.5t201.5 -163.5q107 112 202 163.5t194 51.5q120 0 201 -83.5t81 -205.5zM1446 578
q0 74 -53.5 127t-132.5 53q-48 0 -91.5 -14t-87.5 -46.5t-70.5 -56.5t-74.5 -72q43 -40 70.5 -63t73 -55.5t90.5 -48t90 -15.5q76 0 131 57t55 134zM805 569q-48 48 -74.5 72t-70.5 56.5t-87.5 46.5t-91.5 14q-79 0 -132.5 -53t-53.5 -127q0 -77 55 -134t131 -57
q45 0 90 15.5t90.5 48t73 55.5t70.5 63z" />
    <glyph glyph-name="integral" unicode="&#x222b;" horiz-adv-x="1286" 
d="M1094 1446l-43 -98q-90 36 -152 36q-88 0 -133 -45q-37 -37 -49 -87t-12 -117v-1254q0 -175 -95 -270q-35 -35 -90.5 -55.5t-118.5 -20.5q-51 0 -102.5 13t-72.5 23t-33 17l43 99q92 -37 151 -37q88 0 133 45q62 62 62 205v1253q0 176 94 270q35 35 90.5 55.5t118.5 20.5
q51 0 102.5 -13t73 -23t33.5 -17z" />
    <glyph glyph-name="approxequal" unicode="&#x2248;" 
d="M1059 682q-52 -66 -115 -101.5t-125 -35.5q-67 0 -143 29.5t-147 58.5t-126 29q-81 0 -153 -80l-94 63q99 137 250 137q68 0 142 -29t143.5 -58t125.5 -29q75 0 150 84zM1059 395q-52 -66 -115 -101.5t-125 -35.5q-53 0 -113 18.5t-104.5 40t-99.5 40t-99 18.5
q-81 0 -153 -80l-94 63q100 138 250 138q54 0 113 -18.5t102 -40t97 -40t99 -18.5q75 0 150 84z" />
    <glyph glyph-name="notequal" unicode="&#x2260;" 
d="M1094 336h-531l-176 -277l-94 58l141 219h-313v108h379l92 150h-471v108h538l166 263l90 -58l-129 -205h308v-108h-375l-92 -150h467v-108z" />
    <glyph glyph-name="lessequal" unicode="&#x2264;" 
d="M1092 299l-45 -98l-924 446v82l921 447l48 -99l-820 -391zM1092 0h-969v109h969v-109z" />
    <glyph glyph-name="greaterequal" unicode="&#x2265;" 
d="M1092 647l-924 -446l-45 98l819 387l-819 391l47 99l922 -447v-82zM1092 0h-969v109h969v-109z" />
    <glyph glyph-name="lozenge" unicode="&#x25ca;" horiz-adv-x="1363" 
d="M1171 688l-440 -688h-98l-440 688l440 678h94zM1036 688l-356 541l-348 -541l352 -565z" />
    <glyph glyph-name="Euro.fitted" unicode="&#xe002;" horiz-adv-x="1126" 
d="M1077 109q-167 -134 -364 -134q-89 0 -164.5 25t-126.5 64.5t-91.5 91.5t-63.5 104t-38.5 104.5t-20.5 89t-5 62.5h-137v100h131q-2 39 -2 76q0 21 2 58h-131v100h137q0 19 5 53t20.5 86t38.5 105t64 107.5t92.5 96.5t127.5 68.5t166 26.5q52 0 104 -11t88 -26t67 -33
t45 -28t19 -15l-61 -88q-126 90 -258 90q-71 0 -130.5 -21.5t-98 -55.5t-68.5 -78.5t-46 -86.5t-26 -84t-13 -67t-3 -39h534v-100h-542q-2 -27 -2 -74q0 -25 2 -60h542v-100h-534q0 -14 3 -39t13 -66.5t25.5 -83t45 -85t67 -76.5t95 -54.5t126.5 -21.5q34 0 67.5 5t62 14.5
t53 19.5t46.5 22t35.5 20t26.5 17l12 9z" />
    <glyph glyph-name="Dotaccent" unicode="&#xefed;" horiz-adv-x="778" 
d="M481 1577q0 -38 -27 -65t-65 -27t-65 27t-27 65t27 65t65 27t65 -27t27 -65z" />
    <glyph glyph-name="Breve" unicode="&#xefee;" horiz-adv-x="778" 
d="M557 1726h105q-19 -125 -88.5 -189t-186.5 -64q-116 0 -184.5 64.5t-85.5 188.5h104q12 -67 52.5 -98t115.5 -31q73 0 113 30.5t55 98.5z" />
    <glyph glyph-name="Ogonek" unicode="&#xeff1;" horiz-adv-x="778" 
d="M594 -387q-88 -59 -201 -59q-95 0 -151 58.5t-56 158.5q0 73 31.5 120.5t93.5 90.5l101 -31q-4 -3 -28.5 -22t-31.5 -25t-24.5 -24.5t-23.5 -31.5t-12.5 -33.5t-6.5 -43.5q0 -60 34 -93.5t93 -33.5q25 0 51.5 6t42.5 12t33.5 14t19.5 9z" />
    <glyph glyph-name="Cedilla" unicode="&#xeff2;" horiz-adv-x="778" 
d="M227 -193l39 193h94l-24 -117q15 11 53 11q76 0 124 -50t48 -127q0 -85 -60 -133.5t-139 -48.5q-98 0 -145 41l33 76q40 -25 100 -25q57 0 81 26.5t24 59.5q0 39 -24.5 63.5t-63.5 24.5q-46 0 -86 -30z" />
    <glyph glyph-name="Tilde" unicode="&#xeff5;" horiz-adv-x="778" 
d="M700 1563q-93 -93 -202 -93q-39 0 -113 23t-113 23q-62 0 -137 -48l-59 80q58 48 102.5 68t95.5 20q40 0 114.5 -23.5t111.5 -23.5q76 0 141 56z" />
    <glyph glyph-name="Circumflex" unicode="&#xeff7;" horiz-adv-x="778" 
d="M702 1548l-53 -80l-258 142l-258 -142l-57 80l315 203z" />
    <glyph glyph-name="parenleft.dnom" unicode="&#xf62c;" horiz-adv-x="399" 
d="M92 340q0 302 215 457l51 -64q-155 -132 -155 -389q0 -268 162 -397l-54 -64q-110 72 -164.5 193.5t-54.5 263.5z" />
    <glyph glyph-name="parenright.dnom" unicode="&#xf62d;" horiz-adv-x="399" 
d="M307 340q0 -302 -215 -457l-51 64q156 133 156 389q0 268 -162 397l53 64q110 -72 164.5 -193.5t54.5 -263.5z" />
    <glyph glyph-name="parenleft.numr" unicode="&#xf631;" horiz-adv-x="399" 
d="M92 1012q0 301 215 456l51 -63q-155 -132 -155 -389q0 -269 162 -398l-54 -63q-110 72 -164.5 193.5t-54.5 263.5z" />
    <glyph glyph-name="parenright.numr" unicode="&#xf632;" horiz-adv-x="399" 
d="M307 1012q0 -302 -215 -457l-51 63q156 133 156 390q0 268 -162 397l53 63q110 -72 164.5 -193t54.5 -263z" />
    <glyph glyph-name="zero.fitted" unicode="&#xf639;" horiz-adv-x="1230" 
d="M1118 684q0 -334 -131.5 -521.5t-372.5 -187.5q-242 0 -371.5 187.5t-129.5 527.5q0 326 130.5 514.5t364.5 188.5q244 0 377 -188t133 -521zM983 682q0 288 -93.5 444t-273.5 156q-368 0 -368 -608q0 -282 93.5 -435t270.5 -153q182 0 276.5 154t94.5 442z" />
    <glyph glyph-name="two.fitted" unicode="&#xf63a;" horiz-adv-x="997" 
d="M885 0h-830v109q3 3 52.5 49.5t116 110.5t110.5 108q223 223 313 354.5t90 259.5q0 136 -75.5 210.5t-212.5 74.5q-47 0 -96.5 -12.5t-86 -29t-68.5 -36t-47 -31t-20 -16.5l-72 78q5 7 22.5 22.5t55 41t82.5 47t111 37.5t135 16q187 0 297 -105.5t110 -286.5
q0 -67 -22.5 -136.5t-53.5 -125.5t-87 -125t-99.5 -115t-113.5 -116l-271 -268h660v-115z" />
    <glyph glyph-name="three.fitted" unicode="&#xf63b;" horiz-adv-x="1024" 
d="M911 377q0 -185 -128.5 -293.5t-325.5 -108.5q-93 0 -171.5 19t-126 47.5t-70.5 47t-34 32.5l70 84l5 -5q6 -5 14 -11l20 -15t28 -18t35 -18.5t42 -17.5t48 -14.5t55.5 -10t61.5 -3.5q157 0 250.5 74t93.5 203q0 99 -76 180q-56 56 -134 76t-226 20h-20v113h34
q120 0 197.5 17.5t138.5 78.5q66 66 66 170q0 112 -78.5 182t-212.5 70q-50 0 -100.5 -12.5t-85.5 -28.5t-66.5 -36t-45 -31t-19.5 -17l-70 82q3 5 20.5 20.5t54.5 40t82 46t109.5 37.5t130.5 16q190 0 301 -101t111 -264q0 -78 -30 -147t-92 -118.5t-146 -60.5
q132 -12 211 -103.5t79 -221.5z" />
    <glyph glyph-name="four.fitted" unicode="&#xf63c;" horiz-adv-x="1128" 
d="M1042 332h-186v-332h-127v332h-657v106l653 928h131v-924h186v-110zM729 442v742l-520 -742h520z" />
    <glyph glyph-name="five.fitted" unicode="&#xf63d;" horiz-adv-x="1050" 
d="M938 432q0 -208 -131 -332.5t-338 -124.5q-71 0 -135.5 13.5t-106 31t-75.5 39.5t-47.5 34t-18.5 18l66 88q9 -8 19 -15t42 -25.5t64 -31.5t81 -24t97 -11q162 0 256 88.5t94 241.5q0 139 -90.5 233.5t-255.5 94.5q-138 0 -244 -66l-61 39v643h731v-111h-604v-432
q107 43 206 43q213 0 332 -119.5t119 -314.5z" />
    <glyph glyph-name="six.fitted" unicode="&#xf63e;" horiz-adv-x="1110" 
d="M1036 446q0 -203 -123 -337t-321 -134q-108 0 -192.5 40.5t-137.5 105t-87.5 154t-48 179t-13.5 187.5q0 93 10.5 178.5t33 172.5t63 157.5t96 126t137 86.5t180.5 31q65 0 126 -13t101.5 -30.5t73 -37.5t47 -33t18.5 -19l-67 -86q-133 106 -283 106q-95 0 -169 -37.5
t-119 -97t-74 -142.5t-40 -166t-11 -175q0 -25 1 -36t1 -20q28 131 137.5 206t249.5 75q192 0 301.5 -123.5t109.5 -317.5zM911 440q0 148 -77 243t-222 95q-147 0 -239 -104.5t-92 -253.5q0 -141 88.5 -238.5t228.5 -97.5q144 0 228.5 104.5t84.5 251.5z" />
    <glyph glyph-name="seven.fitted" unicode="&#xf63f;" horiz-adv-x="1024" 
d="M958 1262l-563 -1262h-147l573 1249h-766v117h903v-104z" />
    <glyph glyph-name="eight.fitted" unicode="&#xf640;" horiz-adv-x="1157" 
d="M1044 360q0 -174 -125 -279.5t-331 -105.5q-218 0 -346.5 102.5t-128.5 278.5q0 144 84 244.5t219 104.5q-125 24 -194.5 112t-69.5 209q0 163 117.5 265t305.5 102q192 0 311.5 -99t119.5 -260q0 -123 -67.5 -213t-188.5 -116q143 -17 218.5 -107.5t75.5 -237.5z
M874 1026q0 121 -81 193.5t-211 72.5q-133 0 -215 -72.5t-82 -191.5t85 -196.5t212 -77.5q126 0 209 76.5t83 195.5zM909 367q0 133 -89 209.5t-240 76.5q-150 0 -241 -77.5t-91 -206.5q0 -138 90.5 -215.5t251.5 -77.5q148 0 233.5 77.5t85.5 213.5z" />
    <glyph glyph-name="nine.fitted" unicode="&#xf641;" horiz-adv-x="1110" 
d="M997 727q0 -93 -10.5 -178.5t-33 -172.5t-63 -157.5t-96 -126t-137 -86.5t-180.5 -31q-65 0 -126 13t-101.5 30.5t-73 38t-47 33.5t-18.5 19l67 86q134 -107 283 -107q95 0 169 37.5t119 97t74 143t40 166.5t11 175q0 25 -1 35.5t-1 19.5q-28 -131 -137.5 -206
t-249.5 -75q-192 0 -301.5 123.5t-109.5 317.5q0 203 123 337t321 134q108 0 192.5 -40.5t137.5 -105t87.5 -154t48 -179t13.5 -187.5zM829 948q0 141 -88.5 238.5t-228.5 97.5q-144 0 -228.5 -104.5t-84.5 -251.5q0 -148 77 -243t222 -95q147 0 239 104.5t92 253.5z" />
    <glyph glyph-name="zero.taboldstyle" unicode="&#xf643;" 
d="M1110 530q0 -244 -140.5 -397t-367.5 -153q-215 0 -356.5 152t-141.5 386q0 245 142.5 401t367.5 156q217 0 356.5 -153t139.5 -392zM979 537q0 193 -106.5 314.5t-270.5 121.5q-166 0 -266 -121.5t-100 -321.5q0 -198 105.5 -322t266.5 -124q170 0 270.5 123t100.5 330z
" />
    <glyph glyph-name="one.taboldstyle" unicode="&#xf644;" 
d="M748 0h-125v911l-256 -168l-68 93l348 223h101v-1059z" />
    <glyph glyph-name="two.taboldstyle" unicode="&#xf645;" 
d="M958 0h-745v98l41 34q42 35 87 73.5t105.5 93t102.5 96.5q125 125 178 204t53 167q0 79 -61.5 140t-165.5 61q-148 0 -268 -107l-72 74q4 7 18.5 21.5t46.5 36.5t71 41t98 32.5t122 13.5q89 0 158.5 -28t108 -73.5t58 -96.5t19.5 -105q0 -102 -48.5 -186.5t-178.5 -214.5
q-44 -44 -97.5 -93.5t-89.5 -81t-71 -61.5l-35 -30h565v-109z" />
    <glyph glyph-name="three.taboldstyle" unicode="&#xf646;" 
d="M946 127q0 -162 -122.5 -271.5t-301.5 -109.5q-87 0 -161 18t-118 44t-67 44.5t-31 30.5l68 78l7 -5q6 -6 15 -13t24 -16.5t32 -19t40 -18.5t47.5 -16t55 -11.5t62.5 -4.5q144 0 228.5 71.5t84.5 184.5q0 104 -70 174q-52 52 -124.5 70t-206.5 18h-11v106h23
q125 0 196 23t115 67q62 62 62 160q0 99 -71.5 167.5t-197.5 68.5q-55 0 -108 -15t-90.5 -37.5t-57 -37t-28.5 -23.5l-70 76q3 5 19 20t49.5 37.5t74.5 42.5t100.5 34.5t121.5 14.5q177 0 283 -98.5t106 -245.5q0 -113 -67 -201.5t-183 -105.5q124 -12 198 -95.5t74 -205.5z
" />
    <glyph glyph-name="four.taboldstyle" unicode="&#xf647;" 
d="M1073 20h-172v-270h-125v270h-641v97l627 942h139v-932h172v-107zM776 127v756l-502 -756h502z" />
    <glyph glyph-name="five.taboldstyle" unicode="&#xf648;" 
d="M1018 168q0 -188 -123 -305t-322 -117q-67 0 -128.5 12.5t-100.5 29.5t-71.5 37.5t-45.5 32t-18 17.5l63 82l10 -7q10 -7 22.5 -15.5t32 -19.5t43.5 -20.5t51 -18.5t60.5 -14t67.5 -5q156 0 240 88t84 215q0 135 -87 222t-241 87q-126 0 -223 -59l-58 36v613h691v-107
h-572v-411q78 39 197 39q200 0 314 -113.5t114 -298.5z" />
    <glyph glyph-name="six.taboldstyle" unicode="&#xf649;" 
d="M1036 422q0 -191 -114 -316.5t-299 -125.5q-84 0 -153 26t-116.5 72t-82.5 105t-55 131t-29 143t-9 147q0 106 13.5 201t48 189.5t87.5 163t139 111t196 42.5q215 0 342 -127l-66 -82q-125 100 -262 100q-88 0 -155.5 -35t-109 -90.5t-68 -133t-36.5 -155t-10 -163.5
l2 -39q28 118 128 185t226 67q179 0 281 -116.5t102 -299.5zM911 416q0 139 -69 227t-201 88q-134 0 -218.5 -97.5t-84.5 -236.5q0 -132 80.5 -221.5t208.5 -89.5q131 0 207.5 96.5t76.5 233.5z" />
    <glyph glyph-name="seven.taboldstyle" unicode="&#xf64a;" 
d="M1001 954l-522 -1204h-137l532 1196h-714v113h841v-105z" />
    <glyph glyph-name="eight.taboldstyle" unicode="&#xf64b;" 
d="M1034 344q0 -166 -116.5 -265t-309.5 -99q-188 0 -308 99t-120 265q0 74 25.5 134t55 91.5t74.5 55.5t62 29.5t40 10.5q2 1 3 1q-12 3 -20.5 5.5t-34.5 13.5t-45.5 24.5t-45 38t-42.5 53.5t-29 72.5t-12 93.5q0 153 111.5 248.5t285.5 95.5q179 0 287.5 -92t108.5 -244
q0 -67 -20 -121.5t-45.5 -86t-60.5 -55t-54.5 -31.5t-37.5 -14q-3 -1 -4 -1q20 -5 26.5 -7t38.5 -15t50.5 -26t48 -39.5t46 -57t29.5 -77t13 -100.5zM877 967q0 108 -74 174.5t-193 66.5q-120 0 -195 -66t-75 -173t74.5 -180.5t195.5 -73.5q119 0 193 71.5t74 180.5z
M903 348q0 123 -79 193.5t-216 70.5q-135 0 -216 -71.5t-81 -190.5q0 -124 82.5 -196t216.5 -72t213.5 71t79.5 195z" />
    <glyph glyph-name="nine.taboldstyle" unicode="&#xf64c;" 
d="M1036 453q0 -106 -13 -201t-47.5 -190t-87.5 -163t-139 -110.5t-196 -42.5q-215 0 -342 127l65 82q125 -100 263 -100q88 0 155.5 35t109 90.5t68 133t36.5 155t10 163.5l-3 39q-28 -118 -128 -185t-226 -67q-179 0 -281 116.5t-102 299.5q0 191 114.5 316.5t299.5 125.5
q100 0 178.5 -37.5t127.5 -98.5t81 -144t44.5 -167.5t12.5 -176.5zM877 659q0 132 -80.5 222t-208.5 90q-131 0 -208 -96.5t-77 -233.5q0 -139 69 -227t201 -88q135 0 219.5 97t84.5 236z" />
    <glyph glyph-name="Euro.taboldstyle" unicode="&#xf64e;" 
d="M1114 109q-168 -134 -364 -134q-89 0 -164 25t-126 64.5t-91.5 91.5t-64 104t-38.5 104.5t-20.5 89t-5.5 62.5h-138v100h131q-2 39 -2 76q0 21 2 58h-131v100h138q0 19 5 53t20.5 86t38.5 105t64 107.5t92.5 96.5t127.5 68.5t166 26.5q52 0 104 -11t88 -26t67 -33t45 -28
t19 -15l-61 -88q-126 90 -258 90q-71 0 -130.5 -21.5t-98 -55.5t-68.5 -78.5t-46 -86.5t-26 -84t-13 -67t-3 -39h534v-100h-542q-3 -41 -3 -74q0 -8 3 -60h542v-100h-534q0 -14 3 -39t13 -66.5t25.5 -83t45 -85t67 -76.5t95 -54.5t126.5 -21.5q34 0 67.5 5t62 14.5t53 19.5
t46.5 22t35.5 20t25.5 17l13 9z" />
    <glyph glyph-name="florin.taboldstyle" unicode="&#xf64f;" 
d="M1182 1343l-37 -98q-18 9 -61 21t-87 12q-92 0 -140 -57t-79 -205l-65 -307h313l-22 -113h-316l-127 -625q0 -2 -7.5 -38t-9.5 -44t-9.5 -42t-12 -47t-12.5 -41.5t-15.5 -44t-17 -36.5t-20.5 -36t-23 -27q-80 -80 -207 -80q-27 0 -53.5 3t-45 7t-37.5 10.5t-28.5 10
t-20.5 8.5l-11 6l39 98q80 -30 147 -30q76 0 117 41q9 9 17.5 20.5t16 27t13 28t11.5 34.5t10 34t10 40t8.5 39t9 43.5l8.5 42.5l125 598h-264l23 113h264l61 292q1 3 5.5 26.5t6 30.5t7 30.5t9 33.5t10 31.5t12 34t13.5 31t16.5 31t19 27t22.5 26.5q88 88 221 88
q97 0 193 -48z" />
    <glyph glyph-name="sterling.taboldstyle" unicode="&#xf651;" 
d="M1075 1270l-63 -82q-118 92 -267 92q-148 0 -229.5 -93.5t-81.5 -268.5q0 -65 15 -211h399v-111h-389q0 -5 3 -50.5t3 -72.5q0 -281 -121 -358h696v-115h-899v104q65 20 104.5 51t65 98t25.5 173q0 62 -8 170h-183v111h174q-20 148 -20 211q0 220 118 346.5t320 126.5
q73 0 137.5 -15.5t105.5 -38t63.5 -39.5t31.5 -28z" />
    <glyph glyph-name="yen.taboldstyle" unicode="&#xf652;" 
d="M1096 1366l-383 -659h256v-101h-299v-112h299v-101h-299v-393h-129v393h-295v101h295v112h-295v101h250l-375 659h145l342 -637l355 637h133z" />
    <glyph glyph-name="dollar.taboldstyle" unicode="&#xf653;" 
d="M1036 379q0 -165 -99 -266.5t-263 -122.5v-195h-117v191q-221 13 -377 143l70 94q160 -112 307 -123v572q-3 1 -30 12t-33.5 14t-31 14t-35 16.5t-31 16.5t-33.5 20.5t-29.5 22t-30.5 25.5q-86 86 -86 217q0 142 99 233t241 105v156h117v-152q215 -10 346 -141l-70 -80
l-12 9q-11 10 -22 18t-30.5 20.5t-41 22.5t-48 20t-58 16t-64.5 7v-504q2 -1 25 -9.5t39.5 -15.5t45.5 -20t51.5 -26t48 -30.5t44.5 -35.5q108 -101 108 -244zM557 807v448q-50 -9 -96.5 -34t-81.5 -75.5t-35 -113.5q0 -78 62 -137q53 -50 151 -88zM901 369q0 90 -72 159
q-19 18 -44.5 35.5t-40.5 26t-42 21.5t-28 14v-519q98 19 162.5 85.5t64.5 177.5z" />
    <glyph glyph-name="cent.taboldstyle" unicode="&#xf654;" 
d="M1024 98q-6 -7 -41 -26t-99.5 -41t-125.5 -27v-209h-117v207q-86 7 -161 42t-133 95t-91 151t-33 202q0 117 34.5 215t93.5 163t133 104t157 48v168h117v-164q67 -6 129 -29t88 -39.5t35 -25.5l-56 -86q-97 58 -196 69v-796q23 2 46 7t43 11t37 12t32.5 13.5t25 12
t19 9.5t10.5 6zM641 119v792q-122 -20 -206.5 -127.5t-84.5 -273.5q0 -171 85.5 -273.5t205.5 -117.5z" />
    <glyph glyph-name="zero.dnom" unicode="&#xf655;" horiz-adv-x="780" 
d="M688 354q0 -172 -80 -269t-221 -97q-135 0 -215 92.5t-80 251.5q0 178 80 277.5t223 99.5q134 0 213.5 -96t79.5 -259zM573 354q0 123 -47.5 192.5t-130.5 69.5q-89 0 -138.5 -73.5t-49.5 -206.5q0 -122 47 -189t133 -67q89 0 137.5 71.5t48.5 202.5z" />
    <glyph glyph-name="one.dnom" unicode="&#xf656;" horiz-adv-x="780" 
d="M481 0h-106v567l-160 -102l-55 82l239 151h82v-698z" />
    <glyph glyph-name="two.dnom" unicode="&#xf657;" horiz-adv-x="780" 
d="M596 0h-424v80q1 1 39.5 36.5t57 54t58 59t62 69.5t49 66.5t39 70t12.5 60.5q0 58 -29.5 90t-86.5 32q-70 0 -150 -71l-55 63q25 33 83.5 67t131.5 34q98 0 156.5 -57.5t58.5 -151.5q0 -86 -68 -177.5t-219 -232.5h285v-92z" />
    <glyph glyph-name="three.dnom" unicode="&#xf658;" horiz-adv-x="780" 
d="M604 201q0 -98 -66 -155.5t-165 -57.5q-46 0 -85 10t-64 25.5t-39.5 28.5t-24.5 26l55 61q73 -61 147 -61q67 0 104.5 31t37.5 84q0 42 -29 75q-22 24 -56.5 33.5t-99.5 9.5h-28v90h35q33 0 59 4t52.5 14.5t41.5 34t15 58.5q0 45 -31 75.5t-86 30.5q-85 0 -146 -61
l-57 57q13 16 34.5 34.5t70.5 39.5t102 21q95 0 154 -53.5t59 -141.5q0 -49 -34.5 -95t-88.5 -59q60 -14 96.5 -57.5t36.5 -101.5z" />
    <glyph glyph-name="four.dnom" unicode="&#xf659;" horiz-adv-x="780" 
d="M649 160h-96v-160h-104v160h-336v78l344 460h96v-446h96v-92zM449 252v291l-216 -291h216z" />
    <glyph glyph-name="five.dnom" unicode="&#xf65a;" horiz-adv-x="780" 
d="M618 227q0 -107 -70 -172t-179 -65q-37 0 -72 8.5t-57 18.5t-42.5 23.5t-26.5 19t-11 10.5l51 67q11 -9 29 -20.5t53.5 -24t68.5 -12.5q71 0 113.5 38t42.5 105q0 60 -40.5 102t-112.5 42q-20 0 -40.5 -4.5t-32 -8.5t-28 -11.5t-18.5 -8.5l-45 24v340h385v-88h-287v-168
q50 15 82 15q110 0 173.5 -64t63.5 -166z" />
    <glyph glyph-name="six.dnom" unicode="&#xf65b;" horiz-adv-x="780" 
d="M637 233q0 -106 -66.5 -175.5t-171.5 -69.5q-87 0 -146.5 49t-84.5 123.5t-25 167.5q0 72 14 136t44.5 121t86.5 90.5t132 33.5q53 0 102 -20t69 -36.5t27 -25.5l-49 -64q-72 60 -141 60q-164 0 -180 -240q57 80 168 80q101 0 161 -65t60 -165zM539 229q0 66 -33 108
t-96 42q-68 0 -107 -47t-39 -113q0 -61 39 -103t98 -42q65 0 101.5 45t36.5 110z" />
    <glyph glyph-name="seven.dnom" unicode="&#xf65c;" horiz-adv-x="780" 
d="M627 631l-281 -631h-106l278 610h-364v88h473v-67z" />
    <glyph glyph-name="eight.dnom" unicode="&#xf65d;" horiz-adv-x="780" 
d="M633 190q0 -92 -65 -147t-173 -55q-114 0 -179.5 54t-65.5 146q0 58 28 106t74 68q-41 25 -63.5 65.5t-22.5 88.5q0 86 62 139.5t161 53.5q100 0 162.5 -51.5t62.5 -137.5q0 -52 -22.5 -94.5t-63.5 -65.5q105 -36 105 -170zM518 516q0 50 -35 81.5t-90 31.5
q-57 0 -93 -31t-36 -82t36.5 -84t92.5 -33q53 0 89 33t36 84zM535 195q0 58 -39 90t-105 32t-105.5 -32.5t-39.5 -89.5q0 -60 39 -92.5t110 -32.5q65 0 102.5 33t37.5 92z" />
    <glyph glyph-name="nine.dnom" unicode="&#xf65e;" horiz-adv-x="780" 
d="M637 369q0 -56 -8 -108t-28.5 -102.5t-51 -87.5t-79 -60t-110.5 -23q-53 0 -102.5 20t-70 36.5t-27.5 25.5l51 63q9 -9 25 -20.5t50 -25t66 -13.5q47 0 81 20t53 56t28.5 74.5t13.5 88.5q-23 -38 -67 -59t-96 -21q-101 0 -161.5 66t-60.5 166q0 104 67 174t171 70
q56 0 101 -20.5t73.5 -53.5t47.5 -78t26.5 -91.5t7.5 -96.5zM518 477q0 62 -40 105t-99 43q-64 0 -100.5 -46t-36.5 -112q0 -65 33 -106.5t96 -41.5q65 0 106 46t41 112z" />
    <glyph glyph-name="zero.numr" unicode="&#xf661;" horiz-adv-x="780" 
d="M688 1024q0 -172 -80 -269.5t-221 -97.5q-135 0 -215 92.5t-80 251.5q0 178 80 277.5t223 99.5q134 0 213.5 -96t79.5 -258zM573 1024q0 123 -47.5 192.5t-130.5 69.5q-89 0 -138.5 -73.5t-49.5 -206.5q0 -122 47 -189t133 -67q89 0 137.5 71.5t48.5 202.5z" />
    <glyph glyph-name="one.numr" unicode="&#xf662;" horiz-adv-x="780" 
d="M481 668h-106v567l-160 -102l-55 81l239 152h82v-698z" />
    <glyph glyph-name="two.numr" unicode="&#xf663;" horiz-adv-x="780" 
d="M596 668h-424v80q3 3 40 37t56.5 53.5t58 58.5t62 69t49.5 66.5t38.5 69.5t12.5 61q0 58 -29.5 90.5t-86.5 32.5q-69 0 -150 -72l-55 64q25 33 83.5 66.5t131.5 33.5q98 0 156.5 -57.5t58.5 -151.5q0 -86 -67.5 -176.5t-219.5 -232.5h285v-92z" />
    <glyph glyph-name="three.numr" unicode="&#xf664;" horiz-adv-x="780" 
d="M604 870q0 -98 -66 -155.5t-165 -57.5q-46 0 -85 10t-64 26t-39.5 29t-24.5 26l55 61q73 -61 147 -61q67 0 104.5 30.5t37.5 83.5q0 43 -29 76q-22 24 -56.5 33.5t-99.5 9.5h-28v90h35q33 0 59 4t52.5 14.5t41.5 34t15 58.5q0 45 -31 75.5t-86 30.5q-85 0 -146 -61
l-57 57q13 16 34.5 34t70.5 39t102 21q96 0 154.5 -53t58.5 -141q0 -49 -34.5 -95t-88.5 -59q60 -13 96.5 -57t36.5 -103z" />
    <glyph glyph-name="four.numr" unicode="&#xf665;" horiz-adv-x="780" 
d="M649 827h-96v-159h-104v159h-336v78l344 461h96v-446h96v-93zM449 920v290l-216 -290h216z" />
    <glyph glyph-name="five.numr" unicode="&#xf666;" horiz-adv-x="780" 
d="M618 895q0 -107 -70 -172.5t-179 -65.5q-37 0 -72 8.5t-57 18.5t-42.5 23.5t-26.5 19t-11 10.5l51 68q11 -9 29 -20.5t53.5 -24t68.5 -12.5q71 0 113.5 38t42.5 105q0 60 -40.5 101.5t-112.5 41.5q-20 0 -40.5 -4.5t-32 -8.5t-28 -11.5t-18.5 -8.5l-45 25v340h385v-88
h-287v-168q47 14 82 14q110 0 173.5 -63.5t63.5 -165.5z" />
    <glyph glyph-name="six.numr" unicode="&#xf667;" horiz-adv-x="780" 
d="M637 903q0 -107 -66.5 -176.5t-171.5 -69.5q-87 0 -146.5 49t-84.5 123.5t-25 167.5q0 72 14 136t44.5 121t86.5 90.5t132 33.5q53 0 102 -20t69 -36.5t27 -25.5l-49 -63q-71 59 -141 59q-164 0 -180 -239q57 80 168 80q101 0 161 -65t60 -165zM539 899q0 66 -33 108
t-96 42q-68 0 -107 -47t-39 -113q0 -61 39 -103.5t98 -42.5q65 0 101.5 45.5t36.5 110.5z" />
    <glyph glyph-name="seven.numr" unicode="&#xf668;" horiz-adv-x="780" 
d="M627 1298l-281 -630h-106l278 610h-364v88h473v-68z" />
    <glyph glyph-name="eight.numr" unicode="&#xf669;" horiz-adv-x="780" 
d="M633 860q0 -92 -65.5 -147.5t-172.5 -55.5q-114 0 -179.5 54t-65.5 147q0 58 28 106t74 68q-41 25 -63.5 65.5t-22.5 88.5q0 86 62 139t161 53q101 0 163 -51t62 -137q0 -52 -22.5 -94.5t-63.5 -65.5q105 -36 105 -170zM518 1186q0 50 -35 81t-90 31q-57 0 -93 -30.5
t-36 -81.5t36.5 -84t92.5 -33q53 0 89 33t36 84zM535 864q0 58 -39.5 90.5t-104.5 32.5q-66 0 -105.5 -33t-39.5 -90q0 -60 39 -92.5t110 -32.5q65 0 102.5 33t37.5 92z" />
    <glyph glyph-name="nine.numr" unicode="&#xf66a;" horiz-adv-x="780" 
d="M637 1038q0 -56 -8 -108t-28.5 -102.5t-51 -87.5t-79 -60t-110.5 -23q-53 0 -102.5 20t-70 36.5t-27.5 25.5l51 64q9 -9 25 -20.5t50 -25.5t66 -14q156 0 176 240q-23 -38 -67 -59t-96 -21q-101 0 -161.5 66t-60.5 166q0 104 66.5 173.5t171.5 69.5q56 0 101 -20.5
t73.5 -53.5t47.5 -78t26.5 -91.5t7.5 -96.5zM518 1147q0 62 -39.5 104.5t-99.5 42.5q-64 0 -100.5 -46t-36.5 -111t33 -106.5t96 -41.5q65 0 106 46t41 112z" />
    <glyph glyph-name="Acute" unicode="&#xf6c9;" horiz-adv-x="778" 
d="M629 1632l-439 -164l-40 80l423 205z" />
    <glyph glyph-name="Caron" unicode="&#xf6ca;" horiz-adv-x="778" 
d="M76 1671l53 80l258 -141l258 141l57 -80l-315 -203z" />
    <glyph glyph-name="Dieresis" unicode="&#xf6cb;" horiz-adv-x="778" 
d="M637 1577q0 -38 -27 -65t-65 -27t-65 27t-27 65t27 65t65 27t65 -27t27 -65zM326 1577q0 -38 -27.5 -65t-65.5 -27t-65 27t-27 65t27 65t65 27t65.5 -27t27.5 -65z" />
    <glyph glyph-name="Grave" unicode="&#xf6ce;" horiz-adv-x="778" 
d="M588 1468l-438 164l55 121l424 -205z" />
    <glyph glyph-name="Hungarumlaut" unicode="&#xf6cf;" horiz-adv-x="778" 
d="M641 1804l-141 -344l-99 35l109 360zM377 1804l-139 -344l-101 35l109 360z" />
    <glyph glyph-name="Macron" unicode="&#xf6d0;" horiz-adv-x="778" 
d="M717 1487h-656v110h656v-110z" />
    <glyph glyph-name="one.fitted" unicode="&#xf6dc;" horiz-adv-x="735" 
d="M559 0h-129v1212l-336 -227l-69 96l426 285h108v-1366z" />
    <glyph glyph-name="Lslashsmall" unicode="&#xf6f9;" horiz-adv-x="878" 
d="M821 0h-596v438l-125 -90l-69 80l194 139v492h127v-422l193 137l67 -82l-260 -180v-403h469v-109z" />
    <glyph glyph-name="OEsmall" unicode="&#xf6fa;" horiz-adv-x="1505" 
d="M1403 0h-619q-201 0 -320 25t-204 110q-73 73 -116.5 164t-43.5 225q0 236 160 396q87 87 198.5 113t278.5 26h654v-107h-484v-346h455v-104h-455v-393h496v-109zM780 104v850h-41q-140 0 -232 -21.5t-163 -92.5q-113 -113 -113 -320q0 -186 107 -293q69 -69 155 -96
t269 -27h18z" />
    <glyph glyph-name="Scaronsmall" unicode="&#xf6fd;" horiz-adv-x="884" 
d="M776 295q0 -140 -94 -227.5t-264 -87.5q-70 0 -134.5 16t-107 39.5t-64 38.5t-30.5 24l68 90q137 -98 262 -98q121 0 178 56.5t57 140.5q0 59 -45 104q-43 43 -123 77.5t-161.5 70.5t-127.5 82q-73 73 -73 180q0 122 93.5 199t242.5 77q194 0 315 -121l-68 -77
q-102 92 -239 92q-99 0 -160 -47.5t-61 -120.5q0 -55 41 -96q35 -35 114.5 -67t165 -69.5t135.5 -87.5q80 -80 80 -188zM784 1364l-315 -203l-311 203l53 80l258 -141l258 141z" />
    <glyph glyph-name="Zcaronsmall" unicode="&#xf6ff;" horiz-adv-x="954" 
d="M856 0h-766v88l598 864h-565v107h719v-90l-592 -860h606v-109zM791 1364l-316 -203l-311 203l53 80l258 -141l258 141z" />
    <glyph glyph-name="ampersandsmall" unicode="&#xf726;" horiz-adv-x="1165" 
d="M1067 0h-23q-86 0 -142.5 23.5t-115.5 82.5l-9 -8q-9 -7 -17.5 -13.5t-23.5 -17t-31 -19t-36.5 -19t-44 -18.5t-49.5 -15t-56.5 -10.5t-61.5 -3.5q-148 0 -246 89t-98 224q0 62 25 119.5t65 97.5q28 28 73.5 54t67.5 34q-121 121 -121 236q0 105 83 173t208 68
q119 0 193.5 -61t74.5 -160q0 -30 -6.5 -58t-20 -51t-27 -42t-35 -36.5t-37 -29.5t-40 -24.5t-36 -18t-32.5 -15t-24 -10.5l262 -292q34 42 63.5 124t29.5 183h118q0 -122 -40.5 -232.5t-86.5 -163.5q54 -57 95 -73.5t102 -16.5v-100zM655 846q0 55 -34 94t-109 39
q-70 0 -116 -40.5t-46 -100.5q0 -41 24 -80t81 -107q2 1 7 3q193 81 193 192zM707 188l-297 336l-2 -1q-14 -6 -26.5 -12.5t-41 -27.5t-48.5 -43.5t-36 -60t-16 -78.5q0 -89 65 -149t166 -60q123 0 233 94q2 2 3 2z" />
    <glyph glyph-name="zerooldstyle" unicode="&#xf730;" horiz-adv-x="1222" 
d="M1114 530q0 -244 -140.5 -397t-367.5 -153q-214 0 -355.5 152t-141.5 386q0 245 142 401t367 156q217 0 356.5 -153t139.5 -392zM983 537q0 193 -106.5 314.5t-270.5 121.5q-166 0 -266 -121.5t-100 -321.5q0 -198 105.5 -322t266.5 -124q170 0 270.5 123t100.5 330z" />
    <glyph glyph-name="oneoldstyle" unicode="&#xf731;" horiz-adv-x="622" 
d="M453 0h-125v911l-256 -168l-68 93l348 223h101v-1059z" />
    <glyph glyph-name="twooldstyle" unicode="&#xf732;" horiz-adv-x="878" 
d="M791 0h-746v98l41 34q42 35 87 73.5t105.5 93t102.5 96.5q125 125 178 204t53 167q0 79 -61.5 140t-165.5 61q-148 0 -268 -107l-72 74q4 7 18.5 21.5t46.5 36.5t71 41t98 32.5t122 13.5q89 0 158.5 -28t108 -73.5t58 -96.5t19.5 -105q0 -102 -48.5 -186.5t-178.5 -214.5
q-44 -44 -97.5 -93.5t-89.5 -81t-71 -61.5l-35 -30h566v-109z" />
    <glyph glyph-name="threeoldstyle" unicode="&#xf733;" horiz-adv-x="931" 
d="M805 127q0 -162 -122.5 -271.5t-301.5 -109.5q-87 0 -161 18t-118 44t-67 44.5t-31 30.5l68 78l6 -5q7 -6 16 -13t23.5 -16.5t31.5 -19t40 -18.5t47.5 -16t55 -11.5t62.5 -4.5q144 0 229 72t85 184q0 104 -70 174q-52 52 -125 70t-207 18h-10v106h23q125 0 196 23t115 67
q61 61 61 160t-71 167.5t-197 68.5q-55 0 -108 -15t-90.5 -37.5t-57.5 -37t-29 -23.5l-69 76q3 5 19 20t49 37.5t74.5 42.5t100.5 34.5t121 14.5q177 0 283 -98.5t106 -245.5q0 -113 -67 -201.5t-183 -105.5q124 -12 198.5 -95.5t74.5 -205.5z" />
    <glyph glyph-name="fouroldstyle" unicode="&#xf734;" horiz-adv-x="993" 
d="M973 20h-172v-270h-125v270h-641v97l627 942h139v-932h172v-107zM676 127v756l-502 -756h502z" />
    <glyph glyph-name="fiveoldstyle" unicode="&#xf735;" horiz-adv-x="1019" 
d="M922 168q0 -188 -123 -305t-322 -117q-67 0 -128.5 12.5t-100.5 29.5t-71.5 37.5t-45.5 32t-18 17.5l63 82l10 -7q10 -7 22.5 -15.5t32 -19.5t43.5 -20.5t51 -18.5t60.5 -14t67.5 -5q156 0 239.5 88t83.5 215q0 135 -86.5 222t-240.5 87q-126 0 -223 -59l-58 36v613h690
v-107h-571v-411q78 39 197 39q200 0 314 -113.5t114 -298.5z" />
    <glyph glyph-name="sixoldstyle" unicode="&#xf736;" horiz-adv-x="1075" 
d="M967 422q0 -191 -114.5 -316.5t-299.5 -125.5q-100 0 -178.5 37.5t-127.5 98.5t-81 144t-44.5 167.5t-12.5 176.5q0 106 13 201t47.5 190t87.5 163t139 110.5t196 42.5q215 0 342 -127l-66 -82q-125 100 -262 100q-88 0 -155.5 -35t-109 -90.5t-68 -133t-36.5 -155
t-10 -163.5l2 -39q28 117 128 184.5t227 67.5q179 0 281 -116.5t102 -299.5zM842 416q0 139 -69.5 227t-201.5 88q-134 0 -218.5 -97.5t-84.5 -236.5q0 -132 80.5 -221.5t208.5 -89.5q131 0 208 96.5t77 233.5z" />
    <glyph glyph-name="sevenoldstyle" unicode="&#xf737;" horiz-adv-x="880" 
d="M836 954l-523 -1204h-137l533 1196h-715v113h842v-105z" />
    <glyph glyph-name="eightoldstyle" unicode="&#xf738;" horiz-adv-x="1071" 
d="M963 344q0 -166 -116.5 -265t-309.5 -99q-188 0 -308 99t-120 265q0 74 25.5 134t55 91.5t74.5 55.5t62 29.5t40 10.5q2 1 3 1q-12 3 -20.5 5.5t-34.5 13.5t-45.5 24.5t-45.5 38t-43 53.5t-29 72.5t-12 93.5q0 153 112 248.5t286 95.5q179 0 287 -92t108 -244
q0 -67 -20 -122t-45.5 -86t-60 -54.5t-54.5 -31.5t-37 -14q-3 -1 -4 -1q20 -5 26.5 -7t38.5 -15t50.5 -26t48 -39.5t46 -57t29.5 -77t13 -100.5zM805 967q0 108 -73.5 174.5t-192.5 66.5q-120 0 -195.5 -66t-75.5 -173t75 -180.5t196 -73.5q118 0 192 71.5t74 180.5z
M831 348q0 123 -78.5 193.5t-215.5 70.5q-135 0 -216 -71.5t-81 -190.5q0 -124 82.5 -196t216.5 -72t213 71t79 195z" />
    <glyph glyph-name="nineoldstyle" unicode="&#xf739;" horiz-adv-x="1075" 
d="M967 453q0 -106 -13.5 -201t-48 -189.5t-87.5 -163t-139 -111t-196 -42.5q-215 0 -342 127l66 82q125 -100 262 -100q88 0 155.5 35t109 90.5t68 133t36.5 155t10 163.5l-2 39q-28 -118 -128 -185t-226 -67q-179 0 -281 116.5t-102 299.5q0 191 114 316.5t299 125.5
q84 0 153 -26t116.5 -72t82.5 -105t55 -131t29 -143t9 -147zM807 659q0 132 -80.5 222t-208.5 90q-131 0 -208 -96.5t-77 -233.5q0 -139 69.5 -227t201.5 -88q135 0 219 97t84 236z" />
    <glyph glyph-name="Asmall" unicode="&#xf761;" horiz-adv-x="1005" 
d="M983 0h-137l-115 297h-469l-112 -297h-127l411 1059h135zM690 403l-194 515l-195 -515h389z" />
    <glyph glyph-name="Bsmall" unicode="&#xf762;" horiz-adv-x="962" 
d="M862 305q0 -119 -84 -203q-25 -25 -51 -43t-61.5 -29t-62.5 -17.5t-78.5 -9t-84.5 -3t-104 -0.5h-180v1059h293q110 0 177 -14.5t117 -65.5q82 -82 82 -205q0 -192 -198 -229q25 -1 52 -6.5t61 -22t60 -41.5t44 -69t18 -101zM698 776q0 76 -47 123q-14 14 -30.5 24
t-38.5 16t-37.5 10t-44 5.5t-39.5 2t-43 0t-37 -0.5h-98v-368h123q178 0 245 67q47 47 47 121zM735 301q0 74 -49 123q-17 17 -43 29.5t-45 18.5t-58 9.5t-51.5 4t-58 0t-47.5 -0.5h-100v-381h137q109 0 166.5 13t101.5 59q47 47 47 125z" />
    <glyph glyph-name="Csmall" unicode="&#xf763;" horiz-adv-x="1007" 
d="M969 88q-14 -16 -54.5 -38.5t-125 -46t-177.5 -23.5q-222 0 -367 144.5t-145 393.5q0 129 42.5 236t115 177t168.5 108t205 38q124 0 208 -31.5t115 -62.5l-59 -88q-12 9 -34.5 21t-85 29.5t-130.5 17.5q-181 0 -298.5 -117.5t-117.5 -315.5q0 -201 107.5 -318.5
t290.5 -117.5q35 0 69 4.5t61.5 11.5t51 15t42 17t30.5 16t21 12l9 6z" />
    <glyph glyph-name="Dsmall" unicode="&#xf764;" horiz-adv-x="1163" 
d="M1063 535q0 -236 -160 -396q-87 -87 -198.5 -113t-278.5 -26h-270v1059h223q201 0 320 -25t204 -110q73 -73 116.5 -164t43.5 -225zM932 539q0 185 -107 292q-69 69 -155 96t-269 27h-116v-850h139q139 0 231.5 22t163.5 93q113 113 113 320z" />
    <glyph glyph-name="Esmall" unicode="&#xf765;" horiz-adv-x="868" 
d="M766 0h-610v1059h598v-107h-473v-346h444v-104h-444v-393h485v-109z" />
    <glyph glyph-name="Fsmall" unicode="&#xf766;" horiz-adv-x="825" 
d="M739 952h-456v-346h426v-104h-426v-502h-127v1059h583v-107z" />
    <glyph glyph-name="Gsmall" unicode="&#xf767;" horiz-adv-x="1095" 
d="M979 76q-144 -96 -356 -96q-229 0 -376 144t-147 394q0 129 42.5 236t115 177t168.5 108t205 38q124 0 208 -31.5t115 -62.5l-59 -88q-12 9 -34.5 21t-85 29.5t-130.5 17.5q-181 0 -298.5 -117.5t-117.5 -315.5q0 -114 34 -200.5t93.5 -137t131.5 -75.5t155 -25
q25 0 49.5 2t44 5.5t36.5 7.5t31.5 8.5t23.5 8t18 7.5t10 4v287h-244v104h367v-450z" />
    <glyph glyph-name="Hsmall" unicode="&#xf768;" horiz-adv-x="1099" 
d="M944 0h-127v504h-534v-504h-127v1059h127v-449h534v449h127v-1059z" />
    <glyph glyph-name="Ismall" unicode="&#xf769;" horiz-adv-x="438" 
d="M283 0h-127v1059h127v-1059z" />
    <glyph glyph-name="Jsmall" unicode="&#xf76a;" horiz-adv-x="620" 
d="M481 332q0 -63 -1 -91t-7 -70t-20 -69.5t-39 -52.5q-69 -69 -181 -69q-79 0 -138 24.5t-79 44.5l50 90l12 -7q12 -7 24.5 -13t31.5 -13t42.5 -11.5t48.5 -4.5q32 0 55.5 9t37 27.5t22 35.5t12 43.5t4 40.5t0.5 38v7v768h125v-727z" />
    <glyph glyph-name="Ksmall" unicode="&#xf76b;" horiz-adv-x="935" 
d="M926 0h-164l-479 498v-498h-127v1059h127v-494l471 494h145l-496 -520z" />
    <glyph glyph-name="Lsmall" unicode="&#xf76c;" horiz-adv-x="808" 
d="M752 0h-596v1059h127v-950h469v-109z" />
    <glyph glyph-name="Msmall" unicode="&#xf76d;" horiz-adv-x="1462" 
d="M1343 0h-133l-98 864l-336 -864h-102l-338 864l-96 -864h-121l131 1059h137l348 -879l338 879h137z" />
    <glyph glyph-name="Nsmall" unicode="&#xf76e;" horiz-adv-x="1097" 
d="M942 0h-137l-535 868l6 -868h-120v1059h133l538 -877l-6 877h121v-1059z" />
    <glyph glyph-name="Osmall" unicode="&#xf76f;" horiz-adv-x="1206" 
d="M1106 530q0 -244 -140.5 -397t-367.5 -153q-215 0 -356.5 152t-141.5 386q0 245 142.5 401t367.5 156q217 0 356.5 -153t139.5 -392zM971 537q0 192 -105 312t-268 120q-164 0 -263 -120.5t-99 -318.5q0 -196 104 -320t264 -124q168 0 267.5 122.5t99.5 328.5z" />
    <glyph glyph-name="Psmall" unicode="&#xf770;" horiz-adv-x="935" 
d="M842 750q0 -136 -92 -228q-24 -24 -50 -41t-61 -27t-57 -15.5t-67.5 -8t-60 -2.5h-65.5h-106v-428h-127v1059h262q60 0 97.5 -2t84.5 -10.5t84 -27.5t68 -50q90 -90 90 -219zM717 754q0 87 -60 147q-20 20 -46.5 32.5t-64 16.5t-57.5 5t-65 1h-141v-426h98q118 0 178 11
t96 47q62 62 62 166z" />
    <glyph glyph-name="Qsmall" unicode="&#xf771;" horiz-adv-x="1206" 
d="M1106 -209q-60 -16 -162 -16q-288 0 -430 211q-80 13 -152.5 53.5t-132 105.5t-94.5 161.5t-35 211.5q0 245 142.5 401t367.5 156q217 0 356.5 -153t139.5 -392q0 -235 -127.5 -381.5t-319.5 -164.5q100 -109 316 -109q51 0 115 8zM971 537q0 192 -105 312t-268 120
q-164 0 -263 -120.5t-99 -318.5q0 -196 104 -320t264 -124q168 0 267.5 122.5t99.5 328.5z" />
    <glyph glyph-name="Rsmall" unicode="&#xf772;" horiz-adv-x="956" 
d="M907 0h-133l-129 272q-26 55 -44.5 85.5t-39.5 54t-49.5 32.5t-61.5 13t-90 4h-77v-461h-127v1059h237q139 0 192 -10q94 -18 152 -76q88 -88 88 -211q0 -107 -75 -182q-64 -64 -168 -78q14 -1 27 -5t23.5 -8t21 -13t17.5 -14.5t16.5 -18.5t13.5 -18.5t12.5 -21.5
t10.5 -20t11 -22.5t10 -20.5zM698 768q0 80 -51 131q-10 10 -21.5 18.5t-25.5 14t-24 10t-28.5 7t-26.5 4.5t-30 2.5t-27.5 0.5h-30h-27.5h-123v-391h77q106 0 172.5 13t112.5 59q53 53 53 131z" />
    <glyph glyph-name="Ssmall" unicode="&#xf773;" horiz-adv-x="884" 
d="M776 295q0 -140 -94 -227.5t-264 -87.5q-70 0 -134.5 16t-107 39.5t-64 38.5t-30.5 24l68 90q137 -98 262 -98q121 0 178 56.5t57 140.5q0 59 -45 104q-43 43 -123 77.5t-161.5 70.5t-127.5 82q-73 73 -73 180q0 122 93.5 199t242.5 77q194 0 315 -121l-68 -77
q-102 92 -239 92q-99 0 -160 -47.5t-61 -120.5q0 -55 41 -96q35 -35 114.5 -67t165 -69.5t135.5 -87.5q80 -80 80 -188z" />
    <glyph glyph-name="Tsmall" unicode="&#xf774;" horiz-adv-x="915" 
d="M856 952h-334v-952h-127v952h-336v107h797v-107z" />
    <glyph glyph-name="Usmall" unicode="&#xf775;" horiz-adv-x="1067" 
d="M928 473q0 -69 -0.5 -97.5t-5 -80.5t-13.5 -80t-27.5 -63t-45.5 -62q-110 -110 -301 -110q-187 0 -297 104q-57 54 -77 121.5t-22 159.5v120v574h125v-668q0 -59 1.5 -87.5t17 -72.5t47.5 -73q76 -70 209 -70q125 0 192 64q45 41 57.5 89t14.5 126v131v561h125v-586z" />
    <glyph glyph-name="Vsmall" unicode="&#xf776;" horiz-adv-x="1017" 
d="M977 1059l-397 -1059h-150l-389 1059h137l332 -934l344 934h123z" />
    <glyph glyph-name="Wsmall" unicode="&#xf777;" horiz-adv-x="1529" 
d="M1454 1059l-278 -1059h-164l-244 928l-250 -928h-164l-278 1059h135l229 -928l248 928h166l248 -928l229 928h123z" />
    <glyph glyph-name="Xsmall" unicode="&#xf778;" horiz-adv-x="968" 
d="M922 0h-148l-293 451l-293 -451h-141l361 551l-336 508h147l262 -412l262 412h144l-336 -512z" />
    <glyph glyph-name="Ysmall" unicode="&#xf779;" horiz-adv-x="935" 
d="M891 1059l-361 -641v-418h-124v418l-361 641h141l289 -524l287 524h129z" />
    <glyph glyph-name="Zsmall" unicode="&#xf77a;" horiz-adv-x="954" 
d="M856 0h-766v88l598 864h-565v107h719v-90l-592 -860h606v-109z" />
    <glyph glyph-name="Agravesmall" unicode="&#xf7e0;" horiz-adv-x="1005" 
d="M983 0h-137l-115 297h-469l-112 -297h-127l411 1059h135zM690 403l-194 515l-195 -515h389zM735 1239l-41 -80l-438 164l55 121z" />
    <glyph glyph-name="Aacutesmall" unicode="&#xf7e1;" horiz-adv-x="1005" 
d="M983 0h-137l-115 297h-469l-112 -297h-127l411 1059h135zM690 403l-194 515l-195 -515h389zM727 1323l-438 -164l-41 80l424 205z" />
    <glyph glyph-name="Acircumflexsmall" unicode="&#xf7e2;" horiz-adv-x="1005" 
d="M983 0h-137l-115 297h-469l-112 -297h-127l411 1059h135zM690 403l-194 515l-195 -515h389zM807 1241l-53 -80l-258 142l-258 -142l-58 80l316 203z" />
    <glyph glyph-name="Atildesmall" unicode="&#xf7e3;" horiz-adv-x="1005" 
d="M983 0h-137l-115 297h-469l-112 -297h-127l411 1059h135zM690 403l-194 515l-195 -515h389zM815 1307q-93 -93 -203 -93q-39 0 -112.5 23t-112.5 23q-62 0 -137 -48l-60 80q57 48 102.5 68t96.5 20q41 0 114 -23.5t111 -23.5q77 0 142 56z" />
    <glyph glyph-name="Adieresissmall" unicode="&#xf7e4;" horiz-adv-x="1005" 
d="M983 0h-137l-115 297h-469l-112 -297h-127l411 1059h135zM690 403l-194 515l-195 -515h389zM743 1300q0 -38 -27 -65t-65 -27t-65 27t-27 65t27 65.5t65 27.5t65 -27.5t27 -65.5zM432 1300q0 -38 -27 -65t-65 -27t-65 27t-27 65t27 65.5t65 27.5t65 -27.5t27 -65.5z" />
    <glyph glyph-name="Aringsmall" unicode="&#xf7e5;" horiz-adv-x="1005" 
d="M983 0h-137l-115 297h-469l-112 -297h-127l411 1059h135zM690 403l-194 515l-195 -515h389zM696 1333q0 -83 -58.5 -141.5t-141.5 -58.5t-142 58.5t-59 141.5q0 85 59 143t142 58q84 0 142 -59t58 -142zM612 1333q0 50 -34 83.5t-82 33.5q-47 0 -81 -35t-34 -82t34 -80.5
t81 -33.5q49 0 82.5 33t33.5 81z" />
    <glyph glyph-name="AEsmall" unicode="&#xf7e6;" horiz-adv-x="1433" 
d="M1331 0h-610v297h-383l-172 -297h-143l643 1059h653v-107h-473v-346h444v-104h-444v-393h485v-109zM721 403v545l-322 -545h322z" />
    <glyph glyph-name="Ccedillasmall" unicode="&#xf7e7;" horiz-adv-x="1007" 
d="M969 88q-32 -32 -126 -68.5t-220 -39.5l-15 -89q15 11 51 11q75 0 121.5 -47.5t46.5 -122.5q0 -83 -58.5 -130.5t-135.5 -47.5q-95 0 -141 40l32 74q38 -24 99 -24q55 0 77.5 26t22.5 58q0 37 -24 60.5t-62 23.5q-43 0 -82 -29l-53 35l33 166q-81 10 -156 46.5t-138.5 99
t-102 163.5t-38.5 225q0 129 42.5 236t115 177t168.5 108t205 38q124 0 208 -31.5t115 -62.5l-59 -88q-12 9 -34.5 21t-85 29.5t-130.5 17.5q-181 0 -298.5 -117.5t-117.5 -315.5q0 -201 107.5 -318.5t290.5 -117.5q35 0 69 4.5t61.5 11.5t51 15t42 17t30.5 16t21 12l9 6z
" />
    <glyph glyph-name="Egravesmall" unicode="&#xf7e8;" horiz-adv-x="868" 
d="M766 0h-610v1059h598v-107h-473v-346h444v-104h-444v-393h485v-109zM702 1239l-40 -80l-439 164l56 121z" />
    <glyph glyph-name="Eacutesmall" unicode="&#xf7e9;" horiz-adv-x="868" 
d="M766 0h-610v1059h598v-107h-473v-346h444v-104h-444v-393h485v-109zM698 1323l-438 -164l-41 80l424 205z" />
    <glyph glyph-name="Ecircumflexsmall" unicode="&#xf7ea;" horiz-adv-x="868" 
d="M774 0h-610v1059h598v-107h-473v-346h444v-104h-444v-393h485v-109zM782 1241l-53 -80l-258 142l-258 -142l-57 80l315 203z" />
    <glyph glyph-name="Edieresissmall" unicode="&#xf7eb;" horiz-adv-x="868" 
d="M766 0h-610v1059h598v-107h-473v-346h444v-104h-444v-393h485v-109zM705 1300q0 -38 -27.5 -65t-65.5 -27t-65 27t-27 65t27 65.5t65 27.5t65.5 -27.5t27.5 -65.5zM393 1300q0 -38 -27 -65t-65 -27t-65 27t-27 65t27 65.5t65 27.5t65 -27.5t27 -65.5z" />
    <glyph glyph-name="Igravesmall" unicode="&#xf7ec;" horiz-adv-x="438" 
d="M283 0h-127v1059h127v-1059zM459 1239l-41 -80l-438 164l55 121z" />
    <glyph glyph-name="Iacutesmall" unicode="&#xf7ed;" horiz-adv-x="438" 
d="M283 0h-127v1059h127v-1059zM459 1323l-439 -164l-40 80l423 205z" />
    <glyph glyph-name="Icircumflexsmall" unicode="&#xf7ee;" horiz-adv-x="438" 
d="M283 0h-127v1059h127v-1059zM530 1241l-53 -80l-258 142l-258 -142l-57 80l315 203z" />
    <glyph glyph-name="Idieresissmall" unicode="&#xf7ef;" horiz-adv-x="438" 
d="M283 0h-127v1059h127v-1059zM467 1300q0 -38 -27 -65t-65 -27t-65 27t-27 65t27 65.5t65 27.5t65 -27.5t27 -65.5zM156 1300q0 -38 -27.5 -65t-65.5 -27t-65 27t-27 65t27 65.5t65 27.5t65.5 -27.5t27.5 -65.5z" />
    <glyph glyph-name="Ethsmall" unicode="&#xf7f0;" horiz-adv-x="1230" 
d="M1130 535q0 -237 -159 -396q-87 -87 -198.5 -113t-278.5 -26h-271v502h-166v104h166v453h223q201 0 320.5 -25t204.5 -110q72 -72 115.5 -163.5t43.5 -225.5zM999 539q0 186 -106 292q-69 69 -155 96t-269 27h-117v-348h336v-104h-336v-398h140q139 0 231.5 22t163.5 93
q112 112 112 320z" />
    <glyph glyph-name="Ntildesmall" unicode="&#xf7f1;" horiz-adv-x="1097" 
d="M942 0h-137l-535 868l6 -868h-120v1059h133l538 -877l-6 877h121v-1059zM856 1307q-93 -93 -203 -93q-39 0 -112.5 23t-112.5 23q-62 0 -137 -48l-60 80q57 48 102.5 68t96.5 20q40 0 114 -23.5t111 -23.5q77 0 142 56z" />
    <glyph glyph-name="Ogravesmall" unicode="&#xf7f2;" horiz-adv-x="1206" 
d="M1106 530q0 -244 -140.5 -397t-367.5 -153q-215 0 -356.5 152t-141.5 386q0 245 142.5 401t367.5 156q217 0 356.5 -153t139.5 -392zM971 537q0 192 -105 312t-268 120q-164 0 -263 -120.5t-99 -318.5q0 -196 104 -320t264 -124q168 0 267.5 122.5t99.5 328.5zM856 1239
l-41 -80l-438 164l55 121z" />
    <glyph glyph-name="Oacutesmall" unicode="&#xf7f3;" horiz-adv-x="1206" 
d="M1106 530q0 -244 -140.5 -397t-367.5 -153q-215 0 -356.5 152t-141.5 386q0 245 142.5 401t367.5 156q217 0 356.5 -153t139.5 -392zM971 537q0 192 -105 312t-268 120q-164 0 -263 -120.5t-99 -318.5q0 -196 104 -320t264 -124q168 0 267.5 122.5t99.5 328.5zM831 1323
l-438 -164l-41 80l424 205z" />
    <glyph glyph-name="Ocircumflexsmall" unicode="&#xf7f4;" horiz-adv-x="1206" 
d="M1106 530q0 -244 -140.5 -397t-367.5 -153q-215 0 -356.5 152t-141.5 386q0 245 142.5 401t367.5 156q217 0 356.5 -153t139.5 -392zM971 537q0 192 -105 312t-268 120q-164 0 -263 -120.5t-99 -318.5q0 -196 104 -320t264 -124q168 0 267.5 122.5t99.5 328.5zM913 1241
l-53 -80l-258 142l-258 -142l-57 80l315 203z" />
    <glyph glyph-name="Otildesmall" unicode="&#xf7f5;" horiz-adv-x="1206" 
d="M1106 530q0 -244 -140.5 -397t-367.5 -153q-215 0 -356.5 152t-141.5 386q0 245 142.5 401t367.5 156q217 0 356.5 -153t139.5 -392zM971 537q0 192 -105 312t-268 120q-164 0 -263 -120.5t-99 -318.5q0 -196 104 -320t264 -124q168 0 267.5 122.5t99.5 328.5zM924 1307
q-93 -93 -203 -93q-39 0 -112.5 23t-112.5 23q-63 0 -138 -48l-59 80q57 48 102.5 68t96.5 20q40 0 114 -23.5t111 -23.5q76 0 141 56z" />
    <glyph glyph-name="Odieresissmall" unicode="&#xf7f6;" horiz-adv-x="1206" 
d="M1106 530q0 -244 -140.5 -397t-367.5 -153q-215 0 -356.5 152t-141.5 386q0 245 142.5 401t367.5 156q217 0 356.5 -153t139.5 -392zM971 537q0 192 -105 312t-268 120q-164 0 -263 -120.5t-99 -318.5q0 -196 104 -320t264 -124q168 0 267.5 122.5t99.5 328.5zM856 1300
q0 -38 -27 -65t-65 -27t-65 27t-27 65t27 65.5t65 27.5t65 -27.5t27 -65.5zM545 1300q0 -38 -27 -65t-65 -27t-65.5 27t-27.5 65t27.5 65.5t65.5 27.5t65 -27.5t27 -65.5z" />
    <glyph glyph-name="Oslashsmall" unicode="&#xf7f8;" horiz-adv-x="1206" 
d="M1106 530q0 -244 -140.5 -397t-367.5 -153q-119 0 -221 51l-88 -144l-94 54l90 151q-12 10 -24 20.5t-44.5 51t-55.5 85t-42 117.5t-19 152q0 245 142.5 401t367.5 156q141 0 236 -57l92 149l94 -53l-98 -162q14 -12 27.5 -26t42 -53.5t49 -83t37 -113.5t16.5 -146z
M969 537q0 189 -103 307l-432 -713q68 -45 168 -45q168 0 267.5 122.5t99.5 328.5zM784 915q-9 7 -29.5 18t-66 23.5t-92.5 12.5q-164 0 -263.5 -120.5t-99.5 -318.5q0 -62 11.5 -118.5t27 -92t34 -64.5t29 -40.5t15.5 -15.5z" />
    <glyph glyph-name="Ugravesmall" unicode="&#xf7f9;" horiz-adv-x="1067" 
d="M928 473q0 -69 -0.5 -97.5t-5 -80.5t-13.5 -80t-27.5 -63t-45.5 -62q-110 -110 -301 -110q-187 0 -297 104q-57 54 -77 121.5t-22 159.5v120v574h125v-668q0 -59 1.5 -87.5t17 -72.5t47.5 -73q76 -70 209 -70q125 0 192 64q45 41 57.5 89t14.5 126v131v561h125v-586z
M778 1239l-41 -80l-438 164l55 121z" />
    <glyph glyph-name="Uacutesmall" unicode="&#xf7fa;" horiz-adv-x="1067" 
d="M928 473q0 -69 -0.5 -97.5t-5 -80.5t-13.5 -80t-27.5 -63t-45.5 -62q-110 -110 -301 -110q-187 0 -297 104q-57 54 -77 121.5t-22 159.5v120v574h125v-668q0 -59 1.5 -87.5t17 -72.5t47.5 -73q76 -70 209 -70q125 0 192 64q45 41 57.5 89t14.5 126v131v561h125v-586z
M782 1323l-438 -164l-41 80l424 205z" />
    <glyph glyph-name="Ucircumflexsmall" unicode="&#xf7fb;" horiz-adv-x="1067" 
d="M928 473q0 -69 -0.5 -97.5t-5 -80.5t-13.5 -80t-27.5 -63t-45.5 -62q-110 -110 -301 -110q-187 0 -297 104q-57 54 -77 121.5t-22 159.5v120v574h125v-668q0 -59 1.5 -87.5t17 -72.5t47.5 -73q76 -70 209 -70q125 0 192 64q45 41 57.5 89t14.5 126v131v561h125v-586z
M848 1241l-53 -80l-258 142l-258 -142l-58 80l316 203z" />
    <glyph glyph-name="Udieresissmall" unicode="&#xf7fc;" horiz-adv-x="1067" 
d="M928 473q0 -69 -0.5 -97.5t-5 -80.5t-13.5 -80t-27.5 -63t-45.5 -62q-110 -110 -301 -110q-187 0 -297 104q-57 54 -77 121.5t-22 159.5v120v574h125v-668q0 -59 1.5 -87.5t17 -72.5t47.5 -73q76 -70 209 -70q125 0 192 64q45 41 57.5 89t14.5 126v131v561h125v-586z
M784 1300q0 -38 -27 -65t-65 -27t-65 27t-27 65t27 65.5t65 27.5t65 -27.5t27 -65.5zM473 1300q0 -38 -27 -65t-65 -27t-65 27t-27 65t27 65.5t65 27.5t65 -27.5t27 -65.5z" />
    <glyph glyph-name="Yacutesmall" unicode="&#xf7fd;" horiz-adv-x="935" 
d="M891 1059l-361 -641v-418h-124v418l-361 641h141l289 -524l287 524h129zM727 1323l-438 -164l-41 80l424 205z" />
    <glyph glyph-name="Thornsmall" unicode="&#xf7fe;" horiz-adv-x="935" 
d="M842 547q0 -136 -92 -228q-24 -24 -50 -41t-61 -27t-57 -15.5t-67.5 -8t-60 -2.5h-65.5h-106v-225h-127v1059h127v-203h135q60 0 97.5 -2t84.5 -10.5t84 -27.5t68 -50q90 -90 90 -219zM717 551q0 87 -60 147q-26 26 -71 39.5t-75 15t-87 1.5h-141v-426h98
q119 0 178.5 10.5t95.5 46.5q62 62 62 166z" />
    <glyph glyph-name="Ydieresissmall" unicode="&#xf7ff;" horiz-adv-x="935" 
d="M891 1059l-361 -641v-418h-124v418l-361 641h141l289 -524l287 524h129zM723 1300q0 -38 -27 -65t-65 -27t-65 27t-27 65t27 65.5t65 27.5t65 -27.5t27 -65.5zM412 1300q0 -38 -27.5 -65t-65.5 -27t-65 27t-27 65t27 65.5t65 27.5t65.5 -27.5t27.5 -65.5z" />
    <glyph glyph-name="Foundry" unicode="&#xf8ff;" horiz-adv-x="1859" 
d="M1761 795q0 -168 -64.5 -320t-174.5 -263t-264.5 -176t-327.5 -65q-172 0 -326.5 65.5t-265 176t-175.5 263t-65 319.5q0 169 65.5 322t176.5 263t265 175t325 65q173 0 327.5 -65.5t264.5 -176t174.5 -263t64.5 -320.5zM1628 795q0 186 -93 346.5t-254 256t-351 95.5
q-140 0 -269.5 -56t-224 -149.5t-151 -222.5t-56.5 -268q0 -132 46.5 -249.5t123.5 -200.5t169 -139.5t190 -82.5v516h-174v100h174v179q0 188 92 280q78 78 211 78q54 0 104 -15t70.5 -27t32.5 -22l-49 -86q-9 6 -27 14.5t-52 17.5t-67 9q-86 0 -135 -49q-26 -26 -39.5 -67
t-15.5 -67t-2 -66v-179h315v-100h-315v-537q24 -4 49 -4q188 0 349 94.5t255 254.5t94 346z" />
    <glyph glyph-name="Ring" unicode="&#xfff3;" horiz-adv-x="778" 
d="M590 1669q0 -83 -59 -142t-142 -59t-142 59t-59 142q0 85 59 143t142 58q84 0 142.5 -59.5t58.5 -141.5zM506 1669q0 50 -34.5 83.5t-82.5 33.5q-47 0 -81 -35t-34 -82t34 -81t81 -34q49 0 83 33.5t34 81.5z" />
    <glyph glyph-name="CR" horiz-adv-x="1040" 
 />
    <glyph glyph-name="germandblssmall" horiz-adv-x="1642" 
d="M1534 295q0 -140 -94 -227.5t-264 -87.5q-70 0 -134.5 16t-107 39.5t-64 38.5t-30.5 24l67 90q137 -98 262 -98q121 0 178.5 56.5t57.5 140.5q0 59 -45 104q-43 43 -123 77.5t-161.5 70.5t-127.5 82q-74 74 -74 180q0 122 93.5 199t242.5 77q195 0 316 -121l-68 -77
q-102 92 -239 92q-99 0 -160.5 -47.5t-61.5 -120.5q0 -55 41 -96q35 -35 115 -67t165.5 -69.5t135.5 -87.5q80 -80 80 -188zM776 295q0 -140 -94 -227.5t-264 -87.5q-70 0 -134.5 16t-107 39.5t-64 38.5t-30.5 24l68 90q137 -98 262 -98q121 0 178 56.5t57 140.5
q0 59 -45 104q-43 43 -123 77.5t-161.5 70.5t-127.5 82q-73 73 -73 180q0 122 93.5 199t242.5 77q194 0 315 -121l-68 -77q-102 92 -239 92q-99 0 -160 -47.5t-61 -120.5q0 -55 41 -96q35 -35 114.5 -67t165 -69.5t135.5 -87.5q80 -80 80 -188z" />
    <glyph glyph-name="germandbls.small" horiz-adv-x="1642" 
d="M1534 295q0 -140 -94 -227.5t-264 -87.5q-70 0 -134.5 16t-107 39.5t-64 38.5t-30.5 24l67 90q137 -98 262 -98q121 0 178.5 56.5t57.5 140.5q0 59 -45 104q-43 43 -123 77.5t-161.5 70.5t-127.5 82q-74 74 -74 180q0 122 93.5 199t242.5 77q195 0 316 -121l-68 -77
q-102 92 -239 92q-99 0 -160.5 -47.5t-61.5 -120.5q0 -55 41 -96q35 -35 115 -67t165.5 -69.5t135.5 -87.5q80 -80 80 -188zM776 295q0 -140 -94 -227.5t-264 -87.5q-70 0 -134.5 16t-107 39.5t-64 38.5t-30.5 24l68 90q137 -98 262 -98q121 0 178 56.5t57 140.5
q0 59 -45 104q-43 43 -123 77.5t-161.5 70.5t-127.5 82q-73 73 -73 180q0 122 93.5 199t242.5 77q194 0 315 -121l-68 -77q-102 92 -239 92q-99 0 -160 -47.5t-61 -120.5q0 -55 41 -96q35 -35 114.5 -67t165 -69.5t135.5 -87.5q80 -80 80 -188z" />
    <glyph glyph-name="Eurooldstyle" horiz-adv-x="1228" 
d="M1120 109q-168 -134 -364 -134q-89 0 -164 25t-126 64.5t-91.5 91.5t-64 104t-38.5 104.5t-20.5 89t-5.5 62.5h-137v100h131q-2 39 -2 76q0 21 2 58h-131v100h137q0 19 5 53t20.5 86t38.5 105t64 107.5t92.5 96.5t127.5 68.5t166 26.5q52 0 104 -11t88 -26t67 -33t45 -28
t19 -15l-61 -88q-126 90 -258 90q-71 0 -130.5 -21.5t-98 -55.5t-68.5 -78.5t-46 -86.5t-26 -84t-13 -67t-3 -39h534v-100h-542q-2 -27 -2 -74q0 -25 2 -60h542v-100h-534q0 -14 3 -39t13 -66.5t25.5 -83t45 -85t67 -76.5t95 -54.5t126.5 -21.5q34 0 67.5 5t62 14.5t53 19.5
t46.5 22t35.5 20t25.5 17l13 9z" />
    <glyph glyph-name="dollaroldstyle" horiz-adv-x="1073" 
d="M965 379q0 -165 -99.5 -266.5t-263.5 -122.5v-195h-117v191q-220 13 -376 143l69 94q160 -112 307 -123v572q-3 1 -30 12t-33.5 14t-31 14t-35 16.5t-31 16.5t-33.5 20.5t-29.5 22t-30.5 25.5q-86 86 -86 217q0 142 99 233t241 105v156h117v-152q215 -10 346 -141
l-69 -80q-1 1 -10 8t-17.5 14t-25 17.5t-32.5 19.5t-38.5 19t-45 17t-51 12t-57.5 6v-504q2 -1 25 -9.5t39.5 -15.5t45.5 -20t51.5 -26t48 -30.5t44.5 -35.5q109 -102 109 -244zM485 807v448q-50 -9 -96.5 -34t-81.5 -75.5t-35 -113.5q0 -78 62 -137q53 -50 151 -88z
M829 369q0 91 -71 159q-19 18 -44.5 35.5t-41 26t-42 21.5t-28.5 14v-519q98 19 162.5 85.5t64.5 177.5z" />
    <glyph glyph-name="centoldstyle" 
d="M1024 98q-6 -7 -41 -26t-99.5 -41t-125.5 -27v-209h-117v207q-86 7 -161 42t-133 95t-91 151t-33 202q0 117 34.5 215t93.5 163t133 104t157 48v168h117v-164q67 -6 129 -29t88 -39.5t35 -25.5l-56 -86q-97 58 -196 69v-796q23 2 46 7t43 11t37 12t32.5 13.5t25 12
t19 9.5t10.5 6zM641 119v792q-122 -20 -206.5 -127.5t-84.5 -273.5q0 -171 85.5 -273.5t205.5 -117.5z" />
    <glyph glyph-name="sterlingoldstyle" horiz-adv-x="1126" 
d="M1030 1270l-63 -82q-118 92 -267 92q-148 0 -229.5 -93.5t-81.5 -268.5q0 -74 14 -211h400v-111h-389q0 -5 3 -50.5t3 -72.5q0 -281 -121 -358h696v-115h-899v104q65 20 104.5 51t65 98t25.5 173q0 62 -8 170h-183v111h174q-20 148 -20 211q0 220 118 346.5t320 126.5
q73 0 137.5 -15.5t105.5 -38t63.5 -39.5t31.5 -28z" />
    <glyph glyph-name="florinoldstyle" horiz-adv-x="1159" 
d="M1155 1343l-37 -98q-18 9 -60.5 21t-86.5 12q-92 0 -140 -57t-79 -205l-66 -307h313l-22 -113h-315l-127 -625q0 -2 -7.5 -38t-9.5 -44t-9.5 -42t-12 -47t-12.5 -41.5t-15.5 -44t-17 -36.5t-20.5 -36t-23 -27q-80 -80 -207 -80q-24 0 -46.5 2t-41 6t-34 8t-28.5 9
t-21.5 8.5t-16.5 7.5t-9 4l39 98q80 -30 147 -30q76 0 117 41q25 25 44.5 74t29 87.5t25.5 118.5q4 19 6 29l125 598h-265l23 113h264l62 292q1 4 6 29.5t7 34.5t8 34t10.5 37.5t11.5 35t14.5 37.5t17 33t21 33t24.5 28q88 88 222 88q96 0 192 -48z" />
    <glyph glyph-name="yenoldstyle" horiz-adv-x="1167" 
d="M1071 1366l-383 -659h256v-101h-299v-112h299v-101h-299v-393h-129v393h-295v101h295v112h-295v101h250l-375 659h146l342 -637l354 637h133z" />
    <glyph glyph-name="dollar.fitted" horiz-adv-x="1081" 
d="M956 379q0 -165 -99 -266.5t-263 -122.5v-195h-117v191q-221 13 -377 143l70 94q160 -112 307 -123v572q-3 1 -30 12t-33.5 14t-31 14t-35 16.5t-31 16.5t-33.5 20.5t-29.5 22t-30.5 25.5q-86 86 -86 217q0 142 99 233t241 105v156h117v-152q215 -10 346 -141l-70 -80
l-12 9q-11 10 -22 18t-30.5 20.5t-41 22.5t-48 20t-58 16t-64.5 7v-504q2 -1 25 -9.5t39.5 -15.5t45.5 -20t51.5 -26t48 -30.5t44.5 -35.5q108 -101 108 -244zM477 807v448q-50 -9 -96.5 -34t-81.5 -75.5t-35 -113.5q0 -78 62 -137q53 -50 151 -88zM821 369q0 91 -71 159
q-19 18 -44.5 35.5t-41 26t-42 21.5t-28.5 14v-519q98 19 162.5 85.5t64.5 177.5z" />
    <glyph glyph-name="cent.fitted" horiz-adv-x="950" 
d="M889 98q-6 -7 -41 -26t-99.5 -41t-125.5 -27v-209h-117v207q-86 7 -161 42t-133 95t-91 151t-33 202q0 117 34.5 215t93.5 163t133 104t157 48v168h117v-164q67 -6 129 -29t87.5 -39.5t34.5 -25.5l-55 -86q-97 58 -196 69v-796q23 2 46 7t43 11t37 12t32.5 13.5t25 12
t19 9.5t10.5 6zM506 119v792q-122 -20 -206.5 -127.5t-84.5 -273.5q0 -171 85.5 -273.5t205.5 -117.5z" />
    <glyph glyph-name="sterling.fitted" horiz-adv-x="1048" 
d="M999 1270l-63 -82q-118 92 -266 92t-230 -93.5t-82 -268.5q0 -65 15 -211h399v-111h-389q0 -5 3 -50.5t3 -72.5q0 -281 -121 -358h697v-115h-899v104q48 15 81 35.5t60 56.5t40 93t13 137q0 62 -8 170h-182v111h174q-21 155 -21 211q0 220 118.5 346.5t320.5 126.5
q73 0 137.5 -15.5t105 -38t63 -39.5t31.5 -28z" />
    <glyph glyph-name="florin.fitted" horiz-adv-x="1069" 
d="M1069 1343l-37 -98q-18 9 -60.5 21t-86.5 12q-92 0 -140 -57t-79 -205l-66 -307h313l-22 -113h-316l-126 -625q0 -2 -7.5 -38t-9.5 -44t-9.5 -42t-12 -47t-12.5 -41.5t-15.5 -44t-17 -36.5t-20.5 -36t-23 -27q-80 -80 -207 -80q-24 0 -46.5 2t-41 6t-34 8t-28.5 9
t-21.5 8.5t-16.5 7.5t-9 4l39 98q80 -30 147 -30q76 0 117 41q25 25 44.5 74t29 87.5t25.5 118.5q4 19 6 29l125 598h-265l23 113h264l62 292q1 4 6 29.5t7 34.5t8 34t10.5 37.5t11.5 35t14.5 37.5t17 33t21 33t24.5 28q88 88 222 88q96 0 192 -48z" />
    <glyph glyph-name="yen.fitted" horiz-adv-x="1083" 
d="M1030 1366l-385 -659h258v-101h-299v-112h299v-101h-299v-393h-129v393h-297v101h297v112h-297v101h252l-377 659h146l342 -637l354 637h135z" />
    <glyph glyph-name="commaaccent" horiz-adv-x="403" 
d="M184 -137h148q0 -103 -46.5 -209.5t-129.5 -190.5l-84 64q62 83 87 159t25 177z" />
    <glyph glyph-name="Commaaccent" horiz-adv-x="403" 
d="M184 -137h148q0 -103 -46.5 -209.5t-129.5 -190.5l-84 64q62 83 87 159t25 177z" />
    <glyph glyph-name="dotlessismall" horiz-adv-x="438" 
d="M283 0h-127v1059h127v-1059z" />
    </font>
</defs>
</svg>
